osu file format v14

[General]
AudioFilename: audio.mp3
AudioLeadIn: 0
PreviewTime: 105690
Countdown: 0
SampleSet: Soft
StackLeniency: 0.7
Mode: 0
LetterboxInBreaks: 0
WidescreenStoryboard: 1

[Editor]
Bookmarks: 53340,110940,166140
DistanceSpacing: 1
BeatDivisor: 2
GridSize: 16
TimelineZoom: 1.1

[Metadata]
Title:Hikousen
TitleUnicode:飛行船
Artist:Yuuri
ArtistUnicode:優里
Creator:TheSea
Version:Apis' Normal
Source:
Tags:Ichi 壱 male vocalist vocal jp japanese Rock Jrock J-rock Apis035 Uzawa_Reisa Uzawa Reisa Pepekcz
BeatmapID:3777697
BeatmapSetID:1839444

[Difficulty]
HPDrainRate:4
CircleSize:3
OverallDifficulty:4
ApproachRate:6
SliderMultiplier:1.1
SliderTickRate:1

[Events]
//Background and Video events
0,0,"BGHikousen.png",0,0
//Break Periods
2,65239,76140
2,142040,150540
//Storyboard Layer 0 (Background)
//Storyboard Layer 1 (Fail)
//Storyboard Layer 2 (Pass)
//Storyboard Layer 3 (Foreground)
//Storyboard Layer 4 (Overlay)
//Storyboard Sound Samples

[TimingPoints]
540,300,4,2,1,60,1,0
5340,-100,4,2,1,70,0,0
5865,-100,4,2,1,5,0,0
5940,-100,4,2,1,70,0,0
10665,-100,4,2,1,5,0,0
10740,-100,4,2,1,70,0,0
14940,-100,4,2,1,75,0,0
17190,-100,4,2,1,70,0,0
19740,-111.111111111111,4,2,1,60,0,0
32940,-111.111111111111,4,2,1,60,0,0
34140,-99.9999999999999,4,2,1,70,0,0
34365,-99.9999999999999,4,2,1,5,0,0
34440,-99.9999999999999,4,2,1,70,0,0
34815,-99.9999999999999,4,2,1,5,0,0
34890,-99.9999999999999,4,2,1,70,0,0
36465,-99.9999999999999,4,2,1,5,0,0
36540,-99.9999999999999,4,2,1,75,0,0
37140,-99.9999999999999,4,2,1,60,0,0
37440,-99.9999999999999,4,2,1,70,0,0
38940,-111.111111111111,4,2,1,60,0,0
39240,-111.111111111111,4,2,1,65,0,0
39765,-111.111111111111,4,2,1,5,0,0
39840,-111.111111111111,4,2,1,65,0,0
40365,-111.111111111111,4,2,1,5,0,0
40440,-111.111111111111,4,2,1,65,0,0
41040,-111.111111111111,4,2,1,63,0,0
41340,-111.111111111111,4,2,1,65,0,0
41565,-111.111111111111,4,2,1,5,0,0
41640,-111.111111111111,4,2,1,65,0,0
42165,-111.111111111111,4,2,1,5,0,0
42240,-111.111111111111,4,2,1,65,0,0
42765,-111.111111111111,4,2,1,5,0,0
42840,-111.111111111111,4,2,1,65,0,0
43440,-111.111111111111,4,2,1,70,0,0
43540,-111.111111111111,4,2,1,68,0,0
43640,-111.111111111111,4,2,1,66,0,0
43740,-111.111111111111,4,2,1,70,0,0
44865,-111.111111111111,4,2,1,5,0,0
44940,-111.111111111111,4,2,1,70,0,0
48165,-111.111111111111,4,2,1,5,0,0
48240,-111.111111111111,4,2,1,65,0,0
48540,-100,4,2,1,80,0,1
48765,-100,4,2,1,5,0,1
48840,-100,4,2,1,80,0,1
49965,-100,4,2,1,5,0,1
50040,-100,4,2,1,80,0,1
52365,-100,4,2,1,5,0,1
52440,-100,4,2,1,80,0,1
57015,-100,4,2,1,5,0,1
57090,-100,4,2,1,80,0,1
57615,-100,4,2,1,5,0,1
57690,-100,4,2,1,80,0,1
59565,-100,4,2,1,5,0,1
59640,-100,4,2,1,80,0,1
61965,-100,4,2,1,5,0,1
62040,-100,4,2,1,80,0,1
64140,-100,4,2,1,80,0,0
64215,-100,4,2,1,80,0,0
65340,-100,4,2,1,65,0,0
67740,-111.111111111111,4,2,1,55,0,0
76740,-111.111111111111,4,2,1,65,0,0
77040,-111.111111111111,4,2,1,75,0,0
77340,-111.111111111111,4,2,1,60,0,0
85740,-111.111111111111,4,2,1,70,0,0
86940,-111.111111111111,4,2,1,75,0,0
87315,-111.111111111111,4,2,1,5,0,0
87390,-111.111111111111,4,2,1,75,0,0
87765,-111.111111111111,4,2,1,5,0,0
87840,-111.111111111111,4,2,1,75,0,0
87990,-111.111111111111,4,2,1,75,0,0
89340,-111.111111111111,4,2,1,75,0,0
89715,-111.111111111111,4,2,1,5,0,0
89790,-111.111111111111,4,2,1,75,0,0
90165,-111.111111111111,4,2,1,5,0,0
90240,-111.111111111111,4,2,1,75,0,0
90390,-111.111111111111,4,2,1,75,0,0
90690,-111.111111111111,4,2,1,60,0,0
91140,-111.111111111111,4,2,1,65,0,0
91740,-111.111111111111,4,2,1,70,0,0
96540,-111.111111111111,4,2,1,60,0,0
101340,-111.111111111111,4,2,1,70,0,0
101565,-111.111111111111,4,2,1,5,0,0
101640,-111.111111111111,4,2,1,70,0,0
103740,-111.111111111111,4,2,1,70,0,0
103965,-111.111111111111,4,2,1,5,0,0
104040,-111.111111111111,4,2,1,70,0,0
104940,-111.111111111111,4,2,1,75,0,0
106140,-100,4,2,1,80,0,1
106365,-100,4,2,1,5,0,1
106440,-100,4,2,1,80,0,1
107565,-100,4,2,1,5,0,1
107640,-100,4,2,1,80,0,1
109965,-100,4,2,1,5,0,1
110040,-100,4,2,1,80,0,1
114615,-100,4,2,1,5,0,1
114690,-100,4,2,1,80,0,1
115215,-100,4,2,1,5,0,1
115290,-100,4,2,1,80,0,1
117165,-100,4,2,1,5,0,1
117240,-100,4,2,1,80,0,1
119565,-100,4,2,1,5,0,1
119640,-100,4,2,1,80,0,1
122440,-100,4,2,1,80,0,1
122540,-100,4,2,1,85,0,1
122640,-100,4,2,1,80,0,1
122740,-100,4,2,1,75,0,1
122840,-100,4,2,1,70,0,1
122940,-100,4,2,1,80,0,0
123015,-100,4,2,1,5,0,0
123090,-100,4,2,1,80,0,0
123390,-100,4,2,1,60,0,0
125340,-100,4,2,1,80,0,0
125415,-100,4,2,1,5,0,0
125490,-100,4,2,1,80,0,0
125640,-100,4,2,1,80,0,0
125940,-100,4,2,1,60,0,0
127740,-100,4,2,1,80,0,0
127815,-100,4,2,1,5,0,0
127890,-100,4,2,1,80,0,0
128040,-100,4,2,1,80,0,0
128340,-100,4,2,1,60,0,0
130140,-100,4,2,1,80,0,0
130215,-100,4,2,1,5,0,0
130290,-100,4,2,1,80,0,0
130440,-100,4,2,1,80,0,0
130740,-100,4,2,1,75,0,0
131340,-100,4,2,1,75,0,0
131565,-100,4,2,1,5,0,0
131640,-100,4,2,1,75,0,0
132540,-100,4,2,1,70,0,0
139665,-100,4,2,1,5,0,0
139740,-100,4,2,1,70,0,0
141540,-100,4,2,1,65,0,0
144240,-111.111111111111,4,2,1,65,0,0
144540,-111.111111111111,4,2,1,50,0,0
151740,-100,4,2,1,80,0,0
152790,-100,4,2,1,75,0,0
154140,-100,4,2,1,70,0,0
155565,-100,4,2,1,5,0,0
155640,-100,4,2,1,70,0,0
159990,-100,4,2,1,80,0,0
161340,-100,4,2,1,85,0,1
162765,-100,4,2,1,5,0,1
162840,-100,4,2,1,85,0,1
165165,-100,4,2,1,5,0,1
165240,-100,4,2,1,85,0,1
169815,-100,4,2,1,5,0,1
169890,-100,4,2,1,85,0,1
170415,-100,4,2,1,5,0,1
170490,-100,4,2,1,85,0,1
172365,-100,4,2,1,5,0,1
172440,-100,4,2,1,85,0,1
174765,-100,4,2,1,5,0,1
174840,-100,4,2,1,85,0,1
178140,-100,4,2,1,70,0,0
180540,-100,4,2,1,75,0,0
180765,-100,4,2,1,5,0,0
180840,-100,4,2,1,75,0,0
181215,-100,4,2,1,5,0,0
181290,-100,4,2,1,75,0,0
182115,-100,4,2,1,5,0,0
182190,-100,4,2,1,75,0,0
182565,-100,4,2,1,5,0,0
182640,-100,4,2,1,75,0,0
183165,-100,4,2,1,5,0,0
183240,-100,4,2,1,75,0,0
183615,-100,4,2,1,5,0,0
183690,-100,4,2,1,75,0,0
188790,-100,4,2,1,75,0,0
188865,-100,4,2,1,60,0,0
192540,-100,4,2,1,5,0,0

[Colours]
Combo1 : 255,187,187
Combo2 : 155,148,245
Combo3 : 0,223,223
Combo4 : 0,159,236

[HitObjects]
256,192,540,12,0,4140,0:0:0:0:
165,278,5340,6,0,L|325:246,1,110,4|10,3:2|0:0,0:0:0:0:
342,170,5940,2,0,L|422:186,1,55,2|0,3:2|3:0,0:0:0:0:
450,190,6240,1,10,0:0:0:0:
512,99,6540,2,0,L|352:67,1,110,2|10,3:2|0:0,0:0:0:0:
325,0,7140,2,0,L|245:16,1,55,2|0,3:2|3:0,0:0:0:0:
217,22,7440,2,0,L|137:38,1,55,10|8,0:0|0:0,0:0:0:0:
108,28,7740,6,0,B|76:60|76:60|92:156,1,110,2|8,3:2|0:0,0:0:0:0:
168,198,8340,2,0,L|152:278,1,55,2|0,3:2|3:0,0:0:0:0:
148,306,8640,1,10,0:0:0:0:
50,355,8940,2,0,L|18:163,1,110,2|10,3:2|0:0,0:0:0:0:
34,195,9390,1,8,0:0:0:0:
34,195,9540,2,0,P|45:175|122:154,1,55,2|0,3:2|3:0,0:0:0:0:
116,125,9840,2,0,P|138:125|195:181,1,55,10|0,0:0|0:0,0:0:0:0:
214,167,10140,6,0,L|374:135,1,110,4|10,3:2|0:0,0:0:0:0:
366,45,10740,2,0,L|286:29,1,55,2|0,3:2|3:0,0:0:0:0:
258,25,11040,1,10,0:0:0:0:
149,4,11340,2,0,L|117:164,1,110,2|10,3:2|0:0,0:0:0:0:
31,166,11940,2,0,L|47:246,1,55,2|0,3:2|3:0,0:0:0:0:
54,273,12240,2,0,L|70:353,1,55,10|8,0:0|0:0,0:0:0:0:
79,379,12540,6,0,P|95:363|207:363,1,110,2|10,3:2|0:0,0:0:0:0:
282,382,13140,2,0,L|362:366,1,55,2|0,3:2|3:0,0:0:0:0:
393,360,13440,1,10,0:0:0:0:
393,360,13590,2,0,P|409:264|425:200,1,110,4|0,3:2|3:0,0:0:0:0:
489,174,14190,2,0,P|473:158|361:158,1,110,4|8,3:2|0:0,0:0:0:0:
340,165,14640,2,0,L|260:149,1,55,4|8,0:3|0:3,0:0:0:0:
236,147,14940,5,8,0:0:0:0:
236,147,15090,1,8,0:0:0:0:
127,130,15390,2,0,P|143:178|159:274,1,110,0|0,3:0|3:0,0:0:0:0:
168,294,15840,1,8,0:0:0:0:
168,294,15990,1,8,0:0:0:0:
61,321,16290,2,0,P|45:273|29:177,1,110,0|8,3:0|0:3,0:0:0:0:
23,165,16740,1,4,0:3:0:0:
23,165,16890,1,8,0:3:0:0:
51,58,17190,6,0,B|91:44|132:58|119:98|159:112|200:98,1,165,4|2,3:2|3:2,0:0:0:0:
278,21,17940,2,0,P|401:54|412:73,1,110,10|2,0:0|3:2,0:0:0:0:
423,79,18390,1,8,0:0:0:0:
423,79,18540,2,0,L|407:151,1,55,2|8,3:2|0:0,0:0:0:0:
399,186,18840,1,2,3:2:0:0:
305,243,19140,1,4,0:3:0:0:
216,177,19440,1,8,0:3:0:0:
220,78,19740,6,0,B|181:65|143:78|156:110|117:122|79:110,1,148.49999546814,6|10,3:2|0:2,0:0:0:0:
5,171,20490,1,2,3:2:0:0:
5,171,20640,2,0,P|21:267|37:331,1,148.49999546814,10|0,0:0|0:0,0:0:0:0:
46,366,21240,1,0,3:0:0:0:
130,313,21540,2,0,L|242:329,1,98.9999969787599,8|2,0:0|0:0,0:0:0:0:
311,379,22140,6,0,L|455:347,1,148.49999546814,6|8,3:2|0:0,0:0:0:0:
500,258,22890,2,0,L|451:245,1,49.4999984893799,0|8,3:0|0:0,0:0:0:0:
410,231,23190,1,2,0:0:0:0:
410,231,23340,2,0,P|394:215|394:119,1,98.9999969787599,2|2,0:0|3:2,0:0:0:0:
359,45,23940,2,0,L|439:29,2,49.4999984893799,8|2|2,0:0|0:0|0:0,0:0:0:0:
271,92,24540,6,0,B|232:79|194:92|207:124|168:136|130:124,1,148.49999546814,4|8,3:2|0:0,0:0:0:0:
41,108,25290,1,2,3:2:0:0:
41,108,25440,2,0,L|57:204,1,49.4999984893799,10|2,0:0|0:0,0:0:0:0:
33,204,25740,2,0,L|57:332,1,98.9999969787599,6|8,3:2|0:0,0:0:0:0:
58,351,26190,1,10,0:0:0:0:
156,384,26490,1,2,3:2:0:0:
156,384,26640,1,10,0:0:0:0:
221,309,26940,6,0,L|189:133,1,148.49999546814,4|8,3:2|0:0,0:0:0:0:
183,69,27690,1,2,3:2:0:0:
183,69,27840,2,0,L|263:85,1,49.4999984893799,10|10,0:0|0:0,0:0:0:0:
279,90,28140,2,0,L|303:226,1,98.9999969787599,6|10,3:2|0:0,0:0:0:0:
306,235,28590,1,2,0:0:0:0:
326,336,28890,1,2,0:0:0:0:
326,336,29040,1,10,0:0:0:0:
233,371,29340,6,0,B|194:384|156:371|169:339|130:327|92:339,1,148.49999546814,4|8,3:2|0:0,0:0:0:0:
17,286,30090,1,2,3:2:0:0:
17,286,30240,2,0,L|33:206,1,49.4999984893799,10|8,0:0|0:0,0:0:0:0:
20,188,30540,2,0,L|44:60,1,98.9999969787599,2|10,3:2|0:0,0:0:0:0:
46,41,30990,1,2,0:0:0:0:
141,7,31290,1,2,3:2:0:0:
141,7,31440,1,10,0:0:0:0:
223,62,31740,6,0,L|199:190,1,98.9999969787599,0|8,3:0|3:2,0:0:0:0:
186,256,32340,1,8,3:2:0:0:
254,327,32640,1,10,0:0:0:0:
352,313,32940,1,2,0:0:0:0:
512,7,33990,5,0,0:0:0:0:
512,7,34140,2,0,L|384:39,1,110,4|10,3:2|0:0,0:0:0:0:
355,50,34590,1,4,3:2:0:0:
355,50,34740,1,2,0:0:0:0:
333,157,35040,2,0,L|205:125,1,110,14|4,0:0|3:2,0:0:0:0:
120,101,35640,1,6,3:2:0:0:
37,173,35940,1,6,3:2:0:0:
70,277,36240,1,6,3:2:0:0:
4,365,36540,6,0,P|148:365|164:397,1,165,8|10,0:0|0:0,0:0:0:0:
240,227,37440,2,0,L|416:275,1,165,14|2,0:0|3:2,0:0:0:0:
451,286,38040,1,2,0:0:0:0:
481,180,38340,1,10,0:0:0:0:
512,74,38640,1,2,3:2:0:0:
443,2,38940,6,0,L|331:26,1,98.9999969787599,2|2,3:2|3:2,0:0:0:0:
256,64,39540,2,0,L|144:40,1,98.9999969787599,10|2,0:0|3:2,0:0:0:0:
113,46,39990,1,2,0:0:0:0:
113,46,40140,2,0,P|102:48|66:111,1,49.4999984893799,2|2,3:2|0:0,0:0:0:0:
44,113,40440,2,0,P|41:123|77:186,1,49.4999984893799,2|2,3:2|0:0,0:0:0:0:
77,200,40740,1,10,0:0:0:0:
173,178,41040,1,8,0:0:0:0:
241,249,41340,6,0,L|217:369,1,98.9999969787599,0|2,3:0|3:2,0:0:0:0:
316,373,41940,2,0,L|340:253,1,98.9999969787599,2|2,3:2|3:2,0:0:0:0:
358,234,42390,1,2,0:0:0:0:
358,234,42540,2,0,L|334:114,1,98.9999969787599,2|2,3:2|3:2,0:0:0:0:
332,92,42990,1,2,0:0:0:0:
332,92,43140,1,2,3:2:0:0:
416,40,43440,1,8,0:3:0:0:
500,91,43740,6,0,L|476:219,1,98.9999969787599,6|2,3:2|3:2,0:0:0:0:
463,285,44340,1,2,3:2:0:0:
386,347,44640,1,2,3:2:0:0:
304,290,44940,2,0,P|192:290|176:306,1,98.9999969787599,10|8,3:2|3:0,0:0:0:0:
135,343,45540,2,0,P|24:323|11:305,1,98.9999969787599,8|10,3:2|3:2,0:0:0:0:
0,247,46140,6,0,L|32:71,1,148.49999546814,2|10,3:2|0:0,0:0:0:0:
36,52,46740,1,2,3:2:0:0:
127,14,47040,1,8,3:2:0:0:
200,80,47340,2,0,B|276:105|353:80|328:3|404:-22|481:3,1,296.99999093628,6|2,3:2|3:2,0:0:0:0:
511,100,48540,6,0,L|479:260,1,110,6|10,3:2|0:0,0:0:0:0:
482,265,48990,1,2,0:0:0:0:
482,265,49140,2,0,L|402:281,1,55,2|2,3:2|3:2,0:0:0:0:
374,288,49440,2,0,L|294:304,1,55,10|2,0:0|0:0,0:0:0:0:
266,313,49740,1,2,3:2:0:0:
179,381,50040,2,0,B|131:333|131:333|171:205,1,165,10|0,0:0|3:0,0:0:0:0:
177,188,50640,1,10,0:0:0:0:
128,89,50940,6,0,P|12:120|2:147,1,110,6|10,3:2|0:0,0:0:0:0:
4,154,51390,1,2,0:0:0:0:
4,154,51540,2,0,L|20:234,1,55,2|2,3:2|3:2,0:0:0:0:
27,261,51840,2,0,L|43:341,1,55,10|2,0:0|0:0,0:0:0:0:
51,368,52140,1,2,3:2:0:0:
153,327,52440,2,0,B|196:312|239:327|224:370|268:384|311:370,1,165,10|8,0:0|0:0,0:0:0:0:
355,362,53040,1,2,3:2:0:0:
462,383,53340,6,0,P|478:287|494:223,1,110,6|8,3:2|0:0,0:0:0:0:
508,229,53790,1,2,0:0:0:0:
508,229,53940,2,0,L|476:69,1,110,2|10,3:2|0:0,0:0:0:0:
500,12,54540,2,0,P|388:12|372:28,1,110,2|10,3:2|0:0,0:0:0:0:
300,59,55140,1,2,3:2:0:0:
197,18,55440,1,10,0:0:0:0:
107,82,55740,6,0,L|139:242,1,110,4|8,3:2|0:0,0:0:0:0:
59,276,56340,1,2,3:2:0:0:
59,276,56490,2,0,L|75:356,1,55,2|8,3:2|0:0,0:0:0:0:
83,383,56790,2,0,P|131:367|227:351,1,110,6|2,3:2|3:2,0:0:0:0:
274,284,57390,2,0,P|323:294|414:328,1,110,6|10,3:2|0:0,0:0:0:0:
430,329,57840,1,10,0:0:0:0:
512,255,58140,6,0,L|480:95,1,110,6|10,3:2|0:0,0:0:0:0:
480,98,58590,1,2,0:0:0:0:
480,98,58740,2,0,L|400:82,1,55,2|2,3:2|3:2,0:0:0:0:
372,75,59040,2,0,L|292:59,1,55,10|2,0:0|0:0,0:0:0:0:
264,50,59340,1,2,3:2:0:0:
202,141,59640,2,0,B|158:155|115:141|130:97|86:83|43:97,1,165,10|0,0:0|3:0,0:0:0:0:
0,108,60240,1,10,0:0:0:0:
52,204,60540,6,0,L|20:348,1,110,6|10,3:2|0:0,0:0:0:0:
51,366,60990,1,2,3:2:0:0:
51,366,61140,2,0,P|60:371|145:348,1,55,10|2,0:0|3:2,0:0:0:0:
158,369,61440,2,0,P|167:363|190:278,1,55,10|10,0:0|0:0,0:0:0:0:
211,276,61740,1,6,3:2:0:0:
312,318,62040,1,10,0:0:0:0:
389,239,62340,2,0,L|373:159,1,55,0|0,3:0|3:0,0:0:0:0:
368,130,62640,1,10,0:0:0:0:
475,106,62940,6,0,L|507:266,1,110,6|10,3:2|0:0,0:0:0:0:
512,271,63390,1,2,0:0:0:0:
512,271,63540,2,0,L|496:351,1,55,2|2,3:2|3:2,0:0:0:0:
490,378,63840,1,10,0:0:0:0:
390,331,64140,2,0,P|310:347|262:363,1,110,6|2,3:2|0:0,0:0:0:0:
254,248,64740,2,0,P|334:232|382:216,1,110,2|2,0:0|0:0,0:0:0:0:
231,196,77340,6,0,B|192:183|154:196|167:234|128:247|90:234,1,148.49999546814,4|0,3:2|0:0,0:0:0:0:
49,224,77940,1,0,3:0:0:0:
0,310,78240,1,2,0:0:0:0:
66,383,78540,2,0,L|194:359,1,98.9999969787599,2|2,3:2|0:0,0:0:0:0:
212,370,78990,2,0,L|340:346,1,98.9999969787599,2|2,0:0|0:0,0:0:0:0:
358,343,79440,1,2,0:0:0:0:
455,360,79740,6,0,P|471:232|487:184,1,148.49999546814,0|0,3:0|0:0,0:0:0:0:
491,166,80340,1,0,3:0:0:0:
435,84,80640,1,2,0:0:0:0:
337,102,80940,2,0,L|209:78,1,98.9999969787599,2|2,3:2|0:0,0:0:0:0:
190,87,81390,2,0,L|62:63,1,98.9999969787599,2|2,0:0|0:0,0:0:0:0:
44,58,81840,1,2,0:0:0:0:
0,146,82140,6,0,P|16:194|32:290,1,148.49999546814,0|0,3:0|0:0,0:0:0:0:
33,340,82740,1,0,3:0:0:0:
127,309,83040,1,2,0:0:0:0:
209,363,83340,2,0,L|337:339,1,98.9999969787599,2|2,3:2|0:0,0:0:0:0:
314,246,83940,2,0,L|186:270,1,98.9999969787599,2|2,3:2|0:0,0:0:0:0:
128,220,84540,6,0,P|128:100|136:92,1,98.9999969787599,2|2,3:2|0:0,0:0:0:0:
105,77,84990,2,0,P|208:16|219:19,1,98.9999969787599,2|2,0:0|0:0,0:0:0:0:
225,5,85440,1,2,0:0:0:0:
307,60,85740,1,4,3:2:0:0:
396,18,86040,1,0,0:0:0:0:
487,56,86340,2,0,L|471:152,1,49.4999984893799,2|0,3:2|3:0,0:0:0:0:
470,154,86640,2,0,L|454:250,1,49.4999984893799,10|8,0:0|0:0,0:0:0:0:
452,251,86940,6,0,P|356:235|308:299,2,148.49999546814,4|4|4,3:2|3:2|3:2,0:0:0:0:
17,13,89340,6,0,L|49:205,2,148.49999546814,4|4|4,3:2|3:2|3:2,0:0:0:0:
350,373,91740,6,0,B|388:385|426:373|414:334|452:321|490:334,2,148.49999546814,6|6|6,3:2|3:2|3:2,0:0:0:0:
268,317,92940,2,0,B|229:304|191:317|204:355|165:368|127:355,2,148.49999546814,6|6|14,3:2|3:2|0:0,0:0:0:0:
363,288,94140,6,0,L|395:96,1,148.49999546814,4|4,3:2|3:2,0:0:0:0:
341,0,95040,1,14,0:0:0:0:
268,66,95340,2,0,P|156:66|140:50,1,98.9999969787599,2|2,3:2|0:0,0:0:0:0:
132,50,95790,2,0,P|20:59|5:77,1,98.9999969787599,2|4,3:2|0:3,0:0:0:0:
0,79,96240,1,8,0:3:0:0:
19,176,96540,6,0,L|-5:296,1,98.9999969787599,4|0,3:2|0:0,0:0:0:0:
95,299,97140,2,0,L|119:179,1,98.9999969787599,0|2,3:0|0:0,0:0:0:0:
188,136,97740,2,0,P|291:196|294:206,1,98.9999969787599,2|2,3:2|0:0,0:0:0:0:
322,186,98190,2,0,P|322:306|314:314,1,98.9999969787599,2|2,0:0|0:0,0:0:0:0:
322,325,98640,1,2,0:0:0:0:
402,383,98940,5,4,3:2:0:0:
493,345,99240,1,2,0:0:0:0:
493,246,99540,2,0,L|517:118,1,98.9999969787599,2|2,3:2|0:0,0:0:0:0:
415,124,100140,2,0,L|391:252,1,98.9999969787599,0|0,3:0|0:0,0:0:0:0:
379,318,100740,2,0,L|283:334,1,49.4999984893799,4|0,3:2|3:0,0:0:0:0:
281,337,101040,2,0,L|185:353,1,49.4999984893799,8|2,0:0|0:0,0:0:0:0:
183,352,101340,6,0,P|135:336|55:320,1,98.9999969787599,6|2,3:2|3:2,0:0:0:0:
40,237,101940,2,0,P|42:226|105:190,1,49.4999984893799,2|2,3:2|0:0,0:0:0:0:
106,167,102240,2,0,P|116:164|179:200,1,49.4999984893799,2|2,3:2|0:0,0:0:0:0:
198,192,102540,1,2,3:2:0:0:
283,142,102840,1,0,3:0:0:0:
376,174,103140,2,0,L|360:270,1,49.4999984893799,2|2,3:2|0:0,0:0:0:0:
359,271,103440,2,0,L|343:367,1,49.4999984893799,2|2,3:2|0:0,0:0:0:0:
372,364,103740,6,0,P|480:335|491:315,1,98.9999969787599,6|2,3:2|3:2,0:0:0:0:
498,313,104190,1,2,0:0:0:0:
479,220,104490,1,2,0:0:0:0:
479,220,104640,2,0,L|495:124,1,49.4999984893799,2|2,3:2|0:0,0:0:0:0:
496,122,104940,1,12,0:0:0:0:
426,51,105240,1,12,0:0:0:0:
333,87,105540,2,0,P|285:71|205:63,1,98.9999969787599,12|10,0:0|0:0,0:0:0:0:
144,3,106140,6,0,P|48:19|0:35,1,110,6|10,3:2|0:0,0:0:0:0:
4,68,106590,1,2,0:0:0:0:
4,68,106740,2,0,L|20:148,1,55,2|2,3:2|3:2,0:0:0:0:
27,175,107040,2,0,L|43:255,1,55,10|2,0:0|0:0,0:0:0:0:
49,282,107340,1,2,3:2:0:0:
3,382,107640,2,0,P|19:358|163:358,1,165,10|0,0:0|3:0,0:0:0:0:
189,371,108240,1,10,0:0:0:0:
286,319,108540,6,0,L|446:351,1,110,6|10,3:2|0:0,0:0:0:0:
452,353,108990,1,2,0:0:0:0:
452,353,109140,2,0,L|468:273,1,55,2|2,3:2|3:2,0:0:0:0:
475,246,109440,2,0,L|491:166,1,55,10|2,0:0|0:0,0:0:0:0:
497,139,109740,1,2,3:2:0:0:
445,41,110040,2,0,B|397:9|397:9|269:41,1,165,10|8,0:0|0:0,0:0:0:0:
241,54,110640,1,2,3:2:0:0:
141,7,110940,6,0,P|125:87|109:151,1,110,6|8,3:2|0:0,0:0:0:0:
90,163,111390,1,2,0:0:0:0:
90,163,111540,2,0,L|122:307,1,110,2|10,3:2|0:0,0:0:0:0:
51,360,112140,2,0,P|179:360|195:344,1,110,2|10,3:2|0:0,0:0:0:0:
249,316,112740,1,2,3:2:0:0:
345,368,113040,1,10,0:0:0:0:
442,317,113340,6,0,L|474:157,1,110,4|8,3:2|0:0,0:0:0:0:
360,188,113940,1,2,3:2:0:0:
360,188,114090,2,0,L|344:268,1,55,2|8,3:2|0:0,0:0:0:0:
325,291,114390,2,0,P|309:307|213:307,1,110,6|2,3:2|3:2,0:0:0:0:
121,348,114990,2,0,P|99:342|51:259,1,110,6|10,3:2|0:0,0:0:0:0:
49,219,115440,1,10,0:0:0:0:
0,120,115740,6,0,L|160:88,1,110,6|10,3:2|0:0,0:0:0:0:
148,61,116190,1,2,0:0:0:0:
148,61,116340,2,0,L|228:77,1,55,2|2,3:2|3:2,0:0:0:0:
255,85,116640,2,0,L|335:101,1,55,10|2,0:0|0:0,0:0:0:0:
362,106,116940,1,2,3:2:0:0:
437,26,117240,2,0,B|485:74|485:74|453:202,1,165,10|0,0:0|3:0,0:0:0:0:
444,220,117840,1,10,0:0:0:0:
499,315,118140,6,0,P|403:331|355:347,1,110,6|10,3:2|0:0,0:0:0:0:
344,360,118590,1,2,3:2:0:0:
344,360,118740,2,0,L|264:344,1,55,10|2,0:0|3:2,0:0:0:0:
237,336,119040,2,0,L|157:320,1,55,10|10,0:0|0:0,0:0:0:0:
130,315,119340,1,6,3:2:0:0:
64,226,119640,1,10,0:0:0:0:
137,143,119940,2,0,L|217:159,1,55,0|0,3:0|3:0,0:0:0:0:
244,164,120240,1,10,0:0:0:0:
303,256,120540,6,0,L|463:224,1,110,6|10,3:2|0:0,0:0:0:0:
467,222,120990,1,2,0:0:0:0:
467,222,121140,2,0,L|483:158,1,55,2|2,3:2|3:2,0:0:0:0:
495,115,121440,1,10,0:0:0:0:
424,30,121740,2,0,P|360:46|280:62,1,110,6|2,3:2|0:0,0:0:0:0:
245,138,122340,2,0,P|309:154|389:170,1,110,2|4,0:0|0:3,0:0:0:0:
279,246,122940,5,8,3:2:0:0:
279,246,123090,1,8,3:2:0:0:
36,34,125340,5,8,3:2:0:0:
36,34,125490,1,10,3:2:0:0:
424,186,127740,5,8,3:2:0:0:
424,186,127890,1,10,3:2:0:0:
78,378,129690,6,0,L|67:302,1,55,0|10,3:0|0:0,0:0:0:0:
57,218,130140,1,8,3:2:0:0:
57,218,130290,1,8,3:2:0:0:
218,68,130890,6,0,L|207:144,1,55,2|10,3:2|0:0,0:0:0:0:
146,212,131340,2,0,P|274:212|290:196,1,110,2|2,3:2|3:2,0:0:0:0:
328,149,131940,2,0,P|451:182|462:201,1,110,2|4,3:2|0:3,0:0:0:0:
499,249,132540,6,0,P|483:313|467:409,1,110,4|0,3:2|3:0,0:0:0:0:
367,383,133140,2,0,P|354:318|328:224,1,110,0|2,3:0|3:2,0:0:0:0:
317,233,133590,1,2,0:0:0:0:
317,233,133740,2,0,B|277:217|277:217|181:241,1,110,2|2,3:2|3:2,0:0:0:0:
162,331,134340,2,0,L|2:299,1,110,0|0,3:0|3:0,0:0:0:0:
4,299,134790,1,2,0:0:0:0:
4,299,134940,5,0,3:0:0:0:
63,206,135240,1,2,3:2:0:0:
18,105,135540,2,0,L|98:89,1,55,2|2,3:2|0:0,0:0:0:0:
125,81,135840,2,0,L|205:65,1,55,2|2,3:2|0:0,0:0:0:0:
231,54,136140,2,0,P|295:70|391:86,1,110,2|2,3:2|3:2,0:0:0:0:
447,96,136740,1,0,3:0:0:0:
415,201,137040,2,0,L|431:281,1,55,8|2,0:0|0:0,0:0:0:0:
418,309,137340,6,0,P|402:325|306:325,1,110,4|2,3:2|3:2,0:0:0:0:
275,310,137790,1,2,3:2:0:0:
275,310,137940,2,0,L|131:342,1,110,10|2,0:0|3:2,0:0:0:0:
142,226,138540,2,0,L|286:194,1,110,2|10,3:2|0:0,0:0:0:0:
307,193,138990,1,0,0:0:0:0:
307,193,139140,1,8,0:0:0:0:
357,95,139440,1,8,0:3:0:0:
275,30,139740,5,10,3:2:0:0:
275,30,139890,2,0,B|234:16|193:30|207:70|166:84|125:70,1,165,8|4,3:2|0:3,0:0:0:0:
42,0,140640,2,0,B|-6:48|-6:48|26:208,1,220,6|0,3:2|0:0,0:0:0:0:
131,173,141540,1,2,0:0:0:0:
206,252,141840,1,2,0:0:0:0:
303,68,151740,5,8,3:2:0:0:
303,68,151890,2,0,B|346:53|389:68|374:111|418:125|461:111,1,165,8|4,3:2|0:3,0:0:0:0:
411,274,152790,2,0,P|363:258|267:242,1,110,6|0,3:2|3:0,0:0:0:0:
264,217,153240,1,8,0:0:0:0:
264,217,153390,2,0,P|214:227|123:261,1,110,2|0,0:0|0:0,0:0:0:0:
108,270,153840,1,4,0:3:0:0:
37,354,154140,6,0,P|21:338|21:210,1,110,6|2,3:2|3:2,0:0:0:0:
73,174,154740,2,0,L|49:22,1,110,2|2,3:2|3:2,0:0:0:0:
49,15,155190,1,2,0:0:0:0:
49,15,155340,1,2,3:2:0:0:
154,46,155640,2,0,B|194:59|235:46|222:6|262:-8|303:6,1,165,2|0,3:2|0:0,0:0:0:0:
357,16,156240,1,2,3:2:0:0:
457,59,156540,6,0,L|425:219,1,110,2|2,3:2|3:2,0:0:0:0:
332,206,157140,2,0,L|364:366,1,110,2|2,3:2|3:2,0:0:0:0:
368,371,157590,1,2,0:0:0:0:
368,371,157740,1,2,3:2:0:0:
258,371,158040,2,0,B|202:339|202:339|66:371,1,165,8|4,0:0|0:3,0:0:0:0:
51,379,158640,1,8,0:3:0:0:
1,280,158940,5,2,3:2:0:0:
76,200,159240,1,10,0:0:0:0:
14,108,159540,2,0,L|30:28,1,55,2|2,3:2|3:2,0:0:0:0:
39,4,159840,1,10,0:0:0:0:
39,4,159990,1,2,3:2:0:0:
477,233,161340,6,0,L|509:73,1,110,6|10,3:2|0:0,0:0:0:0:
510,74,161790,1,2,0:0:0:0:
510,74,161940,2,0,L|430:58,1,55,2|2,3:2|3:2,0:0:0:0:
402,51,162240,2,0,L|322:35,1,55,10|2,0:0|0:0,0:0:0:0:
294,28,162540,1,2,3:2:0:0:
232,118,162840,2,0,P|210:137|78:101,1,165,10|0,0:0|3:0,0:0:0:0:
55,72,163440,1,10,0:0:0:0:
0,167,163740,6,0,L|32:327,1,110,6|10,3:2|0:0,0:0:0:0:
40,331,164190,1,2,0:0:0:0:
40,331,164340,2,0,L|120:347,1,55,2|2,3:2|3:2,0:0:0:0:
148,354,164640,2,0,L|228:370,1,55,10|2,0:0|0:0,0:0:0:0:
255,375,164940,1,2,3:2:0:0:
363,359,165240,2,0,B|411:311|411:311|379:167,1,165,10|8,0:0|0:0,0:0:0:0:
377,162,165840,1,2,3:2:0:0:
311,73,166140,6,0,P|327:57|455:57,1,110,6|8,3:2|0:0,0:0:0:0:
466,53,166590,1,2,0:0:0:0:
466,53,166740,2,0,L|482:133,1,55,2|0,3:2|3:0,0:0:0:0:
489,161,167040,2,0,L|505:241,1,55,10|2,0:0|0:0,0:0:0:0:
511,268,167340,2,0,P|415:284|367:300,1,110,2|10,3:2|0:0,0:0:0:0:
333,373,167940,1,2,3:2:0:0:
228,337,168240,1,10,0:0:0:0:
127,381,168540,6,0,L|95:221,1,110,4|8,3:2|0:0,0:0:0:0:
35,195,169140,1,2,3:2:0:0:
35,195,169290,2,0,L|19:115,1,55,2|8,3:2|0:0,0:0:0:0:
36,87,169590,2,0,P|148:87|164:103,1,110,6|0,3:2|3:0,0:0:0:0:
223,151,170190,2,0,P|334:141|349:123,1,110,6|10,3:2|0:0,0:0:0:0:
368,111,170640,1,8,0:0:0:0:
474,140,170940,6,0,L|506:300,1,110,6|10,3:2|0:0,0:0:0:0:
485,305,171390,1,2,0:0:0:0:
485,305,171540,2,0,P|477:313|389:313,1,55,2|2,3:2|3:2,0:0:0:0:
382,336,171840,2,0,P|371:333|327:256,1,55,10|2,0:0|0:0,0:0:0:0:
302,263,172140,1,2,3:2:0:0:
214,329,172440,2,0,P|102:297|6:281,1,165,10|0,0:0|3:0,0:0:0:0:
0,277,173040,1,10,0:0:0:0:
10,167,173340,6,0,P|26:151|122:151,1,110,6|10,3:2|0:0,0:0:0:0:
157,178,173790,1,2,3:2:0:0:
157,178,173940,2,0,L|237:162,1,55,10|2,0:0|3:2,0:0:0:0:
264,154,174240,2,0,L|344:138,1,55,10|10,0:0|0:0,0:0:0:0:
372,134,174540,1,6,3:2:0:0:
454,206,174840,1,10,0:0:0:0:
405,304,175140,2,0,L|325:320,1,55,0|0,3:0|3:0,0:0:0:0:
297,326,175440,1,10,0:0:0:0:
203,384,175740,6,0,P|203:272|219:256,1,110,6|10,3:2|0:0,0:0:0:0:
225,235,176190,1,2,0:0:0:0:
225,235,176340,2,0,L|209:155,1,55,2|2,3:2|3:2,0:0:0:0:
203,127,176640,1,10,0:0:0:0:
287,56,176940,2,0,L|447:88,1,110,2|10,3:2|0:0,0:0:0:0:
421,184,177540,2,0,L|261:152,1,110,2|10,3:2|0:0,0:0:0:0:
210,201,178140,6,0,P|82:201|66:217,1,110,4|8,3:2|0:0,0:0:0:0:
28,263,178740,1,0,3:0:0:0:
28,263,178890,1,0,3:0:0:0:
68,365,179190,2,0,P|132:349|228:333,1,110,6|0,3:2|3:0,0:0:0:0:
229,330,179640,1,10,0:0:0:0:
338,325,179940,1,10,0:0:0:0:
432,381,180240,1,10,0:0:0:0:
511,305,180540,6,0,L|479:145,1,110,12|0,0:0|3:0,0:0:0:0:
477,143,180990,1,12,0:0:0:0:
388,87,181290,1,0,3:0:0:0:
388,87,181440,2,0,L|356:247,1,110,14|2,0:0|3:2,0:0:0:0:
354,249,181890,1,12,0:0:0:0:
252,223,182190,1,0,3:0:0:0:
252,223,182340,1,14,0:0:0:0:
166,292,182640,1,14,0:0:0:0:
76,227,182940,6,0,L|108:67,1,110,12|0,0:0|3:0,0:0:0:0:
110,65,183390,1,12,0:0:0:0:
206,9,183690,1,0,3:0:0:0:
206,9,183840,2,0,L|238:169,1,110,14|10,0:0|0:0,0:0:0:0:
240,171,184290,1,4,3:2:0:0:
347,213,184590,1,8,0:0:0:0:
347,213,184740,1,6,3:2:0:0:
437,150,185040,1,14,0:0:0:0:
456,41,185340,6,0,P|413:31|344:25,1,110,4|8,3:2|0:0,0:0:0:0:
293,16,185790,1,4,3:2:0:0:
194,59,186090,1,8,0:0:0:0:
194,59,186240,2,0,B|162:91|162:91|178:171,1,110,4|8,3:2|0:0,0:0:0:0:
190,207,186690,1,4,3:2:0:0:
278,282,186990,1,8,0:0:0:0:
278,282,187140,2,0,P|262:298|230:394,1,110,4|4,3:2|0:3,0:0:0:0:
120,378,187740,6,0,L|88:218,1,110,12|0,0:0|3:0,0:0:0:0:
63,228,188190,2,0,L|95:68,1,110,12|8,0:0|3:0,0:0:0:0:
99,70,188640,1,12,3:2:0:0:
99,70,188790,1,4,3:2:0:0:
256,192,188940,12,0,192540,0:0:0:0:
