osu file format v14

[General]
AudioFilename: audio.mp3
AudioLeadIn: 0
PreviewTime: 59529
Countdown: 0
SampleSet: Normal
StackLeniency: 0.7
Mode: 1
LetterboxInBreaks: 0
WidescreenStoryboard: 0

[Editor]
Bookmarks: 2239,18791,32032,45273,60170,73411,89963
DistanceSpacing: 0.8
BeatDivisor: 4
GridSize: 32
TimelineZoom: 1.7

[Metadata]
Title:Million Love (TV Size)
TitleUnicode:ミリオン・ラブ (TV Size)
Artist:Yuuna (CV: Nakahara Mai)
ArtistUnicode:ゆうな (CV: 中原麻衣)
Creator:arien666
Version:Oni
Source:陰からマモル!
Tags:anime japanese pop j-pop jpop funta 紺若ゆうな konnyaku yuuna kage kara mamoru! marksman666 erowdi
BeatmapID:4175224
BeatmapSetID:2007303

[Difficulty]
HPDrainRate:6
CircleSize:5
OverallDifficulty:6
ApproachRate:5
SliderMultiplier:1.4
SliderTickRate:1

[Events]
//Background and Video events
0,0,"justBG.png",0,0
Video,740,"nyannyankurabuvideo.mp4"
//Break Periods
//Storyboard Layer 0 (Background)
//Storyboard Layer 1 (Fail)
//Storyboard Layer 2 (Pass)
//Storyboard Layer 3 (Foreground)
//Storyboard Layer 4 (Overlay)
//Storyboard Sound Samples

[TimingPoints]
2220,413.793103448276,4,1,0,69,1,0
18771,413.793103448276,4,1,0,69,1,0
60150,413.793103448276,4,1,0,69,1,1
89943,-100,4,1,0,69,0,0

[HitObjects]
256,192,2219,5,4,0:0:0:0:
256,192,3875,1,0,0:0:0:0:
256,192,4288,1,8,0:0:0:0:
256,192,4495,1,8,0:0:0:0:
256,192,4702,1,4,0:0:0:0:
256,192,4909,1,8,0:0:0:0:
256,192,5116,1,8,0:0:0:0:
256,192,5530,1,4,0:0:0:0:
256,192,7185,1,0,0:0:0:0:
256,192,7599,1,8,0:0:0:0:
256,192,7806,1,8,0:0:0:0:
256,192,8013,1,4,0:0:0:0:
256,192,8220,1,8,0:0:0:0:
256,192,8426,1,8,0:0:0:0:
256,192,8840,1,4,0:0:0:0:
256,192,10495,1,4,0:0:0:0:
256,192,10909,1,8,0:0:0:0:
256,192,11116,1,8,0:0:0:0:
256,192,11737,1,8,0:0:0:0:
256,192,11944,1,8,0:0:0:0:
256,192,12151,1,4,0:0:0:0:
256,192,12564,1,0,0:0:0:0:
256,192,12978,1,8,0:0:0:0:
256,192,13392,1,8,0:0:0:0:
256,192,13806,1,0,0:0:0:0:
256,192,14220,1,0,0:0:0:0:
256,192,14633,1,8,0:0:0:0:
256,192,15047,1,8,0:0:0:0:
256,192,15461,1,4,0:0:0:0:
256,192,15875,1,0,0:0:0:0:
256,192,16288,1,8,0:0:0:0:
256,192,16702,1,8,0:0:0:0:
256,192,17116,1,4,0:0:0:0:
256,192,17944,1,8,0:0:0:0:
256,192,18151,1,8,0:0:0:0:
256,192,18357,1,8,0:0:0:0:
256,192,18461,1,8,0:0:0:0:
256,192,18668,1,8,0:0:0:0:
256,192,18771,1,4,0:0:0:0:
256,192,19184,1,8,0:0:0:0:
256,192,19391,1,0,0:0:0:0:
256,192,19495,1,0,0:0:0:0:
256,192,19598,1,8,0:0:0:0:
256,192,19805,1,0,0:0:0:0:
256,192,20012,1,8,0:0:0:0:
256,192,20219,1,8,0:0:0:0:
256,192,20633,1,0,0:0:0:0:
256,192,20839,1,8,0:0:0:0:
256,192,21046,1,0,0:0:0:0:
256,192,21150,1,8,0:0:0:0:
256,192,21253,1,0,0:0:0:0:
256,192,21460,1,0,0:0:0:0:
256,192,21667,1,8,0:0:0:0:
256,192,21874,1,8,0:0:0:0:
256,192,22081,1,0,0:0:0:0:
256,192,22495,1,8,0:0:0:0:
256,192,22702,1,0,0:0:0:0:
256,192,22805,1,0,0:0:0:0:
256,192,22908,1,8,0:0:0:0:
256,192,23115,1,0,0:0:0:0:
256,192,23322,1,8,0:0:0:0:
256,192,23529,1,8,0:0:0:0:
256,192,23943,1,0,0:0:0:0:
256,192,24150,1,8,0:0:0:0:
256,192,24357,1,0,0:0:0:0:
256,192,24460,1,8,0:0:0:0:
256,192,24564,1,0,0:0:0:0:
256,192,24771,1,0,0:0:0:0:
256,192,24874,1,0,0:0:0:0:
256,192,24977,1,8,0:0:0:0:
256,192,25081,1,8,0:0:0:0:
256,192,25184,1,0,0:0:0:0:
256,192,25391,1,4,0:0:0:0:
256,192,25805,1,8,0:0:0:0:
256,192,26012,1,0,0:0:0:0:
256,192,26115,1,0,0:0:0:0:
256,192,26219,1,8,0:0:0:0:
256,192,26426,1,0,0:0:0:0:
256,192,26633,1,8,0:0:0:0:
256,192,26839,1,8,0:0:0:0:
256,192,27046,1,0,0:0:0:0:
256,192,27253,1,0,0:0:0:0:
256,192,27460,1,8,0:0:0:0:
256,192,27667,1,8,0:0:0:0:
256,192,27771,1,0,0:0:0:0:
256,192,27874,1,0,0:0:0:0:
256,192,28081,1,0,0:0:0:0:
256,192,28288,1,8,0:0:0:0:
256,192,28702,1,8,0:0:0:0:
256,192,28908,1,0,0:0:0:0:
256,192,29012,1,0,0:0:0:0:
256,192,29115,1,8,0:0:0:0:
256,192,29322,1,0,0:0:0:0:
256,192,29529,1,8,0:0:0:0:
256,192,29736,1,0,0:0:0:0:
256,192,29943,1,8,0:0:0:0:
256,192,30046,1,8,0:0:0:0:
256,192,30150,1,0,0:0:0:0:
256,192,30357,1,8,0:0:0:0:
256,192,30564,1,0,0:0:0:0:
256,192,30633,1,0,0:0:0:0:
256,192,30702,1,0,0:0:0:0:
256,192,30771,1,0,0:0:0:0:
256,192,30977,1,8,0:0:0:0:
256,192,31391,1,8,0:0:0:0:
256,192,31495,1,8,0:0:0:0:
256,192,31598,1,8,0:0:0:0:
256,192,32012,1,4,0:0:0:0:
256,192,32219,1,8,0:0:0:0:
256,192,32426,1,0,0:0:0:0:
256,192,32529,1,0,0:0:0:0:
256,192,32736,1,0,0:0:0:0:
256,192,32839,1,8,0:0:0:0:
256,192,33046,1,0,0:0:0:0:
256,192,33253,1,8,0:0:0:0:
256,192,33460,1,0,0:0:0:0:
256,192,33874,1,8,0:0:0:0:
256,192,34081,1,0,0:0:0:0:
256,192,34184,1,0,0:0:0:0:
256,192,34391,1,0,0:0:0:0:
256,192,34495,1,8,0:0:0:0:
256,192,34702,1,0,0:0:0:0:
256,192,34908,1,8,0:0:0:0:
256,192,35012,1,8,0:0:0:0:
256,192,35115,1,0,0:0:0:0:
256,192,35529,1,8,0:0:0:0:
256,192,35633,1,8,0:0:0:0:
256,192,35736,1,0,0:0:0:0:
256,192,35839,1,0,0:0:0:0:
256,192,36046,1,0,0:0:0:0:
256,192,36150,1,8,0:0:0:0:
256,192,36357,1,0,0:0:0:0:
256,192,36564,1,8,0:0:0:0:
256,192,36667,1,8,0:0:0:0:
256,192,36771,1,0,0:0:0:0:
256,192,37184,1,8,0:0:0:0:
256,192,37391,1,0,0:0:0:0:
256,192,37598,1,0,0:0:0:0:
256,192,37702,1,8,0:0:0:0:
256,192,38012,1,0,0:0:0:0:
256,192,38219,1,8,0:0:0:0:
256,192,38426,1,8,0:0:0:0:
256,192,38839,1,0,0:0:0:0:
256,192,38943,1,0,0:0:0:0:
256,192,39046,1,8,0:0:0:0:
256,192,39150,1,0,0:0:0:0:
256,192,39357,1,0,0:0:0:0:
256,192,39460,1,8,0:0:0:0:
256,192,39667,1,0,0:0:0:0:
256,192,39874,1,8,0:0:0:0:
256,192,40081,1,8,0:0:0:0:
256,192,40495,1,0,0:0:0:0:
256,192,40702,1,8,0:0:0:0:
256,192,40805,1,0,0:0:0:0:
256,192,41012,1,0,0:0:0:0:
256,192,41115,1,8,0:0:0:0:
256,192,41322,1,0,0:0:0:0:
256,192,41529,1,8,0:0:0:0:
256,192,41736,1,0,0:0:0:0:
256,192,42150,1,0,0:0:0:0:
256,192,42253,1,0,0:0:0:0:
256,192,42357,1,8,0:0:0:0:
256,192,42460,1,0,0:0:0:0:
256,192,42667,1,0,0:0:0:0:
256,192,42771,1,8,0:0:0:0:
256,192,42977,1,0,0:0:0:0:
256,192,43184,1,8,0:0:0:0:
256,192,43391,1,8,0:0:0:0:
256,192,43805,1,0,0:0:0:0:
256,192,44012,1,8,0:0:0:0:
256,192,44219,1,0,0:0:0:0:
256,192,44322,1,0,0:0:0:0:
256,192,44426,1,8,0:0:0:0:
256,192,44529,1,8,0:0:0:0:
256,192,44633,1,0,0:0:0:0:
256,192,44839,1,8,0:0:0:0:
256,192,45253,1,12,0:0:0:0:
256,192,45460,1,0,0:0:0:0:
256,192,45667,1,8,0:0:0:0:
256,192,45874,1,0,0:0:0:0:
256,192,45977,1,0,0:0:0:0:
256,192,46081,1,8,0:0:0:0:
256,192,46288,1,0,0:0:0:0:
256,192,46495,1,8,0:0:0:0:
256,192,46702,1,8,0:0:0:0:
256,192,46908,1,0,0:0:0:0:
256,192,47322,1,8,0:0:0:0:
256,192,47529,1,0,0:0:0:0:
256,192,47736,1,8,0:0:0:0:
256,192,47839,1,0,0:0:0:0:
256,192,47943,1,0,0:0:0:0:
256,192,48150,1,8,0:0:0:0:
256,192,48357,1,8,0:0:0:0:
256,192,48564,1,0,0:0:0:0:
256,192,48771,1,0,0:0:0:0:
256,192,48977,1,8,0:0:0:0:
256,192,49184,1,8,0:0:0:0:
256,192,49288,1,8,0:0:0:0:
256,192,49391,1,0,0:0:0:0:
256,192,49598,1,0,0:0:0:0:
256,192,49805,1,8,0:0:0:0:
256,192,49908,1,0,0:0:0:0:
256,192,50012,1,8,0:0:0:0:
256,192,50219,1,8,0:0:0:0:
256,192,50426,1,8,0:0:0:0:
256,192,50529,1,8,0:0:0:0:
256,192,50633,1,0,0:0:0:0:
256,192,50839,1,8,0:0:0:0:
256,192,51253,1,8,0:0:0:0:
256,192,51460,1,0,0:0:0:0:
256,192,51667,1,0,0:0:0:0:
256,192,51874,1,12,0:0:0:0:
256,192,52081,1,0,0:0:0:0:
256,192,52288,1,8,0:0:0:0:
256,192,52495,1,0,0:0:0:0:
256,192,52598,1,0,0:0:0:0:
256,192,52702,1,8,0:0:0:0:
256,192,52908,1,0,0:0:0:0:
256,192,53115,1,8,0:0:0:0:
256,192,53322,1,0,0:0:0:0:
256,192,53529,1,12,0:0:0:0:
256,192,53736,1,0,0:0:0:0:
256,192,54150,1,0,0:0:0:0:
256,192,54253,1,0,0:0:0:0:
256,192,54357,1,8,0:0:0:0:
256,192,54564,1,0,0:0:0:0:
256,192,54771,1,8,0:0:0:0:
256,192,54977,1,8,0:0:0:0:
256,192,55184,1,12,0:0:0:0:
256,192,55391,1,0,0:0:0:0:
256,192,55598,1,8,0:0:0:0:
256,192,55805,1,0,0:0:0:0:
256,192,55908,1,0,0:0:0:0:
256,192,56012,1,8,0:0:0:0:
256,192,56219,1,0,0:0:0:0:
256,192,56426,1,8,0:0:0:0:
256,192,56633,1,0,0:0:0:0:
256,192,56839,1,8,0:0:0:0:
256,192,56943,1,8,0:0:0:0:
256,192,57046,1,8,0:0:0:0:
256,192,57253,1,8,0:0:0:0:
256,192,57357,1,8,0:0:0:0:
256,192,57460,1,0,0:0:0:0:
256,192,57667,1,8,0:0:0:0:
256,192,57771,1,0,0:0:0:0:
256,192,57874,1,0,0:0:0:0:
256,192,58081,1,0,0:0:0:0:
256,192,58184,1,0,0:0:0:0:
256,192,58288,1,0,0:0:0:0:
256,192,58495,1,12,0:0:0:0:
256,192,59322,1,0,0:0:0:0:
256,192,59426,1,0,0:0:0:0:
256,192,59529,1,8,0:0:0:0:
256,192,59633,1,8,0:0:0:0:
256,192,59736,1,0,0:0:0:0:
256,192,59943,1,8,0:0:0:0:
256,192,60150,1,4,0:0:0:0:
256,192,60356,1,0,0:0:0:0:
256,192,60563,1,8,0:0:0:0:
256,192,60770,1,0,0:0:0:0:
256,192,60874,1,0,0:0:0:0:
256,192,60977,1,8,0:0:0:0:
256,192,61184,1,0,0:0:0:0:
256,192,61391,1,8,0:0:0:0:
256,192,61494,1,8,0:0:0:0:
256,192,61598,1,0,0:0:0:0:
256,192,61805,1,8,0:0:0:0:
256,192,62012,1,0,0:0:0:0:
256,192,62218,1,8,0:0:0:0:
256,192,62425,1,0,0:0:0:0:
256,192,62529,1,0,0:0:0:0:
256,192,62632,1,8,0:0:0:0:
256,192,62736,1,8,0:0:0:0:
256,192,62839,1,0,0:0:0:0:
256,192,63046,1,8,0:0:0:0:
256,192,63460,1,8,0:0:0:0:
256,192,63667,1,0,0:0:0:0:
256,192,63874,1,8,0:0:0:0:
256,192,64081,1,0,0:0:0:0:
256,192,64184,1,0,0:0:0:0:
256,192,64287,1,8,0:0:0:0:
256,192,64494,1,0,0:0:0:0:
256,192,64701,1,8,0:0:0:0:
256,192,64805,1,8,0:0:0:0:
256,192,64908,1,0,0:0:0:0:
256,192,65115,1,0,0:0:0:0:
256,192,65322,1,0,0:0:0:0:
256,192,65529,1,8,0:0:0:0:
256,192,65736,1,0,0:0:0:0:
256,192,65839,1,0,0:0:0:0:
256,192,65943,1,8,0:0:0:0:
256,192,66046,1,8,0:0:0:0:
256,192,66150,1,0,0:0:0:0:
256,192,66356,1,8,0:0:0:0:
256,192,66563,1,8,0:0:0:0:
256,192,66770,1,4,0:0:0:0:
256,192,67184,1,8,0:0:0:0:
256,192,67391,1,0,0:0:0:0:
256,192,67494,1,0,0:0:0:0:
256,192,67598,1,8,0:0:0:0:
256,192,67805,1,0,0:0:0:0:
256,192,68012,1,8,0:0:0:0:
256,192,68115,1,8,0:0:0:0:
256,192,68218,1,0,0:0:0:0:
256,192,68425,1,8,0:0:0:0:
256,192,68632,1,0,0:0:0:0:
256,192,68839,1,8,0:0:0:0:
256,192,69046,1,0,0:0:0:0:
256,192,69150,1,0,0:0:0:0:
256,192,69253,1,8,0:0:0:0:
256,192,69356,1,8,0:0:0:0:
256,192,69460,1,0,0:0:0:0:
256,192,69667,1,8,0:0:0:0:
256,192,69874,1,8,0:0:0:0:
256,192,70081,1,4,0:0:0:0:
256,192,70494,1,8,0:0:0:0:
256,192,70701,1,8,0:0:0:0:
256,192,70805,1,8,0:0:0:0:
256,192,70908,1,0,0:0:0:0:
256,192,71115,1,0,0:0:0:0:
256,192,71322,1,8,0:0:0:0:
256,192,71529,1,0,0:0:0:0:
256,192,71736,1,0,0:0:0:0:
256,192,71943,1,0,0:0:0:0:
256,192,72150,1,8,0:0:0:0:
256,192,72356,1,0,0:0:0:0:
256,192,72460,1,0,0:0:0:0:
256,192,72563,1,8,0:0:0:0:
256,192,72770,1,0,0:0:0:0:
256,192,72874,1,0,0:0:0:0:
256,192,72977,1,8,0:0:0:0:
256,192,73081,1,8,0:0:0:0:
256,192,73184,1,8,0:0:0:0:
256,192,73391,1,4,0:0:0:0:
256,192,73598,1,0,0:0:0:0:
256,192,73805,1,8,0:0:0:0:
256,192,74012,1,0,0:0:0:0:
256,192,74115,1,0,0:0:0:0:
256,192,74218,1,8,0:0:0:0:
256,192,74425,1,0,0:0:0:0:
256,192,74632,1,8,0:0:0:0:
256,192,74736,1,8,0:0:0:0:
256,192,74839,1,0,0:0:0:0:
256,192,74943,1,0,0:0:0:0:
256,192,75046,1,8,0:0:0:0:
256,192,75253,1,0,0:0:0:0:
256,192,75460,1,8,0:0:0:0:
256,192,75667,1,0,0:0:0:0:
256,192,75770,1,0,0:0:0:0:
256,192,75874,1,8,0:0:0:0:
256,192,76081,1,8,0:0:0:0:
256,192,76184,1,8,0:0:0:0:
256,192,76287,1,0,0:0:0:0:
256,192,76701,1,0,0:0:0:0:
256,192,76908,1,0,0:0:0:0:
256,192,77115,1,8,0:0:0:0:
256,192,77322,1,0,0:0:0:0:
256,192,77425,1,0,0:0:0:0:
256,192,77529,1,8,0:0:0:0:
256,192,77736,1,0,0:0:0:0:
256,192,77943,1,8,0:0:0:0:
256,192,78046,1,8,0:0:0:0:
256,192,78150,1,0,0:0:0:0:
256,192,78253,1,8,0:0:0:0:
256,192,78356,1,0,0:0:0:0:
256,192,78563,1,0,0:0:0:0:
256,192,78770,1,8,0:0:0:0:
256,192,78977,1,0,0:0:0:0:
256,192,79081,1,0,0:0:0:0:
256,192,79184,1,8,0:0:0:0:
256,192,79391,1,0,0:0:0:0:
256,192,79598,1,8,0:0:0:0:
256,192,80012,1,12,0:0:0:0:
256,192,80218,1,0,0:0:0:0:
256,192,80425,1,8,0:0:0:0:
256,192,80632,1,0,0:0:0:0:
256,192,80736,1,0,0:0:0:0:
256,192,80839,1,8,0:0:0:0:
256,192,81046,1,0,0:0:0:0:
256,192,81253,1,8,0:0:0:0:
256,192,81356,1,8,0:0:0:0:
256,192,81460,1,0,0:0:0:0:
256,192,81563,1,0,0:0:0:0:
256,192,81667,1,8,0:0:0:0:
256,192,81874,1,0,0:0:0:0:
256,192,82081,1,8,0:0:0:0:
256,192,82287,1,0,0:0:0:0:
256,192,82391,1,0,0:0:0:0:
256,192,82494,1,8,0:0:0:0:
256,192,82701,1,0,0:0:0:0:
256,192,82805,1,8,0:0:0:0:
256,192,82908,1,8,0:0:0:0:
256,192,83115,1,8,0:0:0:0:
256,192,83322,1,12,0:0:0:0:
256,192,83736,1,8,0:0:0:0:
256,192,83943,1,0,0:0:0:0:
256,192,84046,1,0,0:0:0:0:
256,192,84150,1,8,0:0:0:0:
256,192,84356,1,0,0:0:0:0:
256,192,84563,1,8,0:0:0:0:
256,192,84667,1,8,0:0:0:0:
256,192,84770,1,0,0:0:0:0:
256,192,84977,1,8,0:0:0:0:
256,192,85391,1,8,0:0:0:0:
256,192,85598,1,0,0:0:0:0:
256,192,85701,1,0,0:0:0:0:
256,192,85805,1,8,0:0:0:0:
256,192,85908,1,8,0:0:0:0:
256,192,86012,1,0,0:0:0:0:
256,192,86218,1,8,0:0:0:0:
256,192,86322,1,8,0:0:0:0:
256,192,86425,1,0,0:0:0:0:
256,192,86632,1,12,0:0:0:0:
256,192,86839,1,0,0:0:0:0:
256,192,87046,1,8,0:0:0:0:
256,192,87150,1,0,0:0:0:0:
256,192,87253,1,0,0:0:0:0:
256,192,87356,1,0,0:0:0:0:
256,192,87460,1,8,0:0:0:0:
256,192,87667,1,0,0:0:0:0:
256,192,87874,1,8,0:0:0:0:
256,192,87977,1,8,0:0:0:0:
256,192,88081,1,0,0:0:0:0:
256,192,88287,1,12,0:0:0:0:
256,192,89322,1,0,0:0:0:0:
256,192,89529,1,8,0:0:0:0:
256,192,89943,1,4,0:0:0:0:
