osu file format v14

[General]
AudioFilename: audio.mp3
AudioLeadIn: 0
PreviewTime: 154917
Countdown: 0
SampleSet: Soft
StackLeniency: 0.7
Mode: 2
LetterboxInBreaks: 0
WidescreenStoryboard: 1

[Editor]
Bookmarks: 1317,9117,16917,25017,33117,37167,46617,53817,61017,68217,76317,84417,92517,103317,114117,121317,128517,133917,138417,165117,172317,181917,189117,197217,205317,213417,221217
DistanceSpacing: 0.9
BeatDivisor: 4
GridSize: 16
TimelineZoom: 3.1

[Metadata]
Title:Uta o Utau Hito
TitleUnicode:うたをうたうひと
Artist:Yuuma
ArtistUnicode:ユウマ
Creator:Souvenir
Version:Rain
Source:
Tags:Geddan Master P ゲッダンマスタP 獣音ロウ Kemonone Row Rou Powapowa-P ぽわぽわP siinamota shiinamota 椎名もた dnb Drum n Bass electronic EDM Someone Who Sings a Song wo Utau Utauloid Furloid furry furries Vocaloid Hatsune Miku 初音ミク cover Japanese novelty
BeatmapID:3202200
BeatmapSetID:1566824

[Difficulty]
HPDrainRate:5
CircleSize:3.8
OverallDifficulty:9
ApproachRate:9
SliderMultiplier:1.7
SliderTickRate:1

[Events]
//Background and Video events
0,0,"rain.jpg",0,0
//Break Periods
//Storyboard Layer 0 (Background)
//Storyboard Layer 1 (Fail)
//Storyboard Layer 2 (Pass)
//Storyboard Layer 3 (Foreground)
//Storyboard Layer 4 (Overlay)
//Storyboard Sound Samples

[TimingPoints]
1317,300,4,2,1,66,1,0
7317,-100,4,2,1,66,0,0
7467,-100,4,2,1,66,0,0
9117,-100,4,2,1,66,0,0
17067,-100,4,2,1,44,0,0
33117,-100,4,2,3,33,0,0
35817,-100,4,2,3,33,0,0
36267,-100,4,2,1,44,0,0
36417,-100,4,2,1,55,0,0
36567,-100,4,2,1,66,0,0
36717,-100,4,2,1,70,0,0
37017,300,4,2,2,50,1,0
37017,-100,4,2,2,50,0,1
37092,-100,4,2,2,75,0,1
46617,-100,4,2,2,75,0,1
46692,-100,4,2,2,75,0,1
53817,-100,4,2,1,66,0,0
68217,-100,4,2,1,44,0,0
84417,-100,4,2,1,50,0,0
100617,-100,4,2,3,33,0,0
103317,-100,4,2,3,33,0,0
103767,-100,4,2,1,44,0,0
103917,-100,4,2,1,55,0,0
104067,-100,4,2,1,66,0,0
104517,300,4,2,2,50,1,0
104517,-100,4,2,2,50,0,1
104592,-100,4,2,2,75,0,1
114117,-100,4,2,2,75,0,1
114192,-100,4,2,2,75,0,1
121317,-100,4,2,1,66,0,0
138417,-100,4,2,1,44,0,0
152517,-333.333333333333,4,2,1,44,0,0
152592,-333.333333333333,4,2,3,44,0,0
154017,-100,4,2,1,44,0,0
154917,-90.9090909090909,4,2,2,75,0,0
155517,300,4,2,2,80,1,0
155517,-90.9090909090909,4,2,2,80,0,1
155592,-90.9090909090909,4,2,2,80,0,0
155817,-90.9090909090909,4,2,2,60,0,1
155892,-90.9090909090909,4,2,2,80,0,1
165117,-90.9090909090909,4,2,2,80,0,1
165192,-90.9090909090909,4,2,2,80,0,1
172242,-90.9090909090909,4,2,2,80,0,0
172317,-90.9090909090909,4,2,2,55,0,1
172392,-90.9090909090909,4,2,2,75,0,0
189117,-100,4,2,1,60,0,0
205317,-100,4,2,1,44,0,0
215517,-100,4,2,1,33,0,0
217617,-100,4,2,1,22,0,0
219717,-100,4,2,1,11,0,0
221217,-100,4,2,1,5,0,0

[Colours]
Combo1 : 234,105,0
Combo2 : 0,112,223

[HitObjects]
144,112,1317,5,0,0:0:0:0:
144,112,1617,1,0,0:0:0:0:
368,112,1917,1,8,1:2:0:0:
144,112,2067,1,0,0:0:0:0:
144,112,2367,1,0,0:0:0:0:
368,112,2667,1,8,1:2:0:0:
144,112,2817,1,0,0:0:0:0:
144,112,3117,5,0,0:0:0:0:
368,112,3417,1,8,1:2:0:0:
144,112,3567,1,0,0:0:0:0:
144,112,3867,1,0,0:0:0:0:
368,112,4167,1,0,1:0:0:0:
144,112,4317,2,0,L|144:224,1,85,0|0,0:0|0:0,0:0:0:0:
288,208,4617,2,0,L|288:320,1,85,0|0,0:0|1:0,0:0:0:0:
240,288,4842,1,0,1:0:0:0:
64,288,4917,6,0,L|64:192,1,85,4|0,1:2|1:0,0:0:0:0:
208,112,5217,2,0,L|400:112,1,170,10|0,0:0|1:0,0:0:0:0:
432,112,5592,1,0,0:0:0:0:
378,112,5667,1,0,1:0:0:0:
160,192,5817,2,0,L|160:288,1,85,10|0,0:0|1:0,0:0:0:0:
384,320,6117,6,0,L|384:224,1,85,0|0,1:0|1:0,0:0:0:0:
240,224,6417,1,10,0:0:0:0:
224,192,6492,1,0,0:0:0:0:
240,160,6567,1,0,1:0:0:0:
288,144,6642,1,0,0:0:0:0:
352,144,6717,2,0,L|416:144,2,42.5,2|0|0,1:2|0:0|1:0,0:0:0:0:
128,144,7017,1,10,0:0:0:0:
48,256,7167,2,0,L|96:256,1,42.5,0|0,1:0|1:2,0:0:0:0:
256,304,7317,5,10,0:0:0:0:
400,304,7467,2,0,L|432:304,1,21.25,0|0,1:0|1:0,0:0:0:0:
480,224,7617,2,0,L|480:176,1,42.5,0|0,1:0|0:0,0:0:0:0:
432,176,7767,1,0,1:0:0:0:
208,176,7917,2,0,L|208:80,1,85,10|0,0:0|1:0,0:0:0:0:
352,96,8217,2,0,L|437:96,1,85,0|0,1:0|1:0,0:0:0:0:
224,240,8517,5,10,0:0:0:0:
208,208,8592,1,0,0:0:0:0:
224,240,8667,1,0,1:0:0:0:
272,240,8742,1,0,0:0:0:0:
336,240,8817,2,0,L|352:192,3,42.5,0|0|0|0,1:0|1:0|1:0|1:0,0:0:0:0:
176,160,9117,5,0,1:0:0:0:
176,160,9417,1,0,0:0:0:0:
400,160,9567,1,8,1:2:0:0:
400,160,9867,1,0,0:0:0:0:
176,160,10167,1,0,0:0:0:0:
400,160,10317,1,8,1:2:0:0:
400,160,10617,1,0,0:0:0:0:
176,160,10917,5,0,0:0:0:0:
400,160,11217,1,8,1:2:0:0:
176,160,11367,1,0,0:0:0:0:
176,160,11667,1,0,0:0:0:0:
400,160,11967,1,8,1:2:0:0:
176,160,12117,2,0,L|176:256,1,85,0|0,0:0|0:0,0:0:0:0:
336,336,12417,2,0,L|448:336,1,85,0|0,0:0|1:0,0:0:0:0:
368,304,12642,1,0,1:0:0:0:
192,288,12717,6,0,L|192:192,1,85,4|0,1:2|1:0,0:0:0:0:
336,144,13017,2,0,L|144:144,1,170,10|0,0:0|1:0,0:0:0:0:
166,144,13392,1,0,0:0:0:0:
166,144,13467,1,0,1:0:0:0:
384,272,13617,2,0,L|384:176,1,85,10|0,0:0|1:0,0:0:0:0:
160,272,13917,2,0,L|64:272,1,85,0|0,1:0|1:0,0:0:0:0:
208,208,14217,5,10,0:0:0:0:
224,176,14292,1,0,0:0:0:0:
208,144,14367,1,0,1:0:0:0:
160,128,14442,1,0,0:0:0:0:
96,128,14517,2,0,L|48:128,2,42.5,2|0|0,1:2|0:0|1:0,0:0:0:0:
320,128,14817,1,10,0:0:0:0:
400,256,14967,2,0,L|352:256,1,42.5,0|0,1:0|1:2,0:0:0:0:
192,256,15117,5,10,0:0:0:0:
48,320,15267,2,0,L|16:320,1,21.25,0|0,1:0|1:0,0:0:0:0:
80,240,15417,2,0,L|80:192,2,42.5,0|0|0,1:0|0:0|1:0,0:0:0:0:
304,304,15717,2,0,L|400:304,1,85,10|0,0:0|1:0,0:0:0:0:
256,240,16017,2,0,L|256:144,1,85,0|0,1:0|1:0,0:0:0:0:
480,176,16317,5,10,0:0:0:0:
496,176,16392,1,0,0:0:0:0:
480,176,16467,1,0,1:0:0:0:
432,176,16542,1,0,0:0:0:0:
256,176,16617,1,0,1:0:0:0:
208,176,16692,1,0,1:0:0:0:
256,176,16767,1,0,1:0:0:0:
304,176,16842,1,0,1:0:0:0:
112,176,16917,5,4,1:2:0:0:
112,176,17217,1,0,0:0:0:0:
32,176,17367,1,0,0:0:0:0:
192,176,17667,1,0,0:0:0:0:
32,176,17967,1,0,0:0:0:0:
32,176,18267,1,0,0:0:0:0:
176,176,18417,2,0,L|176:272,1,85,2|0,0:0|0:0,0:0:0:0:
32,176,18717,5,2,0:0:0:0:
32,176,19017,1,0,0:0:0:0:
112,176,19167,1,0,0:0:0:0:
256,176,19467,1,0,0:0:0:0:
112,176,19767,1,0,0:0:0:0:
32,176,19917,1,0,0:0:0:0:
256,176,20217,2,0,L|64:176,1,170,2|2,0:0|0:0,0:0:0:0:
160,176,20667,1,0,0:0:0:0:
240,176,20817,1,2,0:0:0:0:
16,175,21117,5,2,0:0:0:0:
160,176,21417,1,0,0:0:0:0:
80,176,21567,1,0,0:0:0:0:
240,176,21867,1,0,0:0:0:0:
80,176,22167,1,0,0:0:0:0:
80,176,22467,1,0,0:0:0:0:
224,176,22617,2,0,L|224:272,1,85,2|0,0:0|0:0,0:0:0:0:
80,176,22917,5,2,0:0:0:0:
224,176,23217,1,0,0:0:0:0:
224,176,23367,1,0,0:0:0:0:
80,176,23667,1,0,0:0:0:0:
224,176,23967,1,0,0:0:0:0:
80,176,24267,1,0,0:0:0:0:
80,176,24417,1,0,0:0:0:0:
224,176,24717,2,0,L|128:176,1,85,2|0,0:0|0:0,0:0:0:0:
352,176,25017,5,2,0:0:0:0:
496,176,25317,1,0,0:0:0:0:
416,176,25467,1,0,0:0:0:0:
256,176,25767,1,0,0:0:0:0:
416,176,26067,1,0,0:0:0:0:
416,176,26367,1,0,0:0:0:0:
272,176,26517,2,0,L|272:272,1,85,2|0,0:0|0:0,0:0:0:0:
416,176,26817,5,2,0:0:0:0:
416,176,27117,1,0,0:0:0:0:
336,176,27267,1,0,0:0:0:0:
496,176,27567,1,0,0:0:0:0:
336,176,27867,1,0,0:0:0:0:
256,176,28017,1,0,0:0:0:0:
496,176,28317,2,0,L|320:176,1,170,2|2,0:0|0:0,0:0:0:0:
400,176,28767,1,0,0:0:0:0:
480,176,28917,1,2,0:0:0:0:
256,176,29217,5,2,0:0:0:0:
400,176,29517,1,0,0:0:0:0:
320,176,29667,1,0,0:0:0:0:
480,176,29967,1,0,0:0:0:0:
320,176,30267,1,0,0:0:0:0:
480,176,30567,1,0,0:0:0:0:
336,176,30717,2,0,L|336:288,1,85,2|0,0:0|0:0,0:0:0:0:
480,176,31017,2,0,L|480:80,1,85,2|0,0:0|0:0,0:0:0:0:
336,176,31317,5,2,0:0:0:0:
336,176,31467,1,0,0:0:0:0:
480,176,31767,1,0,0:0:0:0:
336,176,32067,1,0,0:0:0:0:
480,176,32367,1,0,0:0:0:0:
480,176,32517,1,0,0:0:0:0:
480,176,32817,1,0,0:0:0:0:
80,176,33117,6,0,L|80:352,1,170
80,176,33717,1,0,0:0:0:0:
80,176,34017,2,0,L|80:368,2,170,0|0|0,0:0|0:0|0:0,0:0:0:0:
80,176,34917,2,0,L|80:0,1,170,0|0,0:0|0:0,0:0:0:0:
80,96,35367,2,0,L|80:192,1,85
80,181,35817,6,0,L|80:368,1,170,0|0,0:0|0:0,0:0:0:0:
128,352,36267,1,0,0:0:0:0:
208,352,36417,1,0,0:0:0:0:
352,352,36567,1,8,1:2:0:0:
128,240,36717,1,2,1:2:0:0:
112,208,36792,1,0,0:0:0:0:
128,240,36867,1,2,1:2:0:0:
176,240,36942,1,0,0:0:0:0:
352,240,37017,5,4,1:1:0:0:
496,96,37167,2,0,L|400:96,1,85,0|10,1:0|0:2,0:0:0:0:
272,96,37467,2,0,P|224:160|272:224,1,170,0|0,1:0|1:0,0:0:0:0:
416,224,37917,2,0,L|464:224,2,42.5,8|0|0,1:2|0:0|1:2,0:0:0:0:
192,224,38217,5,0,1:2:0:0:
48,224,38367,2,0,L|48:128,1,85,0|10,1:0|0:0,0:0:0:0:
192,80,38667,2,0,P|240:144|176:208,1,170,0|0,1:0|1:0,0:0:0:0:
336,288,39117,2,0,L|432:288,1,85,10|0,0:0|1:0,0:0:0:0:
191,205,39417,5,0,1:0:0:0:
416,208,39567,2,0,L|416:32,1,170,0|0,1:0|1:0,0:0:0:0:
416,38,39942,1,0,0:0:0:0:
416,38,40017,1,0,1:0:0:0:
336,128,40167,2,0,L|432:128,1,85,0|10,1:0|0:0,0:0:0:0:
282,289,40467,2,0,L|282:177,1,85,0|0,0:0|1:0,0:0:0:0:
416,192,40767,5,0,1:0:0:0:
320,192,40917,2,0,L|272:192,1,42.5,10|0,0:0|0:0,0:0:0:0:
112,176,41067,2,0,L|96:128,4,42.5,0|0|0|0|2,1:0|0:0|1:0|0:0|1:2,0:0:0:0:
256,144,41517,2,0,L|160:144,1,85,10|0,0:0|1:0,0:0:0:0:
400,224,41817,5,0,1:0:0:0:
262,283,41967,2,0,L|262:187,1,85,0|10,1:0|0:0,0:0:0:0:
400,224,42267,2,0,P|448:288|384:352,1,170,0|0,1:0|1:0,0:0:0:0:
256,224,42717,2,0,L|352:224,1,85,10|0,0:0|1:0,0:0:0:0:
112,176,43017,5,0,1:0:0:0:
249,170,43167,2,0,L|249:58,1,85,0|10,1:0|0:0,0:0:0:0:
112,176,43467,2,0,P|64:240|112:304,1,170,0|0,1:0|1:0,0:0:0:0:
250,284,43917,2,0,L|154:284,1,85,10|0,0:0|1:0,0:0:0:0:
400,272,44217,5,0,1:0:0:0:
176,192,44367,2,0,L|176:0,1,170,0|0,1:0|1:0,0:0:0:0:
224,16,44742,1,0,0:0:0:0:
272,16,44817,1,0,1:0:0:0:
357,16,44967,2,0,L|265:16,1,85,0|10,1:0|0:0,0:0:0:0:
416,208,45267,2,0,L|320:208,1,85,0|0,0:0|1:0,0:0:0:0:
192,208,45567,5,0,1:0:0:0:
112,208,45717,1,10,0:0:0:0:
336,144,45867,2,0,L|352:96,4,42.5,0|0|0|0|2,1:0|0:0|1:0|0:0|1:2,0:0:0:0:
192,48,46317,2,0,L|96:48,1,85,10|0,0:0|1:0,0:0:0:0:
336,128,46617,5,6,1:2:0:0:
199,128,46767,2,0,L|199:224,1,85,0|10,1:0|0:0,0:0:0:0:
336,128,47067,2,0,P|384:192|320:256,1,170,0|0,1:0|1:0,0:0:0:0:
199,128,47517,2,0,L|295:128,1,85,10|0,0:0|1:0,0:0:0:0:
48,240,47817,5,0,1:0:0:0:
185,240,47967,2,0,L|297:240,1,85,0|10,1:0|0:0,0:0:0:0:
128,144,48267,2,0,P|80:208|144:272,1,170,0|0,1:0|1:0,0:0:0:0:
272,192,48717,2,0,L|272:96,1,85,10|0,0:0|1:0,0:0:0:0:
48,96,49017,5,0,1:2:0:0:
272,96,49167,2,0,L|368:96,2,85,0|10|0,1:0|0:0|1:0,0:0:0:0:
224,96,49542,1,0,0:0:0:0:
208,96,49617,1,0,1:0:0:0:
176,128,49767,1,0,1:0:0:0:
224,192,49917,1,10,0:0:0:0:
368,208,50067,2,0,L|368:304,1,85,0|0,0:0|1:0,0:0:0:0:
224,192,50367,6,0,L|320:192,1,85,0|10,1:0|0:0,0:0:0:0:
80,272,50667,1,0,1:0:0:0:
64,256,50742,1,0,0:0:0:0:
80,272,50817,1,0,1:0:0:0:
112,272,50892,1,0,0:0:0:0:
160,272,50967,1,2,1:2:0:0:
304,256,51117,2,0,L|208:256,1,85,10|0,0:0|1:0,0:0:0:0:
448,208,51417,5,0,1:0:0:0:
312,191,51567,2,0,L|312:95,1,85,0|10,1:0|0:0,0:0:0:0:
448,208,51867,2,0,P|496:272|432:336,1,170,0|0,1:0|1:0,0:0:0:0:
304,192,52317,2,0,L|400:192,1,85,10|0,0:0|1:0,0:0:0:0:
160,112,52617,5,0,1:0:0:0:
16,112,52767,2,0,L|112:112,1,85,0|10,1:0|0:0,0:0:0:0:
240,112,53067,2,0,P|288:176|224:240,1,170,0|0,1:0|1:0,0:0:0:0:
96,224,53517,2,0,L|96:128,1,85,10|0,0:0|1:0,0:0:0:0:
336,144,53817,5,4,1:2:0:0:
336,144,54117,1,0,1:0:0:0:
240,144,54267,2,0,L|208:144,1,21.25,0|0,1:0|1:0,0:0:0:0:
112,144,54417,1,0,1:0:0:0:
336,144,54567,1,8,0:0:0:0:
336,144,54867,1,0,1:0:0:0:
112,144,55167,1,0,1:0:0:0:
336,144,55317,1,8,0:0:0:0:
336,144,55617,5,0,1:0:0:0:
112,144,55917,1,0,1:0:0:0:
336,144,56067,1,8,0:0:0:0:
336,144,56367,1,0,1:0:0:0:
112,144,56667,1,0,1:0:0:0:
336,144,56817,2,0,L|336:240,1,85,8|0,0:0|0:0,0:0:0:0:
192,288,57117,2,0,L|96:288,1,85,8|0,0:0|1:0,0:0:0:0:
160,240,57342,1,0,1:0:0:0:
336,240,57417,5,0,1:0:0:0:
336,240,57717,1,0,1:0:0:0:
112,240,58017,1,0,1:0:0:0:
336,240,58167,1,8,0:0:0:0:
336,240,58467,1,0,1:0:0:0:
112,240,58767,1,0,1:0:0:0:
336,240,58917,1,8,0:0:0:0:
336,240,59217,5,0,1:0:0:0:
112,240,59517,1,0,1:0:0:0:
336,240,59667,1,8,0:0:0:0:
336,240,59967,1,0,1:0:0:0:
112,240,60267,1,0,1:0:0:0:
336,240,60417,2,0,L|336:144,1,85,8|0,0:0|0:0,0:0:0:0:
192,144,60717,2,0,L|192:48,1,85,8|0,0:0|1:0,0:0:0:0:
240,64,60942,1,0,1:0:0:0:
416,64,61017,5,0,1:0:0:0:
416,64,61317,1,0,1:0:0:0:
192,59,61617,1,0,1:0:0:0:
416,64,61767,1,8,0:0:0:0:
416,64,62067,1,0,1:0:0:0:
192,59,62367,1,0,1:0:0:0:
416,64,62517,1,8,0:0:0:0:
404,128,62667,2,0,L|436:128,1,21.25,0|0,1:0|1:0,0:0:0:0:
416,64,62817,5,0,1:0:0:0:
192,59,63117,1,0,1:0:0:0:
416,64,63267,1,8,0:0:0:0:
416,64,63567,1,0,1:0:0:0:
192,59,63867,1,0,1:0:0:0:
416,64,64017,2,0,L|320:64,1,85,8|0,0:0|0:0,0:0:0:0:
192,160,64317,2,0,L|288:160,1,85,8|0,0:0|1:0,0:0:0:0:
224,128,64542,1,0,1:0:0:0:
48,128,64617,5,0,1:0:0:0:
60,144,64767,2,0,L|28:144,1,21.25,0|0,1:0|1:0,1:1:0:0:
48,128,64917,1,0,1:0:0:0:
272,128,65217,1,0,1:0:0:0:
48,128,65367,1,8,0:0:0:0:
48,128,65667,1,0,1:0:0:0:
272,128,65967,1,0,1:0:0:0:
48,128,66117,1,8,0:0:0:0:
48,128,66417,5,0,1:0:0:0:
272,128,66717,1,0,1:0:0:0:
48,128,66867,1,8,0:0:0:0:
48,128,67167,1,0,1:0:0:0:
272,128,67467,1,0,1:0:0:0:
48,128,67617,2,0,L|48:224,1,85,8|0,0:0|0:0,0:0:0:0:
192,304,67917,2,0,L|288:304,1,85,8|0,1:2|1:0,0:0:0:0:
224,272,68142,1,0,1:0:0:0:
48,272,68217,5,6,0:0:0:0:
192,176,68517,1,0,0:0:0:0:
192,176,68667,1,0,0:0:0:0:
48,176,68967,1,0,0:0:0:0:
192,176,69267,1,0,0:0:0:0:
48,176,69567,1,0,0:0:0:0:
48,176,69717,1,0,0:0:0:0:
192,176,70017,5,2,0:0:0:0:
336,176,70317,1,0,0:0:0:0:
336,176,70467,1,0,0:0:0:0:
192,176,70767,1,0,0:0:0:0:
336,176,71067,1,0,0:0:0:0:
336,176,71217,1,0,0:0:0:0:
192,176,71517,1,0,0:0:0:0:
32,176,71817,1,0,0:0:0:0:
112,176,71967,1,0,0:0:0:0:
192,176,72117,1,2,0:0:0:0:
32,176,72417,5,2,0:0:0:0:
176,176,72717,1,0,0:0:0:0:
176,176,72867,1,0,0:0:0:0:
32,176,73167,1,0,0:0:0:0:
176,176,73467,1,0,0:0:0:0:
320,176,73767,1,0,0:0:0:0:
320,176,73917,1,0,0:0:0:0:
176,176,74217,5,2,0:0:0:0:
32,176,74517,1,0,0:0:0:0:
32,176,74667,1,0,0:0:0:0:
176,176,74967,1,0,0:0:0:0:
32,176,75267,1,0,0:0:0:0:
176,176,75567,1,0,0:0:0:0:
176,176,75717,1,0,0:0:0:0:
32,176,76017,1,0,0:0:0:0:
320,176,76317,5,2,0:0:0:0:
464,176,76617,1,0,0:0:0:0:
464,176,76767,1,0,0:0:0:0:
320,176,77067,1,0,0:0:0:0:
464,176,77367,1,0,0:0:0:0:
320,176,77667,1,0,0:0:0:0:
320,176,77817,1,0,0:0:0:0:
480,176,78117,5,2,0:0:0:0:
336,176,78417,1,0,0:0:0:0:
336,176,78567,1,0,0:0:0:0:
192,176,78867,1,0,0:0:0:0:
336,176,79167,1,0,0:0:0:0:
336,176,79317,1,0,0:0:0:0:
192,176,79617,1,0,0:0:0:0:
336,176,79917,1,0,0:0:0:0:
416,176,80067,1,0,0:0:0:0:
496,176,80217,1,2,0:0:0:0:
352,176,80517,5,2,0:0:0:0:
496,176,80817,1,0,0:0:0:0:
496,176,80967,1,0,0:0:0:0:
352,176,81267,1,0,0:0:0:0:
496,176,81567,1,0,0:0:0:0:
352,176,81867,1,0,0:0:0:0:
352,176,82017,1,0,0:0:0:0:
208,176,82317,5,2,0:0:0:0:
352,176,82617,1,0,0:0:0:0:
352,176,82767,1,0,0:0:0:0:
240,176,83067,1,0,0:0:0:0:
320,176,83367,1,0,0:0:0:0:
280,176,83667,1,0,0:0:0:0:
280,176,83817,1,0,0:0:0:0:
280,176,84117,2,0,L|384:176,1,85,2|0,0:0|0:0,0:0:0:0:
144,272,84417,6,0,L|144:176,1,85,6|0,0:0|0:0,0:0:0:0:
240,176,84717,1,8,0:0:0:0:
336,176,84867,2,0,L|352:128,4,42.5,0|0|0|0|0,0:0|0:0|0:0|0:0|0:0,0:0:0:0:
192,128,85317,6,0,L|96:128,1,85,8|0,0:0|0:0,0:0:0:0:
160,96,85542,1,0,0:0:0:0:
208,80,85617,2,0,L|208:192,1,85,0|0,0:0|0:0,0:0:0:0:
352,256,85917,2,0,L|448:256,1,85,8|0,0:0|0:0,0:0:0:0:
208,320,86217,6,0,L|208:208,1,85,2|0,0:0|0:0,0:0:0:0:
304,224,86517,1,8,0:0:0:0:
208,160,86667,2,0,L|192:112,4,42.5,0|0|0|0|0,0:0|0:0|0:0|0:0|0:0,0:0:0:0:
352,160,87117,6,0,L|352:256,1,85,8|0,0:0|0:0,0:0:0:0:
304,240,87342,1,0,0:0:0:0:
256,240,87417,2,0,L|160:240,1,85,0|0,0:0|0:0,0:0:0:0:
320,96,87717,1,8,0:0:0:0:
416,96,87867,2,0,L|432:32,4,42.5,0|0|0|0|0,0:0|0:0|0:0|0:0|0:0,0:0:0:0:
272,240,88317,2,0,L|384:240,1,85,8|0,0:0|0:0,0:0:0:0:
128,288,88617,6,0,L|32:288,1,85,2|0,0:0|0:0,0:0:0:0:
128,192,88917,1,8,0:0:0:0:
32,192,89067,1,0,0:0:0:0:
32,160,89142,1,0,0:0:0:0:
48,128,89217,1,0,0:0:0:0:
80,112,89292,1,0,0:0:0:0:
128,112,89367,1,0,0:0:0:0:
272,240,89517,6,0,L|272:128,1,85,8|0,0:0|0:0,0:0:0:0:
224,144,89742,1,0,0:0:0:0:
176,144,89817,2,0,L|272:144,1,85,0|0,0:0|0:0,0:0:0:0:
128,288,90117,2,0,L|32:288,1,85,8|0,0:0|0:0,0:0:0:0:
272,336,90417,6,0,L|272:224,1,85,2|0,0:0|0:0,0:0:0:0:
176,240,90717,1,8,0:0:0:0:
272,192,90867,2,0,L|288:144,4,42.5,0|0|0|0|0,0:0|0:0|0:0|0:0|0:0,0:0:0:0:
128,160,91317,6,0,L|128:64,1,85,8|0,0:0|0:0,0:0:0:0:
176,64,91542,1,0,0:0:0:0:
224,64,91617,2,0,L|320:64,1,85,0|0,0:0|0:0,0:0:0:0:
400,176,91917,2,0,L|400:80,1,85,8|0,0:0|0:0,0:0:0:0:
256,272,92217,2,0,L|144:272,1,85,2|0,0:0|0:0,0:0:0:0:
400,336,92517,6,0,L|400:240,1,85,6|0,0:0|0:0,0:0:0:0:
304,224,92817,1,8,0:0:0:0:
208,192,92967,1,0,0:0:0:0:
192,160,93042,1,0,0:0:0:0:
208,192,93117,1,0,0:0:0:0:
240,192,93192,1,0,0:0:0:0:
288,192,93267,1,0,0:0:0:0:
432,192,93417,6,0,L|432:96,1,85,8|0,0:0|0:0,0:0:0:0:
384,96,93642,1,0,0:0:0:0:
336,96,93717,2,0,L|240:96,1,85,0|0,0:0|0:0,0:0:0:0:
384,288,94017,2,0,L|384:192,1,85,8|0,0:0|0:0,0:0:0:0:
160,256,94317,6,0,L|160:144,1,85,2|0,0:0|0:0,0:0:0:0:
256,160,94617,1,8,0:0:0:0:
160,112,94767,2,0,L|144:64,4,42.5,0|0|0|0|0,0:0|0:0|0:0|0:0|0:0,0:0:0:0:
304,224,95217,6,0,L|400:224,1,85,8|0,0:0|0:0,0:0:0:0:
336,192,95442,1,0,0:0:0:0:
288,192,95517,2,0,L|192:192,1,85,0|0,0:0|0:0,0:0:0:0:
352,320,95817,1,8,0:0:0:0:
448,320,95967,1,0,0:0:0:0:
464,288,96042,1,0,0:0:0:0:
448,320,96117,1,0,0:0:0:0:
416,320,96192,1,0,0:0:0:0:
368,320,96267,1,0,0:0:0:0:
224,256,96417,2,0,L|320:256,1,85,8|0,0:0|0:0,0:0:0:0:
80,176,96717,6,0,L|80:80,1,85,2|0,0:0|0:0,0:0:0:0:
176,80,97017,1,8,0:0:0:0:
272,80,97167,2,0,L|288:32,4,42.5,0|0|0|0|0,0:0|0:0|0:0|0:0|0:0,0:0:0:0:
128,208,97617,6,0,L|128:112,1,85,8|0,0:0|0:0,0:0:0:0:
176,112,97842,1,0,0:0:0:0:
224,112,97917,2,0,L|320:112,1,85,0|0,0:0|0:0,0:0:0:0:
176,320,98217,2,0,L|80:320,1,85,8|0,0:0|0:0,0:0:0:0:
320,288,98517,6,0,L|432:288,1,85,2|0,0:0|0:0,0:0:0:0:
320,288,98817,1,8,0:0:0:0:
416,224,98967,2,0,L|432:176,4,42.5,0|0|0|0|0,0:0|0:0|0:0|0:0|0:0,0:0:0:0:
272,176,99417,6,0,L|160:176,1,85,8|0,0:0|0:0,0:0:0:0:
240,144,99642,1,0,0:0:0:0:
288,128,99717,2,0,L|288:240,1,85,0|0,0:0|0:0,0:0:0:0:
192,272,100017,1,8,0:0:0:0:
96,304,100167,1,0,0:0:0:0:
80,272,100242,1,0,0:0:0:0:
96,304,100317,1,0,0:0:0:0:
128,304,100392,1,0,0:0:0:0:
176,304,100467,1,0,0:0:0:0:
400,240,100617,6,0,L|400:48,1,170,0|0,0:0|0:0,0:0:0:0:
400,176,101217,1,0,0:0:0:0:
400,112,101517,2,0,L|400:304,2,170,0|0|0,0:0|0:0|0:0,0:0:0:0:
400,368,102417,2,0,L|400:192,1,170,0|0,0:0|0:0,0:0:0:0:
400,32,102867,2,0,L|400:128,1,85
400,181,103317,6,0,L|400:368,1,170,0|0,0:0|0:0,0:0:0:0:
352,352,103767,1,0,0:0:0:0:
272,352,103917,1,0,0:0:0:0:
128,352,104067,1,8,1:2:0:0:
352,192,104217,1,2,1:2:0:0:
416,192,104292,1,0,0:0:0:0:
432,160,104367,1,2,1:2:0:0:
416,112,104442,1,0,0:0:0:0:
240,112,104517,5,4,1:1:0:0:
96,112,104667,2,0,L|96:224,1,85,0|10,1:0|0:2,0:0:0:0:
240,112,104967,2,0,P|240:192|160:224,1,170,0|0,1:0|1:0,0:0:0:0:
304,320,105417,1,8,1:2:0:0:
346,320,105492,1,0,0:0:0:0:
389,320,105567,1,0,1:2:0:0:
160,256,105717,5,0,1:2:0:0:
298,254,105867,2,0,L|298:158,1,85,0|10,1:0|0:0,0:0:0:0:
160,256,106167,2,0,P|160:176|240:144,1,170,0|0,1:0|1:0,0:0:0:0:
384,144,106617,2,0,L|480:144,1,85,10|0,0:0|1:0,0:0:0:0:
240,256,106917,5,0,1:0:0:0:
464,256,107067,2,0,L|288:208,1,170,0|0,1:0|1:0,0:0:0:0:
299,211,107442,1,0,0:0:0:0:
299,211,107517,1,0,1:0:0:0:
384,176,107667,2,0,L|384:80,1,85,0|10,1:0|0:0,0:0:0:0:
244,94,107967,2,0,L|148:94,1,85,0|0,0:0|1:0,0:0:0:0:
304,176,108267,5,0,1:0:0:0:
384,304,108417,1,10,0:0:0:0:
160,336,108567,2,0,L|144:288,4,42.5,0|0|0|0|2,1:0|0:0|1:0|0:0|1:2,0:0:0:0:
304,352,109017,2,0,L|192:352,1,85,10|0,0:0|1:0,0:0:0:0:
448,240,109317,5,0,1:0:0:0:
311,225,109467,2,0,L|311:129,1,85,0|10,1:0|0:0,0:0:0:0:
448,240,109767,2,0,P|448:160|352:128,1,170,0|0,1:0|1:0,0:0:0:0:
224,176,110217,2,0,L|128:176,1,85,10|0,0:0|1:0,0:0:0:0:
368,320,110517,5,0,1:0:0:0:
231,319,110667,2,0,L|231:207,1,85,0|10,1:0|0:0,0:0:0:0:
368,320,110967,2,0,P|368:240|272:208,1,170,0|0,1:0|1:0,0:0:0:0:
144,112,111417,2,0,L|256:112,1,85,10|0,0:0|1:0,0:0:0:0:
448,160,111717,5,0,1:0:0:0:
224,160,111867,2,0,L|32:160,1,170,0|0,1:0|1:0,0:0:0:0:
96,112,112242,1,0,0:0:0:0:
144,64,112317,1,0,1:0:0:0:
229,64,112467,2,0,L|131:64,1,85,0|10,1:0|0:0,0:0:0:0:
288,256,112767,2,0,L|400:256,1,85,0|0,0:0|1:0,0:0:0:0:
224,160,113067,5,0,1:0:0:0:
139,160,113217,1,10,0:0:0:0:
368,320,113367,1,0,1:0:0:0:
384,320,113442,1,0,0:0:0:0:
368,320,113517,1,0,1:0:0:0:
336,320,113592,1,0,0:0:0:0:
288,320,113667,1,2,1:2:0:0:
432,240,113817,2,0,L|432:144,1,85,10|0,0:0|1:0,0:0:0:0:
192,160,114117,5,6,1:2:0:0:
48,160,114267,2,0,L|144:160,1,85,0|10,1:0|0:0,0:0:0:0:
272,160,114567,2,0,P|272:240|176:272,1,170,0|0,1:0|1:0,0:0:0:0:
352,336,115017,2,0,L|352:224,1,85,10|0,0:0|1:0,0:0:0:0:
128,240,115317,5,0,1:0:0:0:
266,241,115467,2,0,L|266:145,1,85,0|10,1:0|0:0,0:0:0:0:
128,240,115767,2,0,P|128:160|208:112,1,170,0|0,1:0|1:0,0:0:0:0:
336,112,116217,2,0,L|432:112,1,85,10|0,0:0|1:0,0:0:0:0:
192,240,116517,5,0,1:2:0:0:
416,240,116667,2,0,L|416:144,1,85,0|10,1:0|0:0,0:0:0:0:
320,160,116967,1,0,1:0:0:0:
304,208,117042,1,0,0:0:0:0:
320,256,117117,1,0,1:0:0:0:
368,272,117267,1,0,1:0:0:0:
448,304,117417,1,10,0:0:0:0:
304,352,117567,2,0,L|192:352,1,85,0|0,0:0|1:0,0:0:0:0:
368,160,117867,6,0,L|368:64,1,85,0|10,1:0|0:0,0:0:0:0:
144,192,118167,2,0,L|128:144,4,42.5,0|0|0|0|2,1:0|0:0|1:0|0:0|1:2,0:0:0:0:
288,256,118617,2,0,L|384:256,1,85,10|0,0:0|1:0,0:0:0:0:
144,320,118917,5,0,1:0:0:0:
279,321,119067,2,0,L|375:321,1,85,0|10,1:0|0:0,0:0:0:0:
224,320,119367,2,0,P|224:240|304:192,1,170,0|0,1:0|1:0,0:0:0:0:
432,224,119817,2,0,L|432:128,1,85,10|0,0:0|1:0,0:0:0:0:
208,128,120117,5,0,1:0:0:0:
64,128,120267,2,0,L|64:224,1,85,0|10,1:0|0:0,0:0:0:0:
208,208,120567,2,0,P|208:288|128:320,1,170,0|0,1:0|1:0,0:0:0:0:
272,64,121017,2,0,L|384:64,1,85,10|0,0:0|1:0,0:0:0:0:
128,208,121317,5,4,1:2:0:0:
128,208,121617,1,0,1:0:0:0:
352,208,121917,1,0,1:0:0:0:
128,208,122067,1,8,0:0:0:0:
128,208,122367,1,0,1:0:0:0:
352,208,122667,1,0,1:0:0:0:
128,208,122817,1,8,0:0:0:0:
128,208,123117,5,0,1:0:0:0:
352,208,123417,1,0,1:0:0:0:
128,208,123567,1,8,0:0:0:0:
128,208,123867,1,0,1:0:0:0:
352,208,124167,1,0,1:0:0:0:
128,208,124317,2,0,L|128:96,1,85,8|0,0:0|0:0,0:0:0:0:
272,224,124617,2,0,L|368:224,1,85,8|0,0:0|1:0,0:0:0:0:
304,192,124842,1,0,1:0:0:0:
128,160,124917,5,0,1:0:0:0:
128,160,125217,1,0,1:0:0:0:
352,160,125517,1,0,1:0:0:0:
128,160,125667,1,8,0:0:0:0:
128,160,125967,1,0,1:0:0:0:
352,160,126267,1,0,1:0:0:0:
128,160,126417,1,8,0:0:0:0:
128,160,126717,5,0,1:0:0:0:
352,160,127017,1,0,1:0:0:0:
128,160,127167,1,8,0:0:0:0:
128,160,127467,1,0,1:0:0:0:
352,160,127767,1,0,1:0:0:0:
128,160,127917,2,0,L|224:160,1,85,8|0,0:0|0:0,0:0:0:0:
352,288,128217,2,0,L|448:288,1,85,8|0,0:0|1:0,0:0:0:0:
384,256,128442,1,0,1:0:0:0:
208,176,128517,5,0,1:0:0:0:
208,176,128817,1,0,1:0:0:0:
432,171,129117,1,0,1:0:0:0:
208,176,129267,1,8,0:0:0:0:
208,176,129567,1,0,1:0:0:0:
432,171,129867,1,0,1:0:0:0:
208,176,130017,1,8,0:0:0:0:
208,176,130317,5,0,1:0:0:0:
432,171,130617,1,0,1:0:0:0:
208,176,130767,1,8,0:0:0:0:
208,176,131067,1,0,1:0:0:0:
432,171,131367,1,0,1:0:0:0:
208,176,131517,2,0,L|112:176,1,85,8|0,0:0|0:0,0:0:0:0:
272,336,131817,2,0,L|176:336,1,85,8|0,0:0|1:0,0:0:0:0:
240,304,132042,1,0,1:0:0:0:
416,208,132117,5,0,1:0:0:0:
404,224,132267,2,0,L|436:224,1,21.25,0|0,1:0|1:0,1:1:0:0:
416,208,132417,1,0,1:0:0:0:
192,208,132717,1,0,1:0:0:0:
416,208,132867,1,8,0:0:0:0:
416,208,133167,1,0,1:0:0:0:
192,208,133467,1,0,1:0:0:0:
416,208,133617,1,8,0:0:0:0:
48,208,133917,5,4,1:2:0:0:
256,192,134067,12,0,136354,0:0:0:0:
352,96,138417,6,0,L|352:288,2,170,2|0|0,0:0|0:0|0:0,0:0:0:0:
208,144,139317,2,0,L|80:32,2,170,2|0|0,0:0|0:0|0:0,0:0:0:0:
352,128,140217,5,2,0:0:0:0:
208,128,140517,1,0,0:0:0:0:
64,128,140817,1,0,0:0:0:0:
208,128,141117,1,2,0:0:0:0:
272,224,141417,1,0,0:0:0:0:
144,304,141717,1,0,0:0:0:0:
368,320,142017,6,0,L|368:128,2,170,2|0|0,0:0|0:0|0:0,0:0:0:0:
224,192,142917,2,0,L|368:64,2,170,2|0|0,0:0|0:0|0:0,0:0:0:0:
80,208,143817,5,2,0:0:0:0:
224,192,144117,1,0,0:0:0:0:
368,176,144417,1,0,0:0:0:0:
224,192,144717,1,2,0:0:0:0:
288,304,145017,1,0,0:0:0:0:
432,320,145317,1,0,0:0:0:0:
208,336,145617,6,0,L|80:224,2,170,2|0|0,0:0|0:0|0:0,0:0:0:0:
352,208,146517,2,0,L|480:96,2,170,2|0|0,0:0|0:0|0:0,0:0:0:0:
208,208,147417,5,2,0:0:0:0:
352,208,147717,1,0,0:0:0:0:
496,208,148017,1,0,0:0:0:0:
352,208,148317,1,2,0:0:0:0:
288,144,148617,1,0,0:0:0:0:
432,96,148917,1,0,0:0:0:0:
208,304,149217,6,0,L|208:128,2,170,2|0|0,0:0|0:0|0:0,0:0:0:0:
352,192,150117,2,0,L|480:80,2,170,2|0|0,0:0|0:0|0:0,0:0:0:0:
208,160,151017,5,2,0:0:0:0:
352,160,151317,1,0,0:0:0:0:
128,288,151617,1,0,0:0:0:0:
192,208,151917,1,2,0:0:0:0:
336,176,152217,1,0,0:0:0:0:
112,320,152517,6,0,L|112:64,1,254.999992218018,2|0,0:0|0:0,0:0:0:0:
256,192,154167,12,0,154767,0:0:0:0:
160,192,154917,5,0,3:0:0:0:
128,192,154992,1,0,0:0:0:0:
160,192,155067,1,0,3:0:0:0:
224,192,155142,1,0,0:0:0:0:
400,304,155217,2,0,L|464:304,1,46.7500014266968,0|0,3:0|3:0,0:0:0:0:
256,272,155367,2,0,L|208:272,1,46.7500014266968,0|0,3:0|3:0,0:0:0:0:
416,224,155517,6,0,L|416:128,1,93.5000028533936,4|0,1:2|1:0,0:0:0:0:
176,112,155817,1,14,1:1:0:0:
416,224,155967,2,0,P|464:144|400:80,1,187.000005706787,0|0,1:0|1:0,0:0:0:0:
256,208,156417,2,0,L|144:208,1,93.5000028533936,8|0,1:2|1:2,0:0:0:0:
400,336,156717,5,0,1:2:0:0:
264,333,156867,2,0,L|264:237,1,93.5000028533936,0|10,1:0|0:0,0:0:0:0:
400,336,157167,2,0,P|400:256|304:224,1,187.000005706787,0|0,1:0|1:0,0:0:0:0:
160,221,157617,2,0,L|160:109,1,93.5000028533936,10|0,0:0|1:0,0:0:0:0:
400,128,157917,5,0,1:0:0:0:
160,127,158067,2,0,L|352:80,1,187.000005706787,0|0,1:0|1:0,0:0:0:0:
341,82,158442,1,0,1:0:0:0:
341,82,158517,1,0,1:0:0:0:
244,194,158667,2,0,L|244:290,1,93.5000028533936,0|10,1:0|0:0,0:0:0:0:
400,288,158967,2,0,L|304:288,1,93.5000028533936,0|0,1:0|1:0,0:0:0:0:
160,224,159267,6,0,L|64:224,1,93.5000028533936,0|10,1:0|0:0,0:0:0:0:
304,176,159567,2,0,L|320:128,4,46.7500014266968,0|0|0|0|2,1:0|0:0|1:0|0:0|1:2,0:0:0:0:
160,192,160017,2,0,L|64:192,1,93.5000028533936,10|0,0:0|1:0,0:0:0:0:
304,256,160317,5,0,1:0:0:0:
448,256,160467,2,0,L|448:144,1,93.5000028533936,0|10,1:0|0:0,0:0:0:0:
304,256,160767,2,0,P|304:176|400:144,1,187.000005706787,0|0,1:0|1:0,0:0:0:0:
240,96,161217,2,0,L|336:96,1,93.5000028533936,10|0,0:0|1:0,0:0:0:0:
96,208,161517,5,0,1:0:0:0:
231,224,161667,2,0,L|231:112,1,93.5000028533936,0|10,1:0|0:0,0:0:0:0:
96,208,161967,2,0,P|48:240|96:336,1,187.000005706787,0|0,1:0|1:0,0:0:0:0:
240,336,162417,2,0,L|352:336,1,93.5000028533936,10|0,0:0|1:0,0:0:0:0:
96,256,162717,5,0,1:0:0:0:
336,336,162867,2,0,L|336:128,1,187.000005706787,0|0,1:0|1:0,0:0:0:0:
288,144,163242,1,0,1:0:0:0:
240,144,163317,1,0,1:0:0:0:
144,144,163467,2,0,L|240:144,1,93.5000028533936,0|10,1:0|0:0,0:0:0:0:
96,272,163767,2,0,L|96:176,1,93.5000028533936,0|0,1:0|1:0,0:0:0:0:
240,208,164067,6,0,L|128:208,1,93.5000028533936,0|10,1:0|0:0,0:0:0:0:
384,288,164367,1,0,1:0:0:0:
400,240,164442,1,0,0:0:0:0:
384,288,164517,1,0,1:0:0:0:
352,288,164592,1,0,0:0:0:0:
304,288,164667,1,2,1:2:0:0:
160,288,164817,2,0,L|48:288,1,93.5000028533936,10|0,0:0|1:0,0:0:0:0:
304,128,165117,5,6,1:2:0:0:
448,128,165267,2,0,L|448:224,1,93.5000028533936,0|10,1:0|0:0,0:0:0:0:
304,128,165567,2,0,P|256:160|304:256,1,187.000005706787,0|0,1:0|1:0,0:0:0:0:
448,128,166017,2,0,L|352:128,1,93.5000028533936,10|0,0:0|1:0,0:0:0:0:
112,128,166317,5,0,1:0:0:0:
245,130,166467,2,0,L|341:130,1,93.5000028533936,0|10,1:0|0:0,0:0:0:0:
208,128,166767,2,0,P|208:208|304:240,1,187.000005706787,0|0,1:0|1:0,0:0:0:0:
448,240,167217,2,0,L|448:128,1,93.5000028533936,10|0,0:0|1:0,0:0:0:0:
208,320,167517,6,0,L|96:320,2,93.5000028533936,0|0|10,1:2|1:0|0:0,0:0:0:0:
304,320,167967,1,0,1:0:0:0:
336,272,168042,1,0,0:0:0:0:
336,224,168117,1,0,1:0:0:0:
272,160,168267,1,0,1:0:0:0:
160,128,168417,1,10,0:0:0:0:
304,80,168567,2,0,L|432:80,1,93.5000028533936,0|0,1:0|1:0,0:0:0:0:
256,224,168867,6,0,L|144:224,1,93.5000028533936,0|10,1:0|0:0,0:0:0:0:
400,304,169167,2,0,L|416:256,4,46.7500014266968,0|0|0|0|2,1:0|0:0|1:0|0:0|1:2,0:0:0:0:
256,304,169617,2,0,L|352:304,1,93.5000028533936,10|0,0:0|1:0,0:0:0:0:
112,240,169917,5,0,1:0:0:0:
254,185,170067,2,0,L|158:185,1,93.5000028533936,0|10,1:0|0:0,0:0:0:0:
304,96,170367,2,0,P|352:128|304:224,1,187.000005706787,0|0,1:0|1:0,0:0:0:0:
160,224,170817,2,0,L|256:224,1,93.5000028533936,10|0,0:0|1:0,0:0:0:0:
16,176,171117,5,0,1:0:0:0:
152,174,171267,2,0,L|152:78,1,93.5000028533936,0|10,1:0|0:0,0:0:0:0:
16,176,171567,2,0,P|16:256|128:288,1,187.000005706787,0|0,1:0|1:0,0:0:0:0:
256,288,172017,2,0,L|144:288,1,93.5000028533936,10|0,0:0|1:0,0:0:0:0:
400,288,172317,5,4,1:0:0:0:
160,288,172617,2,0,L|160:176,1,93.5000028533936,10|0,0:0|1:0,0:0:0:0:
208,192,172842,1,0,1:0:0:0:
256,192,172917,1,0,1:0:0:0:
400,192,173067,2,0,L|400:96,1,93.5000028533936,0|10,1:0|0:0,0:0:0:0:
160,144,173367,6,0,L|64:144,1,93.5000028533936,0|0,1:0|0:0,0:0:0:0:
208,80,173667,1,0,1:0:0:0:
64,80,173817,2,0,L|64:192,1,93.5000028533936,10|0,0:0|1:0,0:0:0:0:
112,176,174042,1,0,1:0:0:0:
160,176,174117,2,0,L|272:176,1,93.5000028533936,0|0,1:0|0:0,0:0:0:0:
112,304,174417,2,0,L|0:304,1,93.5000028533936,10|0,0:0|1:0,0:0:0:0:
256,304,174717,5,0,1:0:0:0:
400,304,174867,2,0,L|400:208,1,93.5000028533936,0|10,1:0|0:0,0:0:0:0:
256,192,175167,2,0,L|208:192,2,46.7500014266968,0|0|0,1:0|1:0|1:0,0:0:0:0:
352,192,175467,1,0,1:0:0:0:
208,192,175617,2,0,L|208:96,1,93.5000028533936,10|0,0:0|0:0,0:0:0:0:
448,192,175917,6,0,L|448:288,1,93.5000028533936,0|0,1:0|0:0,0:0:0:0:
304,288,176217,2,0,L|192:288,1,93.5000028533936,10|0,0:0|1:0,0:0:0:0:
210,288,176442,1,0,1:0:0:0:
210,288,176517,1,0,1:0:0:0:
352,208,176667,2,0,L|352:112,1,93.5000028533936,0|10,1:0|0:0,0:0:0:0:
208,112,176967,1,0,1:0:0:0:
448,176,177117,5,0,1:0:0:0:
310,222,177267,2,0,L|310:126,1,93.5000028533936,0|10,1:0|0:0,0:0:0:0:
400,96,177567,1,0,1:0:0:0:
353,96,177642,1,0,1:0:0:0:
306,96,177717,1,0,1:0:0:0:
400,96,177867,1,0,0:0:0:0:
256,144,178017,2,0,L|256:256,1,93.5000028533936,10|0,0:0|1:0,0:0:0:0:
16,288,178317,5,0,1:0:0:0:
152,285,178467,2,0,L|152:189,1,93.5000028533936,0|10,1:0|0:0,0:0:0:0:
16,192,178767,2,0,L|16:144,2,46.7500014266968,0|0|0,1:0|1:0|1:0,0:0:0:0:
112,128,179067,1,0,1:0:0:0:
256,128,179217,2,0,L|144:128,1,93.5000028533936,10|0,0:0|0:0,0:0:0:0:
400,288,179517,6,0,L|400:192,1,93.5000028533936,0|0,1:0|0:0,0:0:0:0:
256,192,179817,2,0,L|256:96,1,93.5000028533936,10|0,0:0|0:0,0:0:0:0:
112,160,180117,2,0,L|112:48,1,93.5000028533936,0|0,1:0|0:0,0:0:0:0:
256,288,180417,2,0,L|256:176,1,93.5000028533936,10|0,0:0|0:0,0:0:0:0:
496,192,180717,6,0,L|384:192,1,93.5000028533936,0|0,1:0|0:0,0:0:0:0:
256,128,181017,2,0,L|160:128,1,93.5000028533936,10|0,0:0|0:0,0:0:0:0:
304,256,181317,2,0,L|400:256,1,93.5000028533936,0|0,1:0|0:0,0:0:0:0:
256,336,181617,2,0,L|352:336,1,93.5000028533936,10|0,0:0|1:0,0:0:0:0:
112,320,181917,5,4,1:2:0:0:
352,320,182217,2,0,L|352:224,1,93.5000028533936,10|0,0:0|1:2,0:0:0:0:
304,208,182442,1,0,1:0:0:0:
256,208,182517,1,0,1:0:0:0:
112,208,182667,2,0,L|112:112,1,93.5000028533936,0|10,1:0|0:0,0:0:0:0:
352,112,182967,6,0,L|256:112,1,93.5000028533936,0|0,1:0|0:0,0:0:0:0:
400,224,183267,1,0,1:0:0:0:
256,224,183417,2,0,L|256:320,1,93.5000028533936,10|0,0:0|1:0,0:0:0:0:
304,320,183642,1,0,1:0:0:0:
352,320,183717,2,0,L|464:320,1,93.5000028533936,0|0,1:0|0:0,0:0:0:0:
304,192,184017,2,0,L|400:192,1,93.5000028533936,10|0,0:0|1:0,0:0:0:0:
160,192,184317,5,0,1:0:0:0:
16,192,184467,2,0,L|16:96,1,93.5000028533936,0|10,1:0|0:0,0:0:0:0:
160,192,184767,1,0,1:0:0:0:
206,192,184842,1,0,1:0:0:0:
253,192,184917,1,0,1:0:0:0:
160,192,185067,1,0,1:0:0:0:
304,288,185217,2,0,L|304:192,1,93.5000028533936,10|0,0:0|0:0,0:0:0:0:
64,288,185517,6,0,L|64:192,1,93.5000028533936,0|0,1:0|0:0,0:0:0:0:
208,192,185817,2,0,L|208:96,1,93.5000028533936,10|0,0:0|1:0,0:0:0:0:
160,96,186042,1,0,1:0:0:0:
112,96,186117,1,0,1:0:0:0:
256,96,186267,2,0,L|352:96,1,93.5000028533936,0|10,1:0|0:0,0:0:0:0:
496,96,186567,1,0,1:0:0:0:
256,256,186717,5,0,1:0:0:0:
393,255,186867,2,0,L|393:143,1,93.5000028533936,0|10,1:0|0:0,0:0:0:0:
304,144,187167,1,0,1:0:0:0:
257,144,187242,1,0,1:0:0:0:
210,144,187317,1,0,1:0:0:0:
304,144,187467,1,0,0:0:0:0:
160,320,187617,2,0,L|160:224,1,93.5000028533936,10|0,0:0|1:0,0:0:0:0:
400,224,187917,5,0,1:0:0:0:
267,224,188067,2,0,L|363:224,1,93.5000028533936,0|10,1:0|0:0,0:0:0:0:
376,191,188292,1,0,0:0:0:0:
360,159,188367,1,8,0:0:0:0:
312,143,188442,1,0,0:0:0:0:
112,144,188517,2,0,L|112:256,1,93.5000028533936,0|0,1:0|1:0,0:0:0:0:
256,292,188817,2,0,L|357:292,1,93.5000028533936,10|0,0:0|1:0,0:0:0:0:
112,144,189117,5,6,0:0:0:0:
256,144,189417,1,0,0:0:0:0:
176,144,189567,1,0,0:0:0:0:
336,144,189867,1,0,0:0:0:0:
176,144,190167,1,0,0:0:0:0:
336,144,190467,1,0,0:0:0:0:
416,144,190617,1,0,0:0:0:0:
256,144,190917,5,2,0:0:0:0:
112,144,191217,1,0,0:0:0:0:
112,144,191367,1,0,0:0:0:0:
256,144,191667,1,0,0:0:0:0:
112,144,191967,1,0,0:0:0:0:
112,144,192117,1,0,0:0:0:0:
256,144,192417,1,0,0:0:0:0:
96,144,192717,1,0,0:0:0:0:
176,144,192867,1,0,0:0:0:0:
256,144,193017,1,2,0:0:0:0:
400,144,193317,5,2,0:0:0:0:
256,144,193617,1,0,0:0:0:0:
176,144,193767,1,0,0:0:0:0:
336,144,194067,1,0,0:0:0:0:
176,144,194367,1,0,0:0:0:0:
336,144,194667,1,0,0:0:0:0:
416,144,194817,1,0,0:0:0:0:
256,144,195117,5,2,0:0:0:0:
400,144,195417,1,0,0:0:0:0:
400,144,195567,1,0,0:0:0:0:
256,144,195867,1,0,0:0:0:0:
400,144,196167,1,0,0:0:0:0:
256,144,196467,1,0,0:0:0:0:
256,144,196617,1,0,0:0:0:0:
400,144,196917,1,0,0:0:0:0:
128,144,197217,5,2,0:0:0:0:
272,144,197517,1,0,0:0:0:0:
192,144,197667,1,0,0:0:0:0:
48,144,197967,1,0,0:0:0:0:
192,144,198267,1,0,0:0:0:0:
48,144,198567,1,0,0:0:0:0:
128,144,198717,1,0,0:0:0:0:
288,144,199017,5,2,0:0:0:0:
448,144,199317,1,0,0:0:0:0:
448,144,199467,1,0,0:0:0:0:
288,144,199767,1,0,0:0:0:0:
448,144,200067,1,0,0:0:0:0:
448,144,200217,1,0,0:0:0:0:
288,144,200517,1,0,0:0:0:0:
448,144,200817,1,0,0:0:0:0:
368,144,200967,1,0,0:0:0:0:
288,144,201117,1,2,0:0:0:0:
448,144,201417,5,2,0:0:0:0:
288,144,201717,1,0,0:0:0:0:
208,144,201867,1,0,0:0:0:0:
48,144,202167,1,0,0:0:0:0:
208,144,202467,1,0,0:0:0:0:
48,144,202767,1,0,0:0:0:0:
128,144,202917,1,0,0:0:0:0:
288,144,203217,5,2,0:0:0:0:
128,144,203517,1,0,0:0:0:0:
128,144,203667,1,0,0:0:0:0:
288,144,203967,1,0,0:0:0:0:
128,144,204267,1,0,0:0:0:0:
288,144,204567,1,0,0:0:0:0:
288,144,204717,1,0,0:0:0:0:
448,144,205017,1,0,0:0:0:0:
208,256,205317,5,2,0:0:0:0:
64,256,205617,1,0,0:0:0:0:
64,256,205767,1,0,0:0:0:0:
208,256,206067,1,0,0:0:0:0:
64,256,206367,1,0,0:0:0:0:
208,256,206667,1,0,0:0:0:0:
208,256,206817,1,0,0:0:0:0:
64,256,207117,5,0,0:0:0:0:
208,256,207417,1,0,0:0:0:0:
208,256,207567,1,0,0:0:0:0:
352,256,207867,1,0,0:0:0:0:
208,256,208167,1,0,0:0:0:0:
208,256,208317,1,0,0:0:0:0:
64,256,208617,1,0,0:0:0:0:
208,256,208917,1,0,0:0:0:0:
136,256,209067,1,0,0:0:0:0:
64,256,209217,1,2,0:0:0:0:
304,256,209517,5,2,0:0:0:0:
448,256,209817,1,0,0:0:0:0:
448,256,209967,1,0,0:0:0:0:
304,256,210267,1,0,0:0:0:0:
448,256,210567,1,0,0:0:0:0:
304,256,210867,1,0,0:0:0:0:
304,256,211017,1,0,0:0:0:0:
160,256,211317,5,2,0:0:0:0:
304,256,211617,1,0,0:0:0:0:
304,256,211767,1,0,0:0:0:0:
160,256,212067,1,0,0:0:0:0:
304,256,212367,1,0,0:0:0:0:
448,256,212667,1,0,0:0:0:0:
448,256,212817,1,0,0:0:0:0:
304,256,213117,1,0,0:0:0:0:
64,256,213417,5,2,0:0:0:0:
256,192,213717,12,0,221217,0:0:0:0:
