osu file format v14

[General]
AudioFilename: audio.mp3
AudioLeadIn: 0
PreviewTime: 154917
Countdown: 0
SampleSet: Soft
StackLeniency: 0.7
Mode: 2
LetterboxInBreaks: 0
WidescreenStoryboard: 1

[Editor]
Bookmarks: 1317,9117,16917,25017,33117,37167,46617,53817,60267,61017,68217,76317,84417,92517,103317,114117,121317,128517,133917,138417,165117,172317,181917,189117,197217,205317,213417,221217
DistanceSpacing: 0.9
BeatDivisor: 4
GridSize: 32
TimelineZoom: 3.1

[Metadata]
Title:Uta o Utau Hito
TitleUnicode:うたをうたうひと
Artist:Yuuma
ArtistUnicode:ユウマ
Creator:Souvenir
Version:Platter
Source:
Tags:Geddan Master P ゲッダンマスタP 獣音ロウ Kemonone Row Rou Powapowa-P ぽわぽわP siinamota shiinamota 椎名もた dnb Drum n Bass electronic EDM Someone Who Sings a Song wo Utau Utauloid Furloid furry furries Vocaloid Hatsune Miku 初音ミク cover Japanese novelty
BeatmapID:3202199
BeatmapSetID:1566824

[Difficulty]
HPDrainRate:4
CircleSize:3.4
OverallDifficulty:8
ApproachRate:8
SliderMultiplier:1.54
SliderTickRate:1

[Events]
//Background and Video events
0,0,"platter.jpg",0,0
//Break Periods
//Storyboard Layer 0 (Background)
//Storyboard Layer 1 (Fail)
//Storyboard Layer 2 (Pass)
//Storyboard Layer 3 (Foreground)
//Storyboard Layer 4 (Overlay)
//Storyboard Sound Samples

[TimingPoints]
1317,300,4,2,1,66,1,0
7317,-100,4,2,1,66,0,0
7467,-100,4,2,1,66,0,0
9117,-100,4,2,1,66,0,0
17067,-100,4,2,1,44,0,0
33117,-100,4,2,3,33,0,0
35817,-100,4,2,3,33,0,0
36267,-100,4,2,1,44,0,0
36417,-100,4,2,1,55,0,0
36567,-100,4,2,1,66,0,0
36717,-100,4,2,1,70,0,0
37017,300,4,2,2,50,1,0
37017,-100,4,2,2,50,0,1
37092,-100,4,2,2,75,0,1
46617,-100,4,2,2,75,0,1
46692,-100,4,2,2,75,0,1
53817,-100,4,2,1,66,0,0
68217,-100,4,2,1,44,0,0
84417,-100,4,2,1,50,0,0
100617,-100,4,2,3,33,0,0
103317,-100,4,2,3,33,0,0
103767,-100,4,2,1,44,0,0
103917,-100,4,2,1,55,0,0
104067,-100,4,2,1,66,0,0
104517,300,4,2,2,50,1,0
104517,-100,4,2,2,50,0,1
104592,-100,4,2,2,75,0,1
114117,-100,4,2,2,75,0,1
114192,-100,4,2,2,75,0,1
121317,-100,4,2,1,66,0,0
138417,-100,4,2,1,44,0,0
152517,-333.333333333333,4,2,1,44,0,0
152592,-333.333333333333,4,2,3,44,0,0
154017,-100,4,2,1,44,0,0
154917,-100,4,2,2,75,0,0
155517,300,4,2,2,80,1,0
155517,-100,4,2,2,80,0,1
155592,-100,4,2,2,80,0,0
155817,-100,4,2,2,60,0,1
155892,-100,4,2,2,80,0,1
165117,-100,4,2,2,80,0,1
165192,-100,4,2,2,80,0,1
172242,-100,4,2,2,80,0,0
172317,-100,4,2,2,55,0,1
172392,-100,4,2,2,75,0,0
189117,-100,4,2,1,60,0,0
205317,-100,4,2,1,44,0,0
215517,-100,4,2,1,33,0,0
217617,-100,4,2,1,22,0,0
219717,-100,4,2,1,11,0,0
221217,-100,4,2,1,5,0,0

[Colours]
Combo1 : 234,105,0
Combo2 : 0,112,223

[HitObjects]
183,99,1317,5,0,0:0:0:0:
183,99,1617,1,0,0:0:0:0:
183,99,1917,1,8,1:2:0:0:
334,101,2067,1,0,0:0:0:0:
334,101,2367,1,0,0:0:0:0:
334,101,2667,1,8,1:2:0:0:
183,99,2817,1,0,0:0:0:0:
183,99,3117,5,0,0:0:0:0:
183,99,3417,1,8,1:2:0:0:
334,101,3567,1,0,0:0:0:0:
334,101,3867,1,0,0:0:0:0:
334,101,4167,1,0,1:0:0:0:
183,99,4317,2,0,P|180:167|275:208,1,154
322,208,4767,1,0,1:0:0:0:
102,300,4917,6,0,P|108:240|199:214,1,154,4|10,1:2|0:0,0:0:0:0:
324,192,5517,1,0,1:0:0:0:
337,155,5592,1,0,0:0:0:0:
324,111,5667,1,0,1:0:0:0:
227,90,5817,2,0,L|130:86,1,77,10|0,0:0|1:0,0:0:0:0:
297,254,6117,6,0,L|390:248,1,77,0|0,1:0|1:0,0:0:0:0:
454,181,6417,2,0,L|465:130,2,38.5,10|0|0,0:0|0:0|1:0,0:0:0:0:
306,104,6717,2,0,L|401:100,2,77,2|0|10,1:2|1:0|0:0,0:0:0:0:
226,125,7167,1,0,1:0:0:0:
445,305,7317,6,0,L|446:208,2,77,10|0|0,0:0|1:0|1:0,0:0:0:0:
366,301,7767,1,0,1:0:0:0:
217,217,7917,2,0,L|118:213,1,77,10|0,0:0|1:0,0:0:0:0:
217,150,8217,2,0,L|300:148,1,77,0|0,1:0|1:0,0:0:0:0:
446,84,8517,5,10,0:0:0:0:
455,121,8592,1,0,0:0:0:0:
450,159,8667,1,0,1:0:0:0:
431,192,8742,1,0,0:0:0:0:
401,216,8817,1,0,1:0:0:0:
364,227,8892,1,0,1:0:0:0:
326,224,8967,1,0,1:0:0:0:
112,247,9117,5,0,1:0:0:0:
112,247,9417,1,0,0:0:0:0:
264,251,9567,1,8,1:2:0:0:
264,251,9867,1,0,0:0:0:0:
264,251,10167,1,0,0:0:0:0:
414,251,10317,1,8,1:2:0:0:
414,251,10617,1,0,0:0:0:0:
414,251,10917,5,0,0:0:0:0:
414,251,11217,1,8,1:2:0:0:
262,251,11367,1,0,0:0:0:0:
262,251,11667,1,0,0:0:0:0:
262,251,11967,1,8,1:2:0:0:
110,248,12117,2,0,L|111:80,1,154
190,89,12567,1,0,1:0:0:0:
409,217,12717,6,0,L|262:153,1,154,4|10,1:2|0:0,0:0:0:0:
123,294,13317,2,0,L|111:241,2,38.5,0|0|0,1:0|0:0|1:0,0:0:0:0:
164,201,13617,2,0,L|268:196,1,77,10|0,0:0|1:0,0:0:0:0:
387,241,13917,6,0,L|391:146,1,77,0|0,1:0|1:0,0:0:0:0:
311,124,14217,2,0,L|225:119,1,77,10|0,0:0|1:0,0:0:0:0:
83,179,14517,2,0,L|181:175,2,77,2|0|10,1:2|1:0|0:0,0:0:0:0:
79,222,14967,1,0,1:0:0:0:
296,313,15117,6,0,L|297:214,2,77,10|0|0,0:0|1:0|1:0,0:0:0:0:
219,310,15567,1,0,1:0:0:0:
370,169,15717,2,0,L|369:79,1,77,10|0,0:0|1:0,0:0:0:0:
449,101,16017,2,0,L|448:17,1,77,0|0,1:0|1:0,0:0:0:0:
301,37,16317,5,10,0:0:0:0:
338,33,16392,1,0,0:0:0:0:
370,52,16467,1,0,1:0:0:0:
384,87,16542,1,0,0:0:0:0:
374,124,16617,1,0,1:0:0:0:
344,146,16692,1,0,1:0:0:0:
306,146,16767,1,0,1:0:0:0:
92,143,16917,5,4,1:2:0:0:
208,265,17217,1,0,0:0:0:0:
286,261,17367,1,0,0:0:0:0:
162,143,17667,1,0,0:0:0:0:
286,149,17967,1,0,0:0:0:0:
162,143,18267,1,0,0:0:0:0:
241,137,18417,2,0,L|244:222,1,77,2|0,0:0|0:0,0:0:0:0:
94,265,18717,5,2,0:0:0:0:
220,347,19017,1,0,0:0:0:0:
297,336,19167,1,0,0:0:0:0:
171,254,19467,1,0,0:0:0:0:
297,163,19767,1,0,0:0:0:0:
376,154,19917,1,0,0:0:0:0:
250,245,20217,1,2,0:0:0:0:
376,154,20517,1,2,0:0:0:0:
300,143,20667,1,0,0:0:0:0:
222,133,20817,1,2,0:0:0:0:
452,101,21117,5,2,0:0:0:0:
327,87,21417,1,0,0:0:0:0:
248,78,21567,1,0,0:0:0:0:
374,204,21867,1,0,0:0:0:0:
247,190,22167,1,0,0:0:0:0:
374,204,22467,1,0,0:0:0:0:
295,195,22617,2,0,L|290:287,1,77,2|0,0:0|0:0,0:0:0:0:
443,327,22917,5,2,0:0:0:0:
319,314,23217,1,0,0:0:0:0:
240,305,23367,1,0,0:0:0:0:
364,251,23667,1,0,0:0:0:0:
238,235,23967,1,0,0:0:0:0:
361,152,24267,1,0,0:0:0:0:
282,143,24417,1,0,0:0:0:0:
159,153,24717,2,0,L|161:57,1,77,2|0,0:0|0:0,0:0:0:0:
313,123,25017,5,2,0:0:0:0:
440,119,25317,1,0,0:0:0:0:
363,115,25467,1,0,0:0:0:0:
238,194,25767,1,0,0:0:0:0:
363,205,26067,1,0,0:0:0:0:
236,289,26367,1,0,0:0:0:0:
159,284,26517,2,0,L|160:196,1,77,2|0,0:0|0:0,0:0:0:0:
312,199,26817,5,2,0:0:0:0:
188,174,27117,1,0,0:0:0:0:
111,165,27267,1,0,0:0:0:0:
234,105,27567,1,0,0:0:0:0:
358,82,27867,1,0,0:0:0:0:
435,91,28017,1,0,0:0:0:0:
312,165,28317,1,2,0:0:0:0:
189,269,28617,1,2,0:0:0:0:
265,274,28767,1,0,0:0:0:0:
342,279,28917,1,2,0:0:0:0:
108,205,29217,5,2,0:0:0:0:
233,171,29517,1,0,0:0:0:0:
310,162,29667,1,0,0:0:0:0:
186,114,29967,1,0,0:0:0:0:
310,95,30267,1,0,0:0:0:0:
187,66,30567,1,0,0:0:0:0:
109,59,30717,2,0,L|105:216,1,154,2|2,0:0|0:0,0:0:0:0:
337,243,31317,5,2,0:0:0:0:
415,235,31467,1,0,0:0:0:0:
291,165,31767,1,0,0:0:0:0:
415,235,32067,1,0,0:0:0:0:
291,165,32367,1,0,0:0:0:0:
213,156,32517,1,0,0:0:0:0:
338,112,32817,1,0,0:0:0:0:
84,348,33117,6,0,L|84:36,1,308,0|0,0:0|0:0,0:0:0:0:
84,264,34017,2,0,L|84:88,2,154,0|0|0,0:0|0:0|0:0,0:0:0:0:
84,356,34917,2,0,L|84:100,1,231,0|0,0:0|0:0,0:0:0:0:
84,40,35517,1,0,0:0:0:0:
84,344,35817,6,0,L|84:96,1,231,0|0,0:0|0:0,0:0:0:0:
160,80,36417,1,0,0:0:0:0:
302,95,36567,1,8,1:2:0:0:
225,89,36717,2,0,L|178:83,1,38.5,2|0,1:2|0:0,0:0:0:0:
160,80,36867,1,2,1:2:0:0:
377,268,37017,5,4,1:1:0:0:
459,268,37167,2,0,L|463:173,1,77,0|10,1:0|0:2,0:0:0:0:
312,160,37467,2,0,L|148:156,1,154,0|0,1:0|1:0,0:0:0:0:
80,224,37917,2,0,L|76:136,1,77,8|0,1:2|1:2,0:0:0:0:
292,248,38217,5,0,1:2:0:0:
372,256,38367,2,0,L|376:172,1,77,0|10,1:0|0:0,0:0:0:0:
224,96,38667,2,0,L|216:272,1,154,0|0,1:0|1:0,0:0:0:0:
296,304,39117,2,0,L|380:304,1,77,10|0,0:0|1:0,0:0:0:0:
152,320,39417,5,0,1:0:0:0:
72,304,39567,2,0,L|68:132,1,154,0|0,1:0|1:0,0:0:0:0:
112,140,39942,1,0,0:0:0:0:
152,136,40017,1,0,1:0:0:0:
236,128,40167,2,0,L|328:120,1,77,0|10,1:0|0:0,0:0:0:0:
228,212,40467,2,0,L|136:208,1,77,0|0,0:0|1:0,0:0:0:0:
300,292,40767,6,0,L|304:184,1,77,0|10,1:0|0:0,0:0:0:0:
304,172,40992,1,0,0:0:0:0:
256,168,41067,1,0,1:0:0:0:
180,160,41217,1,0,1:0:0:0:
256,132,41367,1,2,1:2:0:0:
404,176,41517,2,0,L|408:88,1,77,10|0,0:0|1:0,0:0:0:0:
192,72,41817,5,0,1:0:0:0:
116,80,41967,2,0,L|112:168,1,77,0|10,1:0|0:0,0:0:0:0:
264,224,42267,2,0,L|440:220,1,154,0|0,1:0|1:0,0:0:0:0:
344,152,42717,2,0,L|340:248,1,77,10|0,0:0|1:0,0:0:0:0:
124,212,43017,5,0,1:0:0:0:
48,212,43167,2,0,L|124:208,1,77,0|10,1:0|0:0,0:0:0:0:
276,320,43467,2,0,L|280:148,1,154,0|0,1:0|1:0,0:0:0:0:
200,144,43917,2,0,L|112:136,1,77,10|0,0:0|1:0,0:0:0:0:
344,104,44217,5,0,1:0:0:0:
420,104,44367,2,0,L|264:116,1,154,0|0,1:0|1:0,0:0:0:0:
266,115,44742,1,0,0:0:0:0:
266,115,44817,1,0,1:0:0:0:
340,208,44967,2,0,L|436:200,1,77,0|10,1:0|0:0,0:0:0:0:
340,324,45267,2,0,L|252:320,1,77,0|0,0:0|1:0,0:0:0:0:
112,308,45567,6,0,L|112:228,1,77,0|10,1:0|0:0,0:0:0:0:
192,208,45867,1,0,1:0:0:0:
272,156,46017,1,0,1:0:0:0:
192,132,46167,1,2,1:2:0:0:
340,120,46317,2,0,L|436:116,1,77,10|0,0:0|1:0,0:0:0:0:
188,316,46617,5,6,1:2:0:0:
112,316,46767,2,0,L|112:240,1,77,0|10,1:0|0:0,0:0:0:0:
264,204,47067,2,0,L|96:196,1,154,0|0,1:0|1:0,0:0:0:0:
184,144,47517,2,0,L|280:136,1,77,10|0,0:0|1:0,0:0:0:0:
480,124,47817,5,0,1:0:0:0:
408,128,47967,2,0,L|320:132,1,77,0|10,1:0|0:0,0:0:0:0:
180,312,48267,2,0,L|176:148,1,154,0|0,1:0|1:0,0:0:0:0:
256,144,48717,2,0,L|336:140,1,77,10|0,0:0|1:0,0:0:0:0:
112,56,49017,5,0,1:2:0:0:
36,64,49167,2,0,L|116:60,1,77,0|10,1:0|0:0,0:0:0:0:
192,56,49467,2,0,L|212:116,2,38.5,0|0|0,1:0|0:0|1:0,0:0:0:0:
112,56,49767,1,0,1:0:0:0:
92,80,49917,1,10,0:0:0:0:
140,132,50067,1,0,0:0:0:0:
220,152,50217,1,0,1:0:0:0:
72,240,50367,6,0,L|72:156,1,77,0|10,1:0|0:0,0:0:0:0:
156,148,50667,1,0,1:0:0:0:
236,140,50817,1,0,1:0:0:0:
316,132,50967,1,2,1:2:0:0:
168,288,51117,2,0,L|168:208,1,77,10|0,0:0|1:0,0:0:0:0:
388,244,51417,5,0,1:0:0:0:
464,240,51567,2,0,L|464:152,1,77,0|10,1:0|0:0,0:0:0:0:
312,108,51867,2,0,L|144:104,1,154,0|0,1:0|1:0,0:0:0:0:
80,156,52317,2,0,L|76:244,1,77,10|0,0:0|1:0,0:0:0:0:
300,252,52617,5,0,1:0:0:0:
380,240,52767,2,0,L|296:232,1,77,0|10,1:0|0:0,0:0:0:0:
152,220,53067,2,0,L|152:48,1,154,0|0,1:0|1:0,0:0:0:0:
232,48,53517,2,0,L|140:44,1,77,10|0,0:0|1:0,0:0:0:0:
376,192,53817,5,4,1:2:0:0:
376,192,54117,1,0,1:0:0:0:
376,192,54417,1,0,1:0:0:0:
224,192,54567,1,8,0:0:0:0:
224,192,54867,1,0,1:0:0:0:
224,192,55167,1,0,1:0:0:0:
72,188,55317,1,8,0:0:0:0:
72,188,55617,5,0,1:0:0:0:
72,188,55917,1,0,1:0:0:0:
224,192,56067,1,8,0:0:0:0:
224,192,56367,1,0,1:0:0:0:
224,192,56667,1,0,1:0:0:0:
376,188,56817,2,0,L|376:96,1,77,8|0,0:0|0:0,0:0:0:0:
224,104,57117,2,0,L|132:104,1,77,8|0,0:0|1:0,0:0:0:0:
368,304,57417,5,0,1:0:0:0:
368,304,57717,1,0,1:0:0:0:
368,304,58017,1,0,1:0:0:0:
216,297,58167,1,8,0:0:0:0:
216,297,58467,1,0,1:0:0:0:
216,297,58767,1,0,1:0:0:0:
64,290,58917,1,8,0:0:0:0:
64,290,59217,5,0,1:0:0:0:
64,290,59517,1,0,1:0:0:0:
216,283,59667,1,8,0:0:0:0:
216,283,59967,1,0,1:0:0:0:
216,283,60267,1,0,1:0:0:0:
368,276,60417,2,0,L|279:271,1,77,8|0,0:0|0:0,0:0:0:0:
442,219,60717,2,0,L|442:134,1,77,8|0,0:0|1:0,0:0:0:0:
225,132,61017,5,0,1:0:0:0:
225,132,61317,1,0,1:0:0:0:
225,132,61617,1,0,1:0:0:0:
73,128,61767,1,8,0:0:0:0:
73,128,62067,1,0,1:0:0:0:
73,128,62367,1,0,1:0:0:0:
225,124,62517,1,8,0:0:0:0:
225,124,62817,5,0,1:0:0:0:
225,124,63117,1,0,1:0:0:0:
377,120,63267,1,8,0:0:0:0:
377,120,63567,1,0,1:0:0:0:
377,120,63867,1,0,1:0:0:0:
225,124,64017,2,0,L|135:122,1,77,8|0,0:0|0:0,0:0:0:0:
300,265,64317,2,0,L|381:263,1,77,8|0,0:0|1:0,0:0:0:0:
158,309,64617,5,0,1:0:0:0:
158,309,64917,1,0,1:0:0:0:
158,309,65217,1,0,1:0:0:0:
310,310,65367,1,8,0:0:0:0:
310,310,65667,1,0,1:0:0:0:
310,310,65967,1,0,1:0:0:0:
462,311,66117,1,8,0:0:0:0:
462,311,66417,5,0,1:0:0:0:
462,311,66717,1,0,1:0:0:0:
310,310,66867,1,8,0:0:0:0:
310,310,67167,1,0,1:0:0:0:
310,310,67467,1,0,1:0:0:0:
158,311,67617,2,0,L|158:218,1,77,8|0,0:0|0:0,0:0:0:0:
308,220,67917,2,0,L|401:220,1,77,8|0,1:2|1:0,0:0:0:0:
167,192,68217,5,6,0:0:0:0:
167,192,68517,1,0,0:0:0:0:
247,192,68667,1,0,0:0:0:0:
247,192,68967,1,0,0:0:0:0:
247,192,69267,1,0,0:0:0:0:
247,192,69567,1,0,0:0:0:0:
327,192,69717,1,0,0:0:0:0:
167,192,70017,5,2,0:0:0:0:
167,192,70317,1,0,0:0:0:0:
87,192,70467,1,0,0:0:0:0:
87,192,70767,1,0,0:0:0:0:
87,192,71067,1,0,0:0:0:0:
167,192,71217,1,0,0:0:0:0:
167,192,71517,1,0,0:0:0:0:
167,192,71817,1,0,0:0:0:0:
247,192,71967,1,0,0:0:0:0:
327,192,72117,1,2,0:0:0:0:
487,192,72417,5,2,0:0:0:0:
487,192,72717,1,0,0:0:0:0:
407,192,72867,1,0,0:0:0:0:
407,192,73167,1,0,0:0:0:0:
407,192,73467,1,0,0:0:0:0:
407,192,73767,1,0,0:0:0:0:
327,192,73917,1,0,0:0:0:0:
487,192,74217,5,2,0:0:0:0:
487,192,74517,1,0,0:0:0:0:
407,192,74667,1,0,0:0:0:0:
407,192,74967,1,0,0:0:0:0:
407,192,75267,1,0,0:0:0:0:
407,192,75567,1,0,0:0:0:0:
487,192,75717,1,0,0:0:0:0:
487,192,76017,1,0,0:0:0:0:
215,192,76317,5,2,0:0:0:0:
215,192,76617,1,0,0:0:0:0:
293,192,76767,1,0,0:0:0:0:
293,192,77067,1,0,0:0:0:0:
293,192,77367,1,0,0:0:0:0:
293,192,77667,1,0,0:0:0:0:
372,192,77817,1,0,0:0:0:0:
213,186,78117,5,2,0:0:0:0:
213,186,78417,1,0,0:0:0:0:
133,189,78567,1,0,0:0:0:0:
133,189,78867,1,0,0:0:0:0:
133,189,79167,1,0,0:0:0:0:
52,188,79317,1,0,0:0:0:0:
52,188,79617,1,0,0:0:0:0:
52,188,79917,1,0,0:0:0:0:
133,189,80067,1,0,0:0:0:0:
212,188,80217,1,2,0:0:0:0:
52,188,80517,5,2,0:0:0:0:
52,188,80817,1,0,0:0:0:0:
133,189,80967,1,0,0:0:0:0:
133,189,81267,1,0,0:0:0:0:
133,189,81567,1,0,0:0:0:0:
133,189,81867,1,0,0:0:0:0:
216,188,82017,1,0,0:0:0:0:
372,188,82317,5,2,0:0:0:0:
372,188,82617,1,0,0:0:0:0:
304,188,82767,1,0,0:0:0:0:
304,188,83067,1,0,0:0:0:0:
304,188,83367,1,0,0:0:0:0:
304,188,83667,1,0,0:0:0:0:
352,188,83817,1,0,0:0:0:0:
352,188,84117,2,0,L|436:188,1,77,2|0,0:0|0:0,0:0:0:0:
204,276,84417,6,0,L|204:188,1,77,6|0,0:0|0:0,0:0:0:0:
280,188,84717,1,8,0:0:0:0:
360,116,84867,2,0,L|372:52,2,38.5,0|0|0,0:0|0:0|0:0,0:0:0:0:
280,188,85167,1,0,0:0:0:0:
200,188,85317,6,0,L|100:184,1,77,8|0,0:0|0:0,0:0:0:0:
44,176,85617,1,0,0:0:0:0:
20,212,85767,1,0,0:0:0:0:
68,264,85917,1,8,0:0:0:0:
160,288,86067,1,0,0:0:0:0:
312,292,86217,6,0,L|316:200,1,77,2|0,0:0|0:0,0:0:0:0:
232,208,86517,1,8,0:0:0:0:
152,176,86667,2,0,L|140:120,2,38.5,0|0|0,0:0|0:0|0:0,0:0:0:0:
232,208,86967,1,0,0:0:0:0:
312,208,87117,6,0,L|320:120,1,77,8|0,0:0|0:0,0:0:0:0:
240,92,87417,1,0,0:0:0:0:
216,120,87567,1,0,0:0:0:0:
264,144,87717,1,8,0:0:0:0:
356,152,87867,1,0,0:0:0:0:
280,224,88017,2,0,L|204:220,1,77,0|0,0:0|0:0,0:0:0:0:
128,204,88317,2,0,L|124:108,1,77,8|0,0:0|0:0,0:0:0:0:
276,104,88617,6,0,L|376:96,1,77,2|0,0:0|0:0,0:0:0:0:
436,92,88917,1,8,0:0:0:0:
360,236,89067,2,0,L|340:176,2,38.5,0|0|0,0:0|0:0|0:0,0:0:0:0:
440,232,89367,1,0,0:0:0:0:
360,328,89517,6,0,L|272:320,1,77,8|0,0:0|0:0,0:0:0:0:
204,312,89817,1,0,0:0:0:0:
180,296,89967,1,0,0:0:0:0:
228,200,90117,1,8,0:0:0:0:
320,176,90267,1,0,0:0:0:0:
472,180,90417,6,0,L|472:92,1,77,2|0,0:0|0:0,0:0:0:0:
396,96,90717,1,8,0:0:0:0:
320,92,90867,1,0,0:0:0:0:
281,90,90942,1,0,0:0:0:0:
243,88,91017,1,0,0:0:0:0:
320,92,91167,1,0,0:0:0:0:
243,88,91317,6,0,L|240:172,1,77,8|0,0:0|0:0,0:0:0:0:
316,168,91617,1,0,0:0:0:0:
340,188,91767,1,0,0:0:0:0:
292,244,91917,1,8,0:0:0:0:
200,256,92067,1,0,0:0:0:0:
120,264,92217,2,0,L|116:184,1,77,2|0,0:0|0:0,0:0:0:0:
336,344,92517,6,0,L|340:252,1,77,6|0,0:0|0:0,0:0:0:0:
256,256,92817,1,8,0:0:0:0:
332,200,92967,2,0,L|340:136,2,38.5,0|0|0,0:0|0:0|0:0,0:0:0:0:
256,256,93267,1,0,0:0:0:0:
176,252,93417,6,0,L|76:248,1,77,8|0,0:0|0:0,0:0:0:0:
176,176,93717,1,0,0:0:0:0:
200,136,93867,1,0,0:0:0:0:
152,88,94017,1,8,0:0:0:0:
60,80,94167,1,0,0:0:0:0:
212,64,94317,6,0,L|312:60,1,77,2|0,0:0|0:0,0:0:0:0:
368,56,94617,1,8,0:0:0:0:
288,64,94767,2,0,L|280:112,2,38.5,0|0|0,0:0|0:0|0:0,0:0:0:0:
368,56,95067,1,0,0:0:0:0:
444,56,95217,6,0,L|456:148,1,77,8|0,0:0|0:0,0:0:0:0:
380,152,95517,1,0,0:0:0:0:
356,192,95667,1,0,0:0:0:0:
404,232,95817,1,8,0:0:0:0:
492,256,95967,1,0,0:0:0:0:
416,320,96117,2,0,L|328:316,1,77,0|0,0:0|0:0,0:0:0:0:
264,284,96417,2,0,L|344:280,1,77,8|0,0:0|0:0,0:0:0:0:
192,240,96717,6,0,L|188:152,1,77,2|0,0:0|0:0,0:0:0:0:
268,148,97017,1,8,0:0:0:0:
188,132,97167,2,0,L|176:80,2,38.5,0|0|0,0:0|0:0|0:0,0:0:0:0:
268,148,97467,1,0,0:0:0:0:
348,144,97617,6,0,L|440:136,1,77,8|0,0:0|0:0,0:0:0:0:
348,144,97917,1,0,0:0:0:0:
328,192,98067,1,0,0:0:0:0:
376,240,98217,1,8,0:0:0:0:
464,260,98367,1,0,0:0:0:0:
312,332,98517,6,0,L|220:328,1,77,2|0,0:0|0:0,0:0:0:0:
156,324,98817,1,8,0:0:0:0:
240,264,98967,2,0,L|248:208,2,38.5,0|0|0,0:0|0:0|0:0,0:0:0:0:
156,324,99267,1,0,0:0:0:0:
72,328,99417,6,0,L|68:232,1,77,8|0,0:0|0:0,0:0:0:0:
152,224,99717,2,0,L|156:132,1,77,0|0,0:0|0:0,0:0:0:0:
76,140,100017,1,8,0:0:0:0:
156,92,100167,1,0,0:0:0:0:
194,87,100242,1,0,0:0:0:0:
232,83,100317,1,0,0:0:0:0:
312,88,100467,1,0,0:0:0:0:
464,348,100617,6,0,L|464:36,1,308,0|0,0:0|0:0,0:0:0:0:
464,264,101517,2,0,L|464:88,2,154,0|0|0,0:0|0:0|0:0,0:0:0:0:
464,356,102417,2,0,L|464:100,1,231,0|0,0:0|0:0,0:0:0:0:
464,40,103017,1,0,0:0:0:0:
464,344,103317,6,0,L|464:96,1,231,0|0,0:0|0:0,0:0:0:0:
388,80,103917,1,0,0:0:0:0:
246,86,104067,1,8,1:2:0:0:
322,84,104217,2,0,L|366:80,1,38.5,2|0,1:2|0:0,0:0:0:0:
388,80,104367,1,2,1:2:0:0:
156,208,104517,5,4,1:1:0:0:
76,208,104667,2,0,L|68:312,1,77,0|10,1:0|0:2,0:0:0:0:
220,328,104967,2,0,P|216:252|148:216,1,154,0|0,1:0|1:0,0:0:0:0:
76,204,105417,2,0,L|72:112,1,77,8|0,1:2|1:2,0:0:0:0:
300,140,105717,5,0,1:2:0:0:
376,140,105867,2,0,L|380:240,1,77,0|10,1:0|0:0,0:0:0:0:
228,276,106167,2,0,L|396:264,1,154,0|0,1:0|1:0,0:0:0:0:
464,256,106617,2,0,L|468:164,1,77,10|0,0:0|1:0,0:0:0:0:
244,184,106917,5,0,1:0:0:0:
164,176,107067,2,0,P|120:236|168:304,1,154,0|0,1:0|1:0,0:0:0:0:
192,112,107442,1,0,0:0:0:0:
232,108,107517,1,0,1:0:0:0:
316,100,107667,2,0,L|408:92,1,77,0|10,1:0|0:0,0:0:0:0:
308,184,107967,2,0,L|216:180,1,77,0|0,0:0|1:0,0:0:0:0:
80,256,108267,6,0,L|80:156,1,77,0|10,1:0|0:0,0:0:0:0:
156,112,108567,1,0,1:0:0:0:
80,104,108717,1,0,1:0:0:0:
156,76,108867,1,2,1:2:0:0:
308,112,109017,2,0,L|404:108,1,77,10|0,0:0|1:0,0:0:0:0:
160,232,109317,5,0,1:0:0:0:
80,232,109467,2,0,L|80:148,1,77,0|10,1:0|0:0,0:0:0:0:
232,132,109767,2,0,L|408:128,1,154,0|0,1:0|1:0,0:0:0:0:
468,128,110217,2,0,L|384:124,1,77,10|0,0:0|1:0,0:0:0:0:
164,260,110517,5,0,1:0:0:0:
84,256,110667,2,0,L|160:248,1,77,0|10,1:0|0:0,0:0:0:0:
312,288,110967,2,0,P|316:220|236:192,1,154,0|0,1:0|1:0,0:0:0:0:
168,192,111417,2,0,L|92:188,1,77,10|0,0:0|1:0,0:0:0:0:
316,120,111717,5,0,1:0:0:0:
396,112,111867,2,0,L|232:104,1,154,0|0,1:0|1:0,0:0:0:0:
242,104,112242,1,0,0:0:0:0:
242,104,112317,1,0,1:0:0:0:
316,200,112467,2,0,L|320:288,1,77,0|10,1:0|0:0,0:0:0:0:
240,304,112767,2,0,L|152:300,1,77,0|0,0:0|1:0,0:0:0:0:
312,340,113067,6,0,L|392:336,1,77,0|10,1:0|0:0,0:0:0:0:
412,304,113367,1,0,1:0:0:0:
364,236,113517,1,0,1:0:0:0:
272,216,113667,1,2,1:2:0:0:
424,176,113817,2,0,L|428:88,1,77,10|0,0:0|1:0,0:0:0:0:
208,100,114117,5,6,1:2:0:0:
128,104,114267,2,0,L|124:188,1,77,0|10,1:0|0:0,0:0:0:0:
276,248,114567,2,0,L|100:240,1,154,0|0,1:0|1:0,0:0:0:0:
40,236,115017,2,0,L|132:228,1,77,10|0,0:0|1:0,0:0:0:0:
340,132,115317,5,0,1:0:0:0:
420,128,115467,2,0,L|340:120,1,77,0|10,1:0|0:0,0:0:0:0:
192,264,115767,2,0,P|192:188|276:156,1,154,0|0,1:0|1:0,0:0:0:0:
332,160,116217,2,0,L|336:76,1,77,10|0,0:0|1:0,0:0:0:0:
112,124,116517,5,0,1:2:0:0:
36,140,116667,2,0,L|208:144,1,154,0|0,1:0|1:0,0:0:0:0:
152,137,117042,1,0,0:0:0:0:
137,168,117117,1,0,1:0:0:0:
112,201,117267,1,0,1:0:0:0:
159,245,117417,1,10,0:0:0:0:
236,267,117567,1,0,0:0:0:0:
328,348,117717,1,0,1:0:0:0:
176,332,117867,6,0,L|176:252,1,77,0|10,1:0|0:0,0:0:0:0:
252,228,118167,1,0,1:0:0:0:
176,216,118317,1,0,1:0:0:0:
100,212,118467,1,2,1:2:0:0:
248,160,118617,2,0,L|348:152,1,77,10|0,0:0|1:0,0:0:0:0:
104,108,118917,5,0,1:0:0:0:
32,108,119067,2,0,L|28:188,1,77,0|10,1:0|0:0,0:0:0:0:
180,280,119367,2,0,L|344:272,1,154,0|0,1:0|1:0,0:0:0:0:
416,264,119817,2,0,L|420:168,1,77,10|0,0:0|1:0,0:0:0:0:
196,168,120117,5,0,1:0:0:0:
124,164,120267,2,0,L|204:156,1,77,0|10,1:0|0:0,0:0:0:0:
352,168,120567,2,0,P|352:104|272:72,1,154,0|0,1:0|1:0,0:0:0:0:
200,70,121017,2,0,L|277:70,1,77,10|0,0:0|1:0,0:0:0:0:
56,236,121317,5,4,1:2:0:0:
56,236,121617,1,0,1:0:0:0:
56,236,121917,1,0,1:0:0:0:
208,244,122067,1,8,0:0:0:0:
208,244,122367,1,0,1:0:0:0:
208,244,122667,1,0,1:0:0:0:
360,252,122817,1,8,0:0:0:0:
360,252,123117,5,0,1:0:0:0:
360,252,123417,1,0,1:0:0:0:
208,244,123567,1,8,0:0:0:0:
208,244,123867,1,0,1:0:0:0:
208,244,124167,1,0,1:0:0:0:
56,252,124317,2,0,L|56:164,1,77,8|0,0:0|0:0,0:0:0:0:
208,160,124617,2,0,L|108:156,1,77,8|0,0:0|1:0,0:0:0:0:
352,156,124917,5,0,1:0:0:0:
352,156,125217,1,0,1:0:0:0:
352,156,125517,1,0,1:0:0:0:
200,160,125667,1,8,0:0:0:0:
200,160,125967,1,0,1:0:0:0:
200,160,126267,1,0,1:0:0:0:
48,164,126417,1,8,0:0:0:0:
48,164,126717,5,0,1:0:0:0:
48,164,127017,1,0,1:0:0:0:
200,168,127167,1,8,0:0:0:0:
200,168,127467,1,0,1:0:0:0:
200,168,127767,1,0,1:0:0:0:
352,172,127917,2,0,L|436:168,1,77,8|0,0:0|0:0,0:0:0:0:
276,296,128217,2,0,L|180:292,1,77,8|0,0:0|1:0,0:0:0:0:
420,292,128517,5,0,1:0:0:0:
420,292,128817,1,0,1:0:0:0:
420,292,129117,1,0,1:0:0:0:
268,284,129267,1,8,0:0:0:0:
268,284,129567,1,0,1:0:0:0:
268,284,129867,1,0,1:0:0:0:
116,276,130017,1,8,0:0:0:0:
116,276,130317,5,0,1:0:0:0:
116,276,130617,1,0,1:0:0:0:
268,268,130767,1,8,0:0:0:0:
268,268,131067,1,0,1:0:0:0:
268,268,131367,1,0,1:0:0:0:
420,260,131517,2,0,L|420:176,1,77,8|0,0:0|0:0,0:0:0:0:
268,168,131817,2,0,L|168:160,1,77,8|0,0:0|1:0,0:0:0:0:
416,104,132117,5,0,1:0:0:0:
416,104,132417,1,0,1:0:0:0:
416,104,132717,1,0,1:0:0:0:
264,108,132867,1,8,0:0:0:0:
264,108,133167,1,0,1:0:0:0:
264,108,133467,1,0,1:0:0:0:
112,104,133617,1,8,0:0:0:0:
476,100,133917,5,4,1:2:0:0:
256,192,134067,12,0,136354,0:0:0:0:
344,224,138417,6,0,L|352:68,2,154,2|0|0,0:0|0:0|0:0,0:0:0:0:
220,200,139317,2,0,L|96:76,2,154,2|0|0,0:0|0:0|0:0,0:0:0:0:
348,212,140217,5,2,0:0:0:0:
348,212,140517,1,0,0:0:0:0:
224,204,140817,1,0,0:0:0:0:
100,200,141117,2,0,L|224:88,2,154,2|0|0,0:0|0:0|0:0,0:0:0:0:
228,288,142017,6,0,L|228:124,2,154,2|0|0,0:0|0:0|0:0,0:0:0:0:
356,228,142917,2,0,L|476:112,2,154,2|0|0,0:0|0:0|0:0,0:0:0:0:
232,228,143817,5,2,0:0:0:0:
232,228,144117,1,0,0:0:0:0:
356,236,144417,1,0,0:0:0:0:
232,228,144717,2,0,L|120:116,2,154,2|0|0,0:0|0:0|0:0,0:0:0:0:
468,280,145617,6,0,L|472:116,2,154,2|0|0,0:0|0:0|0:0,0:0:0:0:
336,176,146517,2,0,L|464:64,2,154,2|0|0,0:0|0:0|0:0,0:0:0:0:
212,176,147417,5,2,0:0:0:0:
212,176,147717,1,0,0:0:0:0:
336,172,148017,1,0,0:0:0:0:
212,176,148317,2,0,L|328:56,2,154,2|0|0,0:0|0:0|0:0,0:0:0:0:
84,176,149217,6,0,L|80:8,2,154,2|0|0,0:0|0:0|0:0,0:0:0:0:
212,280,150117,2,0,L|332:168,2,154,2|0|0,0:0|0:0|0:0,0:0:0:0:
88,312,151017,5,2,0:0:0:0:
88,312,151317,1,0,0:0:0:0:
212,304,151617,1,0,0:0:0:0:
336,292,151917,1,2,0:0:0:0:
212,268,152217,1,0,0:0:0:0:
460,76,152517,6,0,L|460:312,1,230.99999295044,2|0,0:0|0:0,0:0:0:0:
460,324,154167,2,0,L|160:168,1,308,0|0,0:0|0:0,0:0:0:0:
36,248,154917,5,0,3:0:0:0:
29,206,154992,1,0,0:0:0:0:
36,164,155067,1,0,3:0:0:0:
56,127,155142,1,0,0:0:0:0:
86,97,155217,1,0,3:0:0:0:
123,78,155292,1,0,3:0:0:0:
165,71,155367,1,0,3:0:0:0:
392,76,155517,6,0,L|396:168,1,77,4|0,1:2|1:0,0:0:0:0:
172,168,155817,1,14,1:1:0:0:
96,196,155967,2,0,L|280:192,1,154,0|0,1:0|1:0,0:0:0:0:
332,188,156417,2,0,L|332:112,1,77,8|0,1:2|1:2,0:0:0:0:
108,108,156717,5,0,1:2:0:0:
32,104,156867,2,0,L|28:200,1,77,0|10,1:0|0:0,0:0:0:0:
180,288,157167,2,0,P|184:224|96:188,1,154,0|0,1:0|1:0,0:0:0:0:
36,180,157617,2,0,L|116:172,1,77,10|0,0:0|1:0,0:0:0:0:
340,160,157917,5,0,1:0:0:0:
416,152,158067,2,0,P|412:224|340:248,1,154,0|0,1:0|1:0,0:0:0:0:
301,250,158442,1,0,1:0:0:0:
263,248,158517,1,0,1:0:0:0:
344,164,158667,2,0,L|424:156,1,77,0|10,1:0|0:0,0:0:0:0:
340,84,158967,2,0,L|424:80,1,77,0|0,1:0|1:0,0:0:0:0:
264,80,159267,6,0,L|264:176,1,77,0|10,1:0|0:0,0:0:0:0:
348,160,159567,1,0,1:0:0:0:
432,160,159717,1,0,1:0:0:0:
348,160,159867,1,2,1:2:0:0:
200,236,160017,2,0,L|96:228,1,77,10|0,0:0|1:0,0:0:0:0:
352,320,160317,5,0,1:0:0:0:
424,320,160467,2,0,L|344:312,1,77,0|10,1:0|0:0,0:0:0:0:
196,296,160767,2,0,L|192:132,1,154,0|0,1:0|1:0,0:0:0:0:
272,124,161217,2,0,L|368:116,1,77,10|0,0:0|1:0,0:0:0:0:
128,184,161517,5,0,1:0:0:0:
52,184,161667,2,0,L|48:280,1,77,0|10,1:0|0:0,0:0:0:0:
200,284,161967,2,0,L|364:276,1,154,0|0,1:0|1:0,0:0:0:0:
428,268,162417,2,0,L|432:180,1,77,10|0,0:0|1:0,0:0:0:0:
208,156,162717,5,0,1:0:0:0:
132,156,162867,2,0,L|300:148,1,154,0|0,1:0|1:0,0:0:0:0:
285,148,163242,1,0,1:0:0:0:
285,148,163317,1,0,1:0:0:0:
208,156,163467,2,0,L|208:64,1,77,0|10,1:0|0:0,0:0:0:0:
288,72,163767,2,0,L|376:68,1,77,0|0,1:0|1:0,0:0:0:0:
216,280,164067,6,0,L|212:184,1,77,0|10,1:0|0:0,0:0:0:0:
292,184,164367,1,0,1:0:0:0:
212,184,164517,1,0,1:0:0:0:
132,176,164667,1,2,1:2:0:0:
280,104,164817,2,0,L|200:100,1,77,10|0,0:0|1:0,0:0:0:0:
424,248,165117,5,6,1:2:0:0:
496,244,165267,2,0,L|496:152,1,77,0|10,1:0|0:0,0:0:0:0:
344,136,165567,2,0,L|168:128,1,154,0|0,1:0|1:0,0:0:0:0:
112,124,166017,2,0,L|200:120,1,77,10|0,0:0|1:0,0:0:0:0:
408,224,166317,5,0,1:0:0:0:
484,216,166467,2,0,L|392:204,1,77,0|10,1:0|0:0,0:0:0:0:
256,192,166767,2,0,P|256:124|336:96,1,154,0|0,1:0|1:0,0:0:0:0:
408,92,167217,2,0,L|320:88,1,77,10|0,0:0|1:0,0:0:0:0:
112,220,167517,5,0,1:2:0:0:
36,216,167667,2,0,L|36:128,1,77,0|10,1:0|0:0,0:0:0:0:
116,128,167967,2,0,L|160:124,2,38.5,0|0|0,1:0|1:0|1:0,0:0:0:0:
88,252,168267,1,0,1:0:0:0:
60,300,168417,1,10,0:0:0:0:
108,336,168567,1,0,1:0:0:0:
200,352,168717,1,0,1:0:0:0:
352,320,168867,6,0,L|356:240,1,77,0|10,1:0|0:0,0:0:0:0:
276,220,169167,1,0,1:0:0:0:
196,196,169317,1,0,1:0:0:0:
280,216,169467,1,2,1:2:0:0:
432,220,169617,2,0,L|348:212,1,77,10|0,0:0|1:0,0:0:0:0:
128,152,169917,5,0,1:0:0:0:
52,156,170067,2,0,L|48:68,1,77,0|10,1:0|0:0,0:0:0:0:
200,64,170367,2,0,L|372:60,1,154,0|0,1:0|1:0,0:0:0:0:
276,120,170817,2,0,L|176:116,1,77,10|0,0:0|1:0,0:0:0:0:
416,256,171117,5,0,1:0:0:0:
488,244,171267,2,0,L|408:240,1,77,0|10,1:0|0:0,0:0:0:0:
260,236,171567,2,0,L|252:64,1,154,0|0,1:0|1:0,0:0:0:0:
332,68,172017,2,0,L|420:68,1,77,10|0,0:0|1:0,0:0:0:0:
180,72,172317,5,4,1:0:0:0:
180,72,172617,2,0,L|176:152,1,77,10|0,0:0|1:0,0:0:0:0:
252,152,172917,1,0,1:0:0:0:
176,200,173067,2,0,P|132:264|180:324,1,154,0|0,1:0|1:0,0:0:0:0:
320,280,173517,5,0,0:0:0:0:
396,276,173667,2,0,L|404:180,1,77,0|10,1:0|0:0,0:0:0:0:
328,184,173967,1,0,1:0:0:0:
248,180,174117,2,0,P|256:108|336:88,1,154,0|10,1:0|0:0,0:0:0:0:
404,100,174567,1,0,1:0:0:0:
252,56,174717,5,0,1:0:0:0:
176,56,174867,2,0,L|172:144,1,77,0|10,1:0|0:0,0:0:0:0:
248,152,175167,1,0,1:0:0:0:
176,156,175317,2,0,L|20:148,1,154,0|10,1:0|0:0,0:0:0:0:
100,124,175767,1,0,0:0:0:0:
320,316,175917,6,0,L|320:232,1,77,0|0,1:0|0:0,0:0:0:0:
240,236,176217,2,0,L|236:136,1,77,10|0,0:0|1:0,0:0:0:0:
316,136,176517,1,0,1:0:0:0:
236,68,176667,2,0,P|188:120|256:172,1,154,0|0,1:0|1:0,0:0:0:0:
384,88,177117,5,0,1:0:0:0:
460,80,177267,2,0,L|384:68,1,77,0|10,1:0|0:0,0:0:0:0:
304,56,177567,1,0,1:0:0:0:
384,88,177717,2,0,P|384:152|296:164,1,154,0|10,1:0|0:0,0:0:0:0:
380,168,178167,1,0,1:0:0:0:
232,264,178317,5,0,1:0:0:0:
152,264,178467,2,0,L|152:168,1,77,0|10,1:0|0:0,0:0:0:0:
232,168,178767,1,0,1:0:0:0:
308,160,178917,2,0,L|144:152,1,154,0|10,1:0|0:0,0:0:0:0:
75,156,179367,1,0,0:0:0:0:
296,320,179517,6,0,L|384:320,1,77,0|0,1:0|0:0,0:0:0:0:
452,312,179817,2,0,L|456:220,1,77,10|0,0:0|0:0,0:0:0:0:
304,184,180117,2,0,L|220:180,1,77,0|0,1:0|0:0,0:0:0:0:
148,176,180417,2,0,L|144:88,1,77,10|0,0:0|0:0,0:0:0:0:
296,92,180717,6,0,L|300:168,1,77,0|0,1:0|0:0,0:0:0:0:
376,172,181017,2,0,L|380:260,1,77,10|0,0:0|0:0,0:0:0:0:
228,288,181317,2,0,L|144:284,1,77,0|0,1:0|0:0,0:0:0:0:
232,248,181617,2,0,L|328:244,1,77,10|0,0:0|1:0,0:0:0:0:
88,184,181917,5,4,1:2:0:0:
88,184,182217,2,0,L|84:96,1,77,10|0,0:0|1:2,0:0:0:0:
168,100,182517,1,0,1:0:0:0:
248,92,182667,2,0,L|432:80,1,154,0|0,1:0|1:0,0:0:0:0:
248,180,183117,5,0,0:0:0:0:
168,188,183267,2,0,L|256:184,1,77,0|10,1:0|0:0,0:0:0:0:
328,172,183567,1,0,1:0:0:0:
248,180,183717,2,0,L|248:352,1,154,0|10,1:0|0:0,0:0:0:0:
324,328,184167,1,0,1:0:0:0:
172,320,184317,5,0,1:0:0:0:
96,328,184467,2,0,L|96:232,1,77,0|10,1:0|0:0,0:0:0:0:
172,236,184767,1,0,1:0:0:0:
92,236,184917,2,0,L|256:228,1,154,0|10,1:0|0:0,0:0:0:0:
172,192,185367,1,0,0:0:0:0:
396,212,185517,6,0,L|400:128,1,77,0|0,1:0|0:0,0:0:0:0:
320,128,185817,2,0,L|316:40,1,77,10|0,0:0|1:0,0:0:0:0:
396,40,186117,1,0,1:0:0:0:
320,52,186267,2,0,P|276:100|324:164,1,154,0|0,1:0|1:0,0:0:0:0:
472,168,186717,5,0,1:0:0:0:
392,168,186867,2,0,L|384:264,1,77,0|10,1:0|0:0,0:0:0:0:
304,248,187167,1,0,1:0:0:0:
224,252,187317,2,0,P|220:184|316:152,1,154,0|10,1:0|0:0,0:0:0:0:
368,144,187767,1,0,1:0:0:0:
216,88,187917,5,0,1:0:0:0:
136,84,188067,2,0,L|128:184,1,77,0|10,1:0|0:0,0:0:0:0:
129,160,188292,1,0,0:0:0:0:
129,160,188367,1,8,0:0:0:0:
212,168,188517,2,0,L|296:160,1,77,0|0,1:0|1:0,0:0:0:0:
212,248,188817,2,0,L|128:240,1,77,10|0,0:0|1:0,0:0:0:0:
360,312,189117,5,6,0:0:0:0:
480,256,189417,1,0,0:0:0:0:
404,248,189567,1,0,0:0:0:0:
280,208,189867,1,0,0:0:0:0:
404,204,190167,1,0,0:0:0:0:
280,160,190467,1,0,0:0:0:0:
204,152,190617,1,0,0:0:0:0:
328,88,190917,5,2,0:0:0:0:
204,64,191217,1,0,0:0:0:0:
128,72,191367,1,0,0:0:0:0:
252,228,191667,1,0,0:0:0:0:
128,272,191967,1,0,0:0:0:0:
52,280,192117,1,0,0:0:0:0:
176,320,192417,1,0,0:0:0:0:
52,280,192717,1,0,0:0:0:0:
128,272,192867,1,0,0:0:0:0:
204,260,193017,1,2,0:0:0:0:
48,280,193317,5,2,0:0:0:0:
48,280,193617,1,0,0:0:0:0:
128,272,193767,1,0,0:0:0:0:
128,272,194067,1,0,0:0:0:0:
128,272,194367,1,0,0:0:0:0:
128,272,194667,1,0,0:0:0:0:
208,268,194817,1,0,0:0:0:0:
364,256,195117,5,2,0:0:0:0:
364,256,195417,1,0,0:0:0:0:
284,256,195567,1,0,0:0:0:0:
284,256,195867,1,0,0:0:0:0:
284,256,196167,1,0,0:0:0:0:
284,256,196467,1,0,0:0:0:0:
364,256,196617,1,0,0:0:0:0:
364,256,196917,1,0,0:0:0:0:
120,204,197217,5,2,0:0:0:0:
244,184,197517,1,0,0:0:0:0:
324,176,197667,1,0,0:0:0:0:
200,108,197967,1,0,0:0:0:0:
324,168,198267,1,0,0:0:0:0:
200,108,198567,1,0,0:0:0:0:
280,100,198717,1,0,0:0:0:0:
408,184,199017,5,2,0:0:0:0:
284,248,199317,1,0,0:0:0:0:
204,240,199467,1,0,0:0:0:0:
328,296,199767,1,0,0:0:0:0:
204,240,200067,1,0,0:0:0:0:
124,232,200217,1,0,0:0:0:0:
248,160,200517,1,0,0:0:0:0:
372,132,200817,1,0,0:0:0:0:
292,124,200967,1,0,0:0:0:0:
212,116,201117,1,2,0:0:0:0:
372,132,201417,5,2,0:0:0:0:
372,132,201717,1,0,0:0:0:0:
452,128,201867,1,0,0:0:0:0:
452,128,202167,1,0,0:0:0:0:
452,128,202467,1,0,0:0:0:0:
452,128,202767,1,0,0:0:0:0:
376,136,202917,1,0,0:0:0:0:
224,152,203217,5,2,0:0:0:0:
224,152,203517,1,0,0:0:0:0:
144,152,203667,1,0,0:0:0:0:
144,152,203967,1,0,0:0:0:0:
144,152,204267,1,0,0:0:0:0:
144,152,204567,1,0,0:0:0:0:
64,152,204717,1,0,0:0:0:0:
64,152,205017,1,0,0:0:0:0:
316,248,205317,5,2,0:0:0:0:
316,248,205617,1,0,0:0:0:0:
392,244,205767,1,0,0:0:0:0:
392,244,206067,1,0,0:0:0:0:
392,244,206367,1,0,0:0:0:0:
392,244,206667,1,0,0:0:0:0:
472,236,206817,1,0,0:0:0:0:
472,236,207117,5,0,0:0:0:0:
472,236,207417,1,0,0:0:0:0:
396,240,207567,1,0,0:0:0:0:
396,240,207867,1,0,0:0:0:0:
396,240,208167,1,0,0:0:0:0:
320,240,208317,1,0,0:0:0:0:
320,240,208617,1,0,0:0:0:0:
320,240,208917,1,0,0:0:0:0:
240,240,209067,1,0,0:0:0:0:
164,240,209217,1,2,0:0:0:0:
320,240,209517,5,2,0:0:0:0:
320,240,209817,1,0,0:0:0:0:
240,240,209967,1,0,0:0:0:0:
240,240,210267,1,0,0:0:0:0:
240,240,210567,1,0,0:0:0:0:
240,240,210867,1,0,0:0:0:0:
164,236,211017,1,0,0:0:0:0:
16,224,211317,5,2,0:0:0:0:
16,224,211617,1,0,0:0:0:0:
96,216,211767,1,0,0:0:0:0:
96,216,212067,1,0,0:0:0:0:
96,216,212367,1,0,0:0:0:0:
96,216,212667,1,0,0:0:0:0:
172,208,212817,1,0,0:0:0:0:
172,208,213117,1,0,0:0:0:0:
332,204,213417,5,2,0:0:0:0:
256,192,213717,12,0,221217,0:0:0:0:
