osu file format v14

[General]
AudioFilename: audio.mp3
AudioLeadIn: 0
PreviewTime: 154917
Countdown: 0
SampleSet: Soft
StackLeniency: 0.7
Mode: 2
LetterboxInBreaks: 0
WidescreenStoryboard: 0

[Editor]
Bookmarks: 1317,9117,16917,25017,33117,37167,46617,53817,61017,68217,76317,84417,92517,103317,114117,121317,128517,133917,138417,165117,172317,181917,189117,197217,205317,213417,221217
DistanceSpacing: 0.9
BeatDivisor: 4
GridSize: 16
TimelineZoom: 3.1

[Metadata]
Title:Uta o Utau Hito
TitleUnicode:うたをうたうひと
Artist:Yuuma
ArtistUnicode:ユウマ
Creator:Souvenir
Version:Overdose
Source:
Tags:Geddan Master P ゲッダンマスタP 獣音ロウ Kemonone Row Rou Powapowa-P ぽわぽわP siinamota shiinamota 椎名もた dnb Drum n Bass electronic EDM Someone Who Sings a Song wo Utau Utauloid Furloid furry furries Vocaloid Hatsune Miku 初音ミク cover Japanese novelty
BeatmapID:3199163
BeatmapSetID:1566824

[Difficulty]
HPDrainRate:6
CircleSize:4.2
OverallDifficulty:9.4
ApproachRate:9.4
SliderMultiplier:1.8
SliderTickRate:2

[Events]
//Background and Video events
0,0,"overdose.jpg",0,0
//Break Periods
//Storyboard Layer 0 (Background)
//Storyboard Layer 1 (Fail)
//Storyboard Layer 2 (Pass)
//Storyboard Layer 3 (Foreground)
//Storyboard Layer 4 (Overlay)
//Storyboard Sound Samples

[TimingPoints]
1317,300,4,2,1,66,1,0
7317,-41.6666666666667,4,2,1,66,0,0
7467,-100,4,2,1,66,0,0
9117,-100,4,2,1,66,0,0
17067,-100,4,2,1,44,0,0
33117,-100,4,2,3,33,0,0
35817,-40,4,2,3,33,0,0
36267,-40,4,2,1,44,0,0
36417,-40,4,2,1,55,0,0
36567,-40,4,2,1,66,0,0
36717,-90.9090909090909,4,2,1,70,0,0
37017,300,4,2,2,50,1,0
37017,-90.9090909090909,4,2,2,50,0,1
37092,-90.9090909090909,4,2,2,75,0,1
46617,-90.9090909090909,4,2,2,75,0,1
46692,-90.9090909090909,4,2,2,75,0,1
53817,-90.9090909090909,4,2,1,66,0,0
68217,-100,4,2,1,44,0,0
84417,-100,4,2,1,50,0,0
100617,-100,4,2,3,33,0,0
103317,-40,4,2,3,33,0,0
103767,-40,4,2,1,44,0,0
103917,-40,4,2,1,55,0,0
104067,-90.9090909090909,4,2,1,66,0,0
104517,300,4,2,2,50,1,0
104517,-90.9090909090909,4,2,2,50,0,1
104592,-90.9090909090909,4,2,2,75,0,1
114117,-90.9090909090909,4,2,2,75,0,1
114192,-90.9090909090909,4,2,2,75,0,1
121317,-90.9090909090909,4,2,1,66,0,0
138417,-100,4,2,1,44,0,0
152517,-333.333333333333,4,2,1,44,0,0
152592,-333.333333333333,4,2,3,44,0,0
154017,-100,4,2,1,44,0,0
154917,-83.3333333333333,4,2,2,75,0,0
155517,300,4,2,2,80,1,0
155517,-83.3333333333333,4,2,2,80,0,1
155592,-83.3333333333333,4,2,2,80,0,0
155817,-83.3333333333333,4,2,2,60,0,1
155892,-83.3333333333333,4,2,2,80,0,1
165117,-83.3333333333333,4,2,2,80,0,1
165192,-83.3333333333333,4,2,2,80,0,1
172242,-83.3333333333333,4,2,2,80,0,0
172317,-83.3333333333333,4,2,2,55,0,1
172392,-83.3333333333333,4,2,2,75,0,0
189117,-100,4,2,1,60,0,0
205317,-100,4,2,1,44,0,0
215517,-100,4,2,1,33,0,0
217617,-100,4,2,1,22,0,0
219717,-100,4,2,1,11,0,0
221217,-100,4,2,1,5,0,0

[Colours]
Combo1 : 234,105,0
Combo2 : 0,112,223

[HitObjects]
144,96,1317,5,0,0:0:0:0:
368,256,1617,1,0,0:0:0:0:
144,96,1917,2,0,L|112:96,1,22.5,8|0,1:2|0:0,0:0:0:0:
368,256,2067,1,0,0:0:0:0:
368,96,2367,1,0,0:0:0:0:
144,96,2667,2,0,L|111:96,1,22.5,8|0,1:2|0:0,0:0:0:0:
368,96,2817,1,0,0:0:0:0:
144,96,3117,5,0,0:0:0:0:
368,96,3417,2,0,L|400:96,1,22.5,8|0,1:2|0:0,0:0:0:0:
144,96,3567,1,0,0:0:0:0:
144,96,3867,1,0,0:0:0:0:
368,96,4167,2,0,L|400:96,1,22.5,0|0,1:0|0:0,0:0:0:0:
144,96,4317,1,0,0:0:0:0:
144,96,4617,1,0,0:0:0:0:
48,192,4767,2,0,L|112:192,1,45,0|0,1:0|1:0,0:0:0:0:
320,320,4917,6,0,L|320:224,1,90,4|0,1:2|1:0,0:0:0:0:
96,256,5217,2,0,L|96:64,1,180,10|0,0:0|1:0,0:0:0:0:
160,80,5592,1,0,0:0:0:0:
224,80,5667,1,0,1:0:0:0:
160,80,5742,1,0,0:0:0:0:
336,240,5817,2,0,L|336:128,1,90,10|0,0:0|1:0,0:0:0:0:
288,144,6042,1,0,1:0:0:0:
96,288,6117,6,0,L|96:192,1,90,0|0,1:0|1:0,0:0:0:0:
320,304,6417,1,10,0:0:0:0:
368,304,6492,1,0,0:0:0:0:
384,256,6567,1,0,1:0:0:0:
368,208,6642,1,0,0:0:0:0:
320,208,6717,1,2,1:2:0:0:
256,208,6792,1,0,0:0:0:0:
320,144,6867,1,0,1:0:0:0:
256,144,6942,1,0,0:0:0:0:
64,256,7017,2,0,L|64:151,1,90,10|0,0:0|1:0,0:0:0:0:
112,160,7242,1,0,1:2:0:0:
304,128,7317,6,0,L|80:128,1,215.999993408203,10|0,0:0|1:0,0:0:0:0:
64,128,7504,1,0,1:0:0:0:
160,80,7617,1,0,1:0:0:0:
224,80,7692,1,0,0:0:0:0:
160,80,7767,1,0,1:0:0:0:
96,80,7842,1,0,0:0:0:0:
272,272,7917,2,0,L|384:272,1,90,10|0,0:0|1:0,0:0:0:0:
224,224,8142,1,0,1:0:0:0:
80,224,8217,2,0,L|80:128,1,90,0|0,1:0|1:0,0:0:0:0:
320,336,8517,6,0,L|304:288,3,45,10|0|0|0,0:0|0:0|1:0|0:0,0:0:0:0:
368,256,8817,1,0,1:0:0:0:
400,224,8892,1,0,1:0:0:0:
368,176,8967,1,0,1:0:0:0:
304,160,9042,1,0,1:0:0:0:
464,112,9117,5,0,1:0:0:0:
464,112,9417,1,0,0:0:0:0:
208,112,9567,2,0,L|176:112,1,22.5,8|0,1:2|0:0,0:0:0:0:
384,112,9867,1,0,0:0:0:0:
384,112,10167,1,0,0:0:0:0:
128,112,10317,2,0,L|96:112,1,22.5,8|0,1:2|0:0,0:0:0:0:
304,112,10617,1,0,0:0:0:0:
80,112,10917,5,0,0:0:0:0:
80,112,11217,2,0,L|112:112,1,22.5,8|0,1:2|0:0,0:0:0:0:
352,112,11367,1,0,0:0:0:0:
128,112,11667,1,0,0:0:0:0:
128,112,11967,2,0,L|160:112,1,22.5,8|0,1:2|0:0,0:0:0:0:
400,112,12117,1,0,0:0:0:0:
400,112,12417,1,0,0:0:0:0:
496,240,12567,2,0,L|432:240,1,45,0|0,1:0|1:0,0:0:0:0:
224,304,12717,6,0,L|224:208,1,90,4|0,1:2|1:0,0:0:0:0:
448,304,13017,2,0,L|448:112,1,180,10|0,0:0|1:0,0:0:0:0:
384,112,13392,1,0,0:0:0:0:
320,112,13467,1,0,1:0:0:0:
384,112,13542,1,0,0:0:0:0:
208,208,13617,2,0,L|96:208,1,90,10|0,0:0|1:0,0:0:0:0:
176,176,13842,1,0,1:0:0:0:
352,320,13917,2,0,L|448:320,1,90,0|0,1:0|1:0,0:0:0:0:
208,272,14217,6,0,L|224:224,3,45,10|0|0|0,0:0|0:0|1:0|0:0,0:0:0:0:
160,192,14517,1,2,1:2:0:0:
128,144,14592,1,0,0:0:0:0:
160,96,14667,1,0,1:0:0:0:
224,96,14742,1,0,0:0:0:0:
48,288,14817,2,0,L|48:192,1,90,10|0,0:0|1:0,0:0:0:0:
96,192,15042,1,0,1:2:0:0:
272,192,15117,5,10,0:0:0:0:
144,192,15267,2,0,L|144:160,2,22.5,0|0|0,1:0|1:0|1:0,0:0:0:0:
320,304,15417,1,0,1:0:0:0:
352,304,15492,1,0,0:0:0:0:
320,304,15567,1,0,1:0:0:0:
256,304,15642,1,0,0:0:0:0:
432,256,15717,2,0,L|432:144,1,90,10|0,0:0|1:0,0:0:0:0:
288,160,15942,1,0,1:0:0:0:
144,160,16017,6,0,L|32:160,1,90,0|0,1:0|1:0,0:0:0:0:
288,256,16317,2,0,L|304:192,3,45,10|0|0|0,0:0|0:0|1:0|0:0,0:0:0:0:
144,144,16617,2,0,L|96:144,1,45,0|0,1:0|1:0,0:0:0:0:
288,96,16767,2,0,L|352:96,1,45,0|0,1:0|1:0,0:0:0:0:
96,240,16917,5,4,1:2:0:0:
96,240,17217,1,0,0:0:0:0:
176,240,17367,1,0,0:0:0:0:
336,240,17667,1,0,0:0:0:0:
176,240,17967,1,0,0:0:0:0:
336,240,18267,1,0,0:0:0:0:
208,240,18417,2,0,L|304:240,1,90,2|0,0:0|0:0,0:0:0:0:
176,240,18717,5,2,0:0:0:0:
176,240,19017,1,0,0:0:0:0:
256,240,19167,1,0,0:0:0:0:
416,240,19467,1,0,0:0:0:0:
256,240,19767,1,0,0:0:0:0:
336,240,19917,1,0,0:0:0:0:
112,240,20217,2,0,L|112:144,1,90,2|0,0:0|0:0,0:0:0:0:
192,144,20517,2,0,L|288:144,1,90,2|0,0:0|0:0,0:0:0:0:
192,64,20817,2,0,L|96:64,1,90,2|0,0:0|0:0,0:0:0:0:
336,256,21117,5,2,0:0:0:0:
336,256,21417,1,0,0:0:0:0:
256,256,21567,1,0,0:0:0:0:
96,256,21867,1,0,0:0:0:0:
256,352,22167,1,0,0:0:0:0:
96,256,22467,1,0,0:0:0:0:
224,320,22617,2,0,L|128:320,1,90,2|0,0:0|0:0,0:0:0:0:
256,336,22917,5,2,0:0:0:0:
256,336,23217,1,0,0:0:0:0:
336,336,23367,1,0,0:0:0:0:
176,336,23667,1,0,0:0:0:0:
336,336,23967,1,0,0:0:0:0:
176,336,24267,1,0,0:0:0:0:
256,336,24417,1,0,0:0:0:0:
256,336,24717,2,0,L|160:336,1,90,2|0,0:0|0:0,0:0:0:0:
400,336,25017,5,2,0:0:0:0:
400,336,25317,1,0,0:0:0:0:
320,336,25467,1,0,0:0:0:0:
160,336,25767,1,0,0:0:0:0:
320,336,26067,1,0,0:0:0:0:
160,336,26367,1,0,0:0:0:0:
288,288,26517,2,0,L|288:192,1,90,2|0,0:0|0:0,0:0:0:0:
160,336,26817,5,2,0:0:0:0:
160,336,27117,1,0,0:0:0:0:
80,336,27267,1,0,0:0:0:0:
240,336,27567,1,0,0:0:0:0:
80,336,27867,1,0,0:0:0:0:
160,336,28017,1,0,0:0:0:0:
384,320,28317,6,0,L|384:224,1,90,2|0,0:0|0:0,0:0:0:0:
288,160,28617,2,0,L|400:160,1,90,2|0,0:0|0:0,0:0:0:0:
288,64,28917,2,0,L|384:64,1,90,2|0,0:0|0:0,0:0:0:0:
144,64,29217,5,2,0:0:0:0:
144,64,29517,1,0,0:0:0:0:
224,64,29667,1,0,0:0:0:0:
384,64,29967,1,0,0:0:0:0:
224,64,30267,1,0,0:0:0:0:
384,64,30567,1,0,0:0:0:0:
256,64,30717,2,0,L|352:64,1,90,2|0,0:0|0:0,0:0:0:0:
224,64,31017,5,2,0:0:0:0:
448,64,31317,1,2,0:0:0:0:
368,64,31467,1,0,0:0:0:0:
208,144,31767,1,0,0:0:0:0:
368,64,32067,1,0,0:0:0:0:
208,144,32367,1,0,0:0:0:0:
288,144,32517,1,0,0:0:0:0:
128,144,32817,1,0,0:0:0:0:
496,272,33117,5,0,0:0:0:0:
496,272,33417,2,0,L|496:80,1,180,0|0,0:0|0:0,0:0:0:0:
496,272,34017,2,0,L|496:80,2,180,0|0|0,0:0|0:0|0:0,0:0:0:0:
496,272,34917,2,0,L|496:80,1,180,0|0,0:0|0:0,0:0:0:0:
496,272,35367,1,0,0:0:0:0:
496,272,35517,2,0,L|496:160,1,90,0|0,0:0|0:0,0:0:0:0:
496,352,35817,6,0,B|496:16|496:16|496:192|496:192|496:368|496:368|496:156|496:156|312:154|312:154|269:154,1,1125,0|8,0:0|1:2,0:0:0:0:
128,256,36717,1,2,1:2:0:0:
96,256,36792,1,0,0:0:0:0:
128,256,36867,1,2,1:2:0:0:
192,256,36942,1,0,0:0:0:0:
16,256,37017,5,4,1:1:0:0:
288,192,37167,2,0,L|288:64,1,99.0000030212403,0|10,1:0|0:2,0:0:0:0:
32,160,37467,2,0,B|132:160|132:160|32:160,1,198.000006042481,0|0,1:0|1:0,0:0:0:0:
160,256,37917,1,8,1:2:0:0:
128,224,37992,1,0,0:0:0:0:
160,256,38067,1,0,1:2:0:0:
224,256,38142,1,0,0:0:0:0:
400,256,38217,5,0,1:2:0:0:
144,336,38367,2,0,L|144:224,1,99.0000030212403,0|10,1:0|0:0,0:0:0:0:
400,256,38667,2,0,B|300:256|300:256|400:256,1,198.000006042481,0|0,1:0|1:0,0:0:0:0:
144,144,39117,1,10,0:0:0:0:
272,144,39267,1,0,1:0:0:0:
16,144,39417,5,0,1:0:0:0:
272,144,39567,2,0,L|64:144,1,198.000006042481,0|0,1:0|1:0,0:0:0:0:
74,144,39942,1,0,0:0:0:0:
74,144,40017,1,0,1:0:0:0:
208,224,40167,1,0,1:0:0:0:
144,224,40242,1,0,0:0:0:0:
208,224,40317,1,10,0:0:0:0:
336,336,40467,1,0,0:0:0:0:
272,336,40542,1,0,0:0:0:0:
208,336,40617,1,0,1:0:0:0:
336,256,40767,6,0,L|336:144,1,99.0000030212403,0|10,1:0|0:0,0:0:0:0:
272,160,40992,1,0,0:0:0:0:
80,160,41067,2,0,L|48:224,4,49.5000015106202,0|0|0|0|2,1:0|0:0|1:0|0:0|1:2,0:0:0:0:
224,160,41517,1,10,0:0:0:0:
80,160,41667,1,0,1:0:0:0:
336,157,41817,5,0,1:0:0:0:
80,160,41967,2,0,L|80:272,1,99.0000030212403,0|10,1:0|0:0,0:0:0:0:
336,160,42267,2,0,B|236:160|236:160|336:160,1,198.000006042481,0|0,1:0|1:0,0:0:0:0:
208,256,42717,1,10,0:0:0:0:
336,160,42867,1,0,1:0:0:0:
80,160,43017,5,0,1:0:0:0:
336,160,43167,2,0,L|336:272,1,99.0000030212403,0|10,1:0|0:0,0:0:0:0:
80,64,43467,2,0,B|180:64|180:64|80:64,1,198.000006042481,0|0,1:0|1:0,0:0:0:0:
336,160,43917,1,10,0:0:0:0:
208,160,44067,1,0,1:0:0:0:
464,160,44217,5,0,1:0:0:0:
208,160,44367,2,0,L|208:368,1,198.000006042481,0|0,1:0|1:0,0:0:0:0:
272,352,44742,1,0,0:0:0:0:
208,358,44817,1,0,1:0:0:0:
80,240,44967,1,0,1:0:0:0:
16,240,45042,1,0,0:0:0:0:
80,240,45117,1,10,0:0:0:0:
208,240,45267,1,0,0:0:0:0:
144,240,45342,1,0,0:0:0:0:
80,240,45417,1,0,1:0:0:0:
208,144,45567,6,0,L|320:144,1,99.0000030212403,0|10,1:0|0:0,0:0:0:0:
48,320,45867,1,0,1:0:0:0:
32,288,45942,1,0,0:0:0:0:
48,256,46017,1,0,1:0:0:0:
96,256,46092,1,0,0:0:0:0:
160,256,46167,1,2,1:2:0:0:
304,256,46317,1,10,0:0:0:0:
160,256,46467,1,0,1:0:0:0:
432,160,46617,5,6,1:2:0:0:
176,208,46767,2,0,L|176:96,1,99.0000030212403,0|10,1:0|0:0,0:0:0:0:
432,160,47067,2,0,B|332:160|332:160|432:160,1,198.000006042481,0|0,1:0|1:0,0:0:0:0:
288,160,47517,1,10,0:0:0:0:
432,160,47667,1,0,1:0:0:0:
192,224,47817,5,0,1:0:0:0:
448,224,47967,2,0,L|448:112,1,99.0000030212403,0|10,1:0|0:0,0:0:0:0:
192,224,48267,2,0,B|292:224|292:224|192:224,1,198.000006042481,0|0,1:0|1:0,0:0:0:0:
448,144,48717,1,10,0:0:0:0:
320,144,48867,1,0,1:0:0:0:
64,144,49017,5,0,1:2:0:0:
320,144,49167,2,0,L|208:144,2,99.0000030212403,0|10|0,1:0|0:0|1:0,0:0:0:0:
384,144,49542,1,0,0:0:0:0:
320,144,49617,1,0,1:0:0:0:
192,224,49767,1,0,1:0:0:0:
128,224,49842,1,0,0:0:0:0:
192,224,49917,1,10,0:0:0:0:
320,304,50067,1,0,0:0:0:0:
256,304,50142,1,0,0:0:0:0:
192,304,50217,1,0,1:0:0:0:
64,304,50367,6,0,L|64:192,1,99.0000030212403,0|10,1:0|0:0,0:0:0:0:
320,160,50667,2,0,L|352:224,4,49.5000015106202,0|0|0|0|2,1:0|0:0|1:0|0:0|1:2,0:0:0:0:
176,160,51117,1,10,0:0:0:0:
320,160,51267,1,0,1:0:0:0:
64,272,51417,5,0,1:0:0:0:
320,160,51567,2,0,L|320:48,1,99.0000030212403,0|10,1:0|0:0,0:0:0:0:
64,272,51867,2,0,B|164:272|164:272|64:272,1,198.000006042481,0|0,1:0|1:0,0:0:0:0:
192,192,52317,1,10,0:0:0:0:
64,192,52467,1,0,1:0:0:0:
320,192,52617,5,0,1:0:0:0:
64,192,52767,2,0,L|64:80,1,99.0000030212403,0|10,1:0|0:0,0:0:0:0:
320,192,53067,2,0,L|208:192,1,99.0000030212403,0|0,1:0|1:0,0:0:0:0:
480,320,53367,1,0,1:0:0:0:
352,320,53517,1,10,0:0:0:0:
224,320,53667,1,0,1:0:0:0:
480,320,53817,5,4,1:2:0:0:
224,320,54117,1,0,1:0:0:0:
224,320,54267,2,0,L|192:320,2,24.7500007553101,0|0|0,1:0|1:0|1:0,0:0:0:0:
432,320,54417,1,0,1:0:0:0:
176,320,54567,1,8,0:0:0:0:
432,320,54867,5,0,1:0:0:0:
176,320,55167,1,0,1:0:0:0:
432,320,55317,1,8,0:0:0:0:
176,320,55617,1,0,1:0:0:0:
432,320,55917,1,0,1:0:0:0:
176,320,56067,1,8,0:0:0:0:
432,320,56367,5,0,1:0:0:0:
176,320,56667,1,0,1:0:0:0:
432,320,56817,2,0,L|432:208,1,99.0000030212403,8|0,0:0|0:0,0:0:0:0:
176,176,57117,2,0,L|48:176,1,99.0000030212403,8|0,0:0|1:0,0:0:0:0:
144,144,57342,1,0,1:0:0:0:
352,144,57417,5,0,1:0:0:0:
96,144,57717,1,0,1:0:0:0:
352,144,58017,1,0,1:0:0:0:
96,144,58167,1,8,0:0:0:0:
352,144,58467,1,0,1:0:0:0:
96,144,58767,1,0,1:0:0:0:
352,144,58917,1,8,0:0:0:0:
96,144,59217,5,0,1:0:0:0:
352,144,59517,1,0,1:0:0:0:
96,144,59667,1,8,0:0:0:0:
352,144,59967,1,0,1:0:0:0:
96,144,60267,1,0,1:0:0:0:
352,144,60417,2,0,L|352:256,1,99.0000030212403,8|0,0:0|0:0,0:0:0:0:
96,256,60717,2,0,L|96:368,1,99.0000030212403,8|0,0:0|1:0,0:0:0:0:
160,352,60942,1,0,1:0:0:0:
368,144,61017,5,0,1:0:0:0:
112,144,61317,1,0,1:0:0:0:
368,144,61617,1,0,1:0:0:0:
112,144,61767,1,8,0:0:0:0:
368,144,62067,1,0,1:0:0:0:
112,144,62367,1,0,1:0:0:0:
368,144,62517,1,8,0:0:0:0:
368,144,62667,2,0,L|416:144,2,24.7500007553101,0|0|0,1:0|1:0|1:0,0:0:0:0:
192,144,62817,5,0,1:0:0:0:
448,144,63117,1,0,1:0:0:0:
192,144,63267,1,8,0:0:0:0:
448,144,63567,1,0,1:0:0:0:
192,144,63867,1,0,1:0:0:0:
448,144,64017,2,0,L|448:256,1,99.0000030212403,8|0,0:0|0:0,0:0:0:0:
384,240,64242,1,0,0:0:0:0:
208,144,64317,2,0,L|320:144,1,99.0000030212403,8|0,0:0|1:0,0:0:0:0:
240,96,64542,1,0,1:0:0:0:
48,96,64617,5,0,1:0:0:0:
48,96,64767,2,0,L|16:96,2,24.7500007553101,0|0|0,1:0|1:0|1:0,1:1:0:0:
240,96,64917,1,0,1:0:0:0:
496,96,65217,1,0,1:0:0:0:
240,96,65367,1,8,0:0:0:0:
496,96,65667,1,0,1:0:0:0:
240,96,65967,1,0,1:0:0:0:
496,96,66117,1,8,0:0:0:0:
240,96,66417,5,0,1:0:0:0:
496,96,66717,1,0,1:0:0:0:
240,96,66867,1,8,0:0:0:0:
496,96,67167,1,0,1:0:0:0:
240,96,67467,1,0,1:0:0:0:
496,96,67617,2,0,L|496:208,1,99.0000030212403,8|0,0:0|0:0,0:0:0:0:
240,208,67917,1,8,1:2:0:0:
208,208,67992,1,0,1:0:0:0:
240,208,68067,1,0,1:0:0:0:
304,208,68142,1,0,1:0:0:0:
112,272,68217,5,6,0:0:0:0:
112,272,68367,1,0,0:0:0:0:
192,272,68517,1,0,0:0:0:0:
192,272,68667,1,0,0:0:0:0:
352,272,68967,1,0,0:0:0:0:
192,272,69267,1,0,0:0:0:0:
352,272,69567,1,0,0:0:0:0:
352,272,69717,1,0,0:0:0:0:
128,272,70017,5,2,0:0:0:0:
288,272,70317,1,0,0:0:0:0:
288,272,70467,1,0,0:0:0:0:
128,272,70767,1,0,0:0:0:0:
288,272,71067,1,0,0:0:0:0:
288,272,71217,1,0,0:0:0:0:
128,272,71517,1,0,0:0:0:0:
288,272,71817,1,0,0:0:0:0:
288,272,71967,1,0,0:0:0:0:
160,272,72117,5,2,0:0:0:0:
384,272,72417,1,2,0:0:0:0:
224,272,72717,1,0,0:0:0:0:
224,272,72867,1,0,0:0:0:0:
384,272,73167,1,0,0:0:0:0:
224,272,73467,1,0,0:0:0:0:
384,272,73767,1,0,0:0:0:0:
384,272,73917,1,0,0:0:0:0:
160,272,74217,5,2,0:0:0:0:
320,272,74517,1,0,0:0:0:0:
320,272,74667,1,0,0:0:0:0:
160,272,74967,1,0,0:0:0:0:
320,272,75267,1,0,0:0:0:0:
160,272,75567,1,0,0:0:0:0:
160,272,75717,1,0,0:0:0:0:
320,272,76017,1,0,0:0:0:0:
96,272,76317,5,2,0:0:0:0:
256,272,76617,1,0,0:0:0:0:
256,272,76767,1,0,0:0:0:0:
96,272,77067,1,0,0:0:0:0:
256,272,77367,1,0,0:0:0:0:
96,272,77667,1,0,0:0:0:0:
96,272,77817,1,0,0:0:0:0:
320,272,78117,5,2,0:0:0:0:
160,272,78417,1,0,0:0:0:0:
160,272,78567,1,0,0:0:0:0:
320,272,78867,1,0,0:0:0:0:
160,272,79167,1,0,0:0:0:0:
160,272,79317,1,0,0:0:0:0:
320,272,79617,1,0,0:0:0:0:
160,272,79917,1,0,0:0:0:0:
160,272,80067,1,0,0:0:0:0:
288,272,80217,5,2,0:0:0:0:
64,272,80517,1,2,0:0:0:0:
224,272,80817,1,0,0:0:0:0:
224,272,80967,1,0,0:0:0:0:
384,272,81267,1,0,0:0:0:0:
224,272,81567,1,0,0:0:0:0:
384,272,81867,1,0,0:0:0:0:
384,272,82017,1,0,0:0:0:0:
160,240,82317,5,2,0:0:0:0:
272,240,82617,1,0,0:0:0:0:
272,240,82767,1,0,0:0:0:0:
192,192,83067,1,0,0:0:0:0:
240,160,83367,1,0,0:0:0:0:
208,96,83667,1,0,0:0:0:0:
208,96,83817,1,0,0:0:0:0:
208,96,84117,2,0,L|96:96,1,90,2|0,0:0|0:0,0:0:0:0:
352,336,84417,6,0,L|352:240,1,90,6|0,0:0|0:0,0:0:0:0:
224,240,84717,1,8,0:0:0:0:
352,240,84867,1,0,0:0:0:0:
368,192,84942,1,0,0:0:0:0:
352,144,85017,1,0,0:0:0:0:
320,112,85092,1,0,0:0:0:0:
256,112,85167,1,0,0:0:0:0:
384,128,85317,6,0,L|480:128,1,90,8|0,0:0|0:0,0:0:0:0:
416,96,85542,1,0,0:0:0:0:
352,96,85617,2,0,L|256:96,1,90,0|0,0:0|0:0,0:0:0:0:
384,224,85917,1,8,0:0:0:0:
256,224,86067,2,0,L|192:224,1,45,0|0,0:0|0:0,0:0:0:0:
368,304,86217,6,0,L|400:256,2,45,2|0|0,0:0|0:0|0:0,0:0:0:0:
240,304,86517,1,8,0:0:0:0:
112,304,86667,1,0,0:0:0:0:
96,288,86742,1,0,0:0:0:0:
112,256,86817,1,0,0:0:0:0:
144,240,86892,1,0,0:0:0:0:
208,224,86967,1,0,0:0:0:0:
80,160,87117,6,0,L|80:48,1,90,8|0,0:0|0:0,0:0:0:0:
144,64,87342,1,0,0:0:0:0:
208,64,87417,2,0,L|208:160,1,90,0|0,0:0|0:0,0:0:0:0:
336,288,87717,1,8,0:0:0:0:
464,288,87867,1,0,0:0:0:0:
480,272,87942,1,0,0:0:0:0:
464,288,88017,1,0,0:0:0:0:
432,288,88092,1,0,0:0:0:0:
368,288,88167,1,0,0:0:0:0:
240,224,88317,2,0,L|352:224,1,90,8|0,0:0|0:0,0:0:0:0:
272,192,88542,1,0,0:0:0:0:
80,320,88617,6,0,L|80:208,1,90,2|0,0:0|0:0,0:0:0:0:
208,160,88917,1,8,0:0:0:0:
80,160,89067,1,0,0:0:0:0:
64,144,89142,1,0,0:0:0:0:
80,160,89217,1,0,0:0:0:0:
112,160,89292,1,0,0:0:0:0:
176,160,89367,1,0,0:0:0:0:
304,160,89517,6,0,L|304:64,1,90,8|0,0:0|0:0,0:0:0:0:
240,64,89742,1,0,0:0:0:0:
176,64,89817,2,0,L|288:64,1,90,0|0,0:0|0:0,0:0:0:0:
144,128,90117,1,8,0:0:0:0:
272,144,90267,1,0,0:0:0:0:
288,160,90342,1,0,0:0:0:0:
128,272,90417,6,0,L|80:272,2,45,2|0|0,0:0|0:0|0:0,0:0:0:0:
256,272,90717,1,8,0:0:0:0:
128,240,90867,1,0,0:0:0:0:
112,240,90942,1,0,0:0:0:0:
128,240,91017,1,0,0:0:0:0:
160,224,91092,1,0,0:0:0:0:
224,160,91167,1,0,0:0:0:0:
352,192,91317,6,0,L|352:80,1,90,8|0,0:0|0:0,0:0:0:0:
288,96,91542,1,0,0:0:0:0:
224,96,91617,2,0,L|128:96,1,90,0|0,0:0|0:0,0:0:0:0:
256,208,91917,1,8,0:0:0:0:
128,256,92067,2,0,L|112:192,1,45,0|0,0:0|0:0,0:0:0:0:
176,192,92217,2,0,L|224:192,1,45,2|0,0:0|0:0,0:0:0:0:
160,128,92367,2,0,L|96:128,1,45,0|0,0:0|0:0,0:0:0:0:
288,304,92517,6,0,L|384:304,1,90,6|0,0:0|0:0,0:0:0:0:
256,240,92817,1,8,0:0:0:0:
384,224,92967,1,0,0:0:0:0:
416,192,93042,1,0,0:0:0:0:
384,160,93117,1,0,0:0:0:0:
352,128,93192,1,0,0:0:0:0:
384,96,93267,1,0,0:0:0:0:
256,96,93417,6,0,L|256:192,1,90,8|0,0:0|0:0,0:0:0:0:
320,192,93642,1,0,0:0:0:0:
384,208,93717,2,0,L|384:304,1,90,0|0,0:0|0:0,0:0:0:0:
256,304,94017,1,8,0:0:0:0:
128,304,94167,2,0,L|192:304,1,45,0|0,0:0|0:0,0:0:0:0:
336,240,94317,6,0,L|384:240,2,45,2|0|0,0:0|0:0|0:0,0:0:0:0:
208,224,94617,1,8,0:0:0:0:
80,192,94767,1,0,0:0:0:0:
64,192,94842,1,0,0:0:0:0:
80,192,94917,1,0,0:0:0:0:
112,192,94992,1,0,0:0:0:0:
176,192,95067,1,0,0:0:0:0:
48,288,95217,6,0,L|48:192,1,90,8|0,0:0|0:0,0:0:0:0:
112,208,95442,1,0,0:0:0:0:
176,224,95517,2,0,L|272:224,1,90,0|0,0:0|0:0,0:0:0:0:
144,304,95817,1,8,0:0:0:0:
272,336,95967,1,0,0:0:0:0:
304,336,96042,1,0,0:0:0:0:
272,336,96117,1,0,0:0:0:0:
240,336,96192,1,0,0:0:0:0:
272,336,96267,1,0,0:0:0:0:
400,288,96417,2,0,L|400:192,1,90,8|0,0:0|0:0,0:0:0:0:
336,192,96642,1,0,0:0:0:0:
144,192,96717,6,0,L|48:192,1,90,2|0,0:0|0:0,0:0:0:0:
176,112,97017,1,8,0:0:0:0:
48,112,97167,1,0,0:0:0:0:
32,112,97242,1,0,0:0:0:0:
48,112,97317,1,0,0:0:0:0:
80,112,97392,1,0,0:0:0:0:
144,112,97467,1,0,0:0:0:0:
272,176,97617,6,0,L|368:176,1,90,8|0,0:0|0:0,0:0:0:0:
304,128,97842,1,0,0:0:0:0:
240,128,97917,2,0,L|144:128,1,90,0|0,0:0|0:0,0:0:0:0:
272,288,98217,1,8,0:0:0:0:
144,288,98367,2,0,L|192:288,1,45,0|0,0:0|0:0,0:0:0:0:
352,288,98517,6,0,L|368:240,2,45,2|0|0,0:0|0:0|0:0,0:0:0:0:
224,240,98817,1,8,0:0:0:0:
352,144,98967,1,0,0:0:0:0:
368,144,99042,1,0,0:0:0:0:
352,144,99117,1,0,0:0:0:0:
320,144,99192,1,0,0:0:0:0:
256,144,99267,1,0,0:0:0:0:
384,240,99417,6,0,L|384:144,1,90,8|0,0:0|0:0,0:0:0:0:
320,160,99642,1,0,0:0:0:0:
256,176,99717,2,0,L|144:176,1,90,0|0,0:0|0:0,0:0:0:0:
288,80,100017,1,8,0:0:0:0:
160,96,100167,1,0,0:0:0:0:
144,96,100242,1,0,0:0:0:0:
160,96,100317,1,0,0:0:0:0:
192,96,100392,1,0,0:0:0:0:
256,96,100467,1,0,0:0:0:0:
16,192,100617,5,0,0:0:0:0:
16,192,100917,2,0,L|16:384,1,180,0|0,0:0|0:0,0:0:0:0:
16,80,101517,2,0,L|16:272,2,180,0|0|0,0:0|0:0|0:0,0:0:0:0:
16,272,102417,2,0,L|16:80,1,180,0|0,0:0|0:0,0:0:0:0:
16,272,102867,1,0,0:0:0:0:
16,272,103017,2,0,L|16:160,1,90,0|0,0:0|0:0,0:0:0:0:
16,352,103317,6,0,B|16:16|16:16|16:192|16:192|16:368|16:368|16:224|16:155|16:155|261:155,1,1125,0|8,0:0|1:2,0:0:0:0:
384,304,104217,1,2,1:2:0:0:
416,272,104292,1,0,0:0:0:0:
384,304,104367,1,2,1:2:0:0:
320,304,104442,1,0,0:0:0:0:
112,336,104517,5,4,1:1:0:0:
368,256,104667,2,0,L|368:128,1,99.0000030212403,0|10,1:0|0:2,0:0:0:0:
112,336,104967,2,0,L|320:336,1,198.000006042481,0|0,1:0|1:0,0:0:0:0:
176,192,105417,1,8,1:2:0:0:
144,160,105492,1,0,0:0:0:0:
176,192,105567,1,0,1:2:0:0:
240,192,105642,1,0,0:0:0:0:
448,192,105717,5,0,1:2:0:0:
192,272,105867,2,0,L|192:144,1,99.0000030212403,0|10,1:0|0:0,0:0:0:0:
448,192,106167,2,0,L|240:192,1,198.000006042481,0|0,1:0|1:0,0:0:0:0:
496,128,106617,1,10,0:0:0:0:
368,128,106767,1,0,1:0:0:0:
112,272,106917,5,0,1:0:0:0:
368,128,107067,2,0,L|368:336,1,198.000006042481,0|0,1:0|1:0,0:0:0:0:
304,320,107442,1,0,0:0:0:0:
368,326,107517,1,0,1:0:0:0:
240,224,107667,1,0,1:0:0:0:
176,224,107742,1,0,0:0:0:0:
240,224,107817,1,10,0:0:0:0:
368,160,107967,1,0,0:0:0:0:
304,160,108042,1,0,0:0:0:0:
240,160,108117,1,0,1:0:0:0:
368,96,108267,6,0,L|368:208,1,99.0000030212403,0|10,1:0|0:0,0:0:0:0:
112,288,108567,1,0,1:0:0:0:
96,256,108642,1,0,0:0:0:0:
112,288,108717,1,0,1:0:0:0:
144,304,108792,1,0,0:0:0:0:
208,304,108867,1,2,1:2:0:0:
352,304,109017,1,10,0:0:0:0:
208,304,109167,1,0,1:0:0:0:
464,208,109317,5,0,1:0:0:0:
208,192,109467,2,0,L|208:64,1,99.0000030212403,0|10,1:0|0:0,0:0:0:0:
464,208,109767,2,0,L|240:208,1,198.000006042481,0|0,1:0|1:0,0:0:0:0:
128,192,110217,1,10,0:0:0:0:
272,208,110367,1,0,1:0:0:0:
16,288,110517,5,0,1:0:0:0:
272,208,110667,2,0,L|272:96,1,99.0000030212403,0|10,1:0|0:0,0:0:0:0:
16,288,110967,2,0,L|240:288,1,198.000006042481,0|0,1:0|1:0,0:0:0:0:
464,288,111417,1,10,0:0:0:0:
320,288,111567,1,0,1:0:0:0:
64,208,111717,5,0,1:0:0:0:
320,192,111867,2,0,L|112:192,1,198.000006042481,0|0,1:0|1:0,0:0:0:0:
122,192,112242,1,0,0:0:0:0:
122,192,112317,1,0,1:0:0:0:
256,112,112467,1,0,1:0:0:0:
192,112,112542,1,0,0:0:0:0:
128,112,112617,1,10,0:0:0:0:
256,48,112767,1,0,0:0:0:0:
320,48,112842,1,0,0:0:0:0:
256,48,112917,1,0,1:0:0:0:
128,48,113067,6,0,L|128:160,1,99.0000030212403,0|10,1:0|0:0,0:0:0:0:
384,336,113367,1,0,1:0:0:0:
400,320,113442,1,0,0:0:0:0:
384,336,113517,1,0,1:0:0:0:
352,336,113592,1,0,0:0:0:0:
288,336,113667,1,2,1:2:0:0:
144,320,113817,1,10,0:0:0:0:
288,336,113967,1,0,1:0:0:0:
32,240,114117,5,6,1:2:0:0:
288,336,114267,2,0,L|288:208,1,99.0000030212403,0|10,1:0|0:0,0:0:0:0:
32,240,114567,2,0,L|256:240,1,198.000006042481,0|0,1:0|1:0,0:0:0:0:
96,176,115017,1,10,0:0:0:0:
224,240,115167,1,0,1:0:0:0:
480,240,115317,5,0,1:0:0:0:
224,240,115467,2,0,L|224:128,1,99.0000030212403,0|10,1:0|0:0,0:0:0:0:
480,240,115767,2,0,L|272:240,1,198.000006042481,0|0,1:0|1:0,0:0:0:0:
32,224,116217,1,10,0:0:0:0:
160,224,116367,1,0,1:0:0:0:
416,224,116517,5,0,1:2:0:0:
160,224,116667,2,0,L|160:112,1,99.0000030212403,0|10,1:0|0:0,0:0:0:0:
304,128,116967,1,0,1:0:0:0:
240,128,117042,1,0,0:0:0:0:
176,128,117117,1,0,1:0:0:0:
304,128,117267,1,0,1:0:0:0:
368,128,117342,1,0,0:0:0:0:
432,128,117417,1,10,0:0:0:0:
304,320,117567,1,0,0:0:0:0:
240,320,117642,1,0,0:0:0:0:
176,320,117717,1,0,1:0:0:0:
432,320,117867,6,0,L|432:208,1,99.0000030212403,0|10,1:0|0:0,0:0:0:0:
288,208,118167,1,0,1:0:0:0:
272,192,118242,1,0,0:0:0:0:
288,208,118317,1,0,1:0:0:0:
320,208,118392,1,0,0:0:0:0:
384,208,118467,1,2,1:2:0:0:
240,112,118617,1,10,0:0:0:0:
384,112,118767,1,0,1:0:0:0:
128,288,118917,5,0,1:0:0:0:
384,112,119067,2,0,L|384:224,1,99.0000030212403,0|10,1:0|0:0,0:0:0:0:
128,288,119367,2,0,L|352:288,1,198.000006042481,0|0,1:0|1:0,0:0:0:0:
192,224,119817,1,10,0:0:0:0:
336,288,119967,1,0,1:0:0:0:
80,288,120117,5,0,1:0:0:0:
336,288,120267,2,0,L|336:176,1,99.0000030212403,0|10,1:0|0:0,0:0:0:0:
80,288,120567,2,0,L|80:176,1,99.0000030212403,0|0,1:0|1:0,0:0:0:0:
336,288,120867,1,0,1:0:0:0:
208,288,121017,1,10,0:0:0:0:
336,288,121167,1,0,1:0:0:0:
80,288,121317,5,4,1:2:0:0:
336,288,121617,1,0,1:0:0:0:
80,288,121917,1,0,1:0:0:0:
336,288,122067,1,8,0:0:0:0:
80,288,122367,1,0,1:0:0:0:
336,288,122667,1,0,1:0:0:0:
80,288,122817,1,8,0:0:0:0:
336,288,123117,1,0,1:0:0:0:
80,288,123417,1,0,1:0:0:0:
336,288,123567,1,8,0:0:0:0:
80,288,123867,5,0,1:0:0:0:
336,288,124167,1,0,1:0:0:0:
80,288,124317,2,0,L|80:160,1,99.0000030212403,8|0,0:0|0:0,0:0:0:0:
336,176,124617,2,0,L|208:176,1,99.0000030212403,8|0,0:0|1:0,0:0:0:0:
176,176,124842,1,0,1:0:0:0:
384,96,124917,5,0,1:0:0:0:
128,80,125217,1,0,1:0:0:0:
384,96,125517,1,0,1:0:0:0:
128,80,125667,1,8,0:0:0:0:
384,96,125967,1,0,1:0:0:0:
128,80,126267,1,0,1:0:0:0:
384,96,126417,1,8,0:0:0:0:
128,80,126717,1,0,1:0:0:0:
384,96,127017,1,0,1:0:0:0:
128,80,127167,1,8,0:0:0:0:
384,96,127467,5,0,1:0:0:0:
128,80,127767,1,0,1:0:0:0:
384,96,127917,2,0,L|384:224,1,99.0000030212403,8|0,0:0|0:0,0:0:0:0:
128,224,128217,2,0,L|128:336,1,99.0000030212403,8|0,0:0|1:0,0:0:0:0:
192,320,128442,1,0,1:0:0:0:
400,320,128517,5,0,1:0:0:0:
144,144,128817,1,0,1:0:0:0:
400,320,129117,1,0,1:0:0:0:
144,144,129267,1,8,0:0:0:0:
400,320,129567,1,0,1:0:0:0:
144,144,129867,1,0,1:0:0:0:
400,320,130017,1,8,0:0:0:0:
144,144,130317,1,0,1:0:0:0:
400,320,130617,1,0,1:0:0:0:
144,144,130767,1,8,0:0:0:0:
400,320,131067,5,0,1:0:0:0:
144,144,131367,1,0,1:0:0:0:
400,320,131517,2,0,L|400:208,1,99.0000030212403,8|0,0:0|0:0,0:0:0:0:
336,224,131742,1,0,0:0:0:0:
144,144,131817,2,0,L|256:144,1,99.0000030212403,8|0,0:0|1:0,0:0:0:0:
304,144,132042,1,0,1:0:0:0:
96,224,132117,5,0,1:0:0:0:
96,224,132267,2,0,L|64:224,2,24.7500007553101,0|0|0,1:0|1:0|1:0,1:1:0:0:
304,224,132417,1,0,1:0:0:0:
48,224,132717,1,0,1:0:0:0:
304,224,132867,1,8,0:0:0:0:
48,224,133167,1,0,1:0:0:0:
304,224,133467,1,0,1:0:0:0:
48,224,133617,1,8,0:0:0:0:
464,224,133917,5,4,1:2:0:0:
256,192,134067,12,0,136354,0:0:0:0:
176,96,138417,6,0,P|128:112|192:192,2,180,2|0|0,0:0|0:0|0:0,0:0:0:0:
336,144,139317,2,0,P|384:160|320:240,2,180,2|0|0,0:0|0:0|0:0,0:0:0:0:
176,176,140217,5,2,0:0:0:0:
336,160,140517,1,0,0:0:0:0:
176,176,140817,1,0,0:0:0:0:
400,320,141117,1,2,0:0:0:0:
336,224,141417,1,0,0:0:0:0:
176,176,141717,1,0,0:0:0:0:
400,160,142017,6,0,P|448:176|384:256,2,180,2|0|0,0:0|0:0|0:0,0:0:0:0:
240,192,142917,2,0,L|400:80,2,180,2|0|0,0:0|0:0|0:0,0:0:0:0:
80,272,143817,5,2,0:0:0:0:
240,272,144117,1,0,0:0:0:0:
400,272,144417,1,0,0:0:0:0:
240,272,144717,1,2,0:0:0:0:
304,160,145017,1,0,0:0:0:0:
464,144,145317,1,0,0:0:0:0:
240,96,145617,6,0,P|192:112|256:192,2,180,2|0|0,0:0|0:0|0:0,0:0:0:0:
400,224,146517,2,0,P|448:240|384:320,2,180,2|0|0,0:0|0:0|0:0,0:0:0:0:
240,256,147417,5,2,0:0:0:0:
80,240,147717,1,0,0:0:0:0:
240,256,148017,1,0,0:0:0:0:
400,272,148317,1,2,0:0:0:0:
336,176,148617,1,0,0:0:0:0:
176,112,148917,1,0,0:0:0:0:
400,224,149217,6,0,P|448:240|384:320,2,180,2|0|0,0:0|0:0|0:0,0:0:0:0:
240,176,150117,2,0,P|192:192|256:272,2,180,2|0|0,0:0|0:0|0:0,0:0:0:0:
400,192,151017,5,2,0:0:0:0:
240,176,151317,1,0,0:0:0:0:
464,160,151617,1,0,0:0:0:0:
400,64,151917,1,2,0:0:0:0:
240,48,152217,1,0,0:0:0:0:
16,48,152517,6,0,L|16:320,1,269.999991760254,2|0,0:0|0:0,0:0:0:0:
256,192,154167,12,0,154767,0:0:0:0:
192,128,154917,6,0,L|128:96,1,53.9999983520508,0|0,3:0|0:0,0:0:0:0:
352,112,155067,2,0,L|416:80,1,53.9999983520508,0|0,3:0|0:0,0:0:0:0:
180,160,155217,2,0,L|132:128,1,53.9999983520508,0|0,3:0|3:0,0:0:0:0:
368,160,155367,2,0,L|416:128,1,53.9999983520508,0|0,3:0|3:0,0:0:0:0:
168,192,155517,5,4,1:2:0:0:
288,240,155667,1,0,1:0:0:0:
32,256,155817,1,14,1:1:0:0:
288,240,155967,2,0,L|64:240,1,215.999993408203,0|0,1:0|1:0,0:0:0:0:
208,144,156417,2,0,L|208:80,1,53.9999983520508,8|0,1:2|0:0,0:0:0:0:
144,96,156567,2,0,L|144:32,1,53.9999983520508,0|0,1:2|0:0,0:0:0:0:
336,64,156717,5,0,1:2:0:0:
80,192,156867,2,0,L|80:304,1,107.999996704102,0|10,1:0|0:0,0:0:0:0:
336,320,157167,2,0,B|228:320|228:320|352:320,1,215.999993408203,0|0,1:0|1:0,0:0:0:0:
80,256,157617,1,10,0:0:0:0:
208,256,157767,1,0,1:0:0:0:
464,256,157917,5,0,1:0:0:0:
208,240,158067,2,0,L|208:128,1,107.999996704102,0|10,1:0|0:0,0:0:0:0:
336,96,158367,1,0,1:0:0:0:
400,96,158442,1,0,1:0:0:0:
336,96,158517,1,0,1:0:0:0:
208,192,158667,1,0,1:0:0:0:
272,192,158742,1,0,1:0:0:0:
336,192,158817,1,10,0:0:0:0:
208,288,158967,1,0,1:0:0:0:
144,288,159042,1,0,0:0:0:0:
208,288,159117,1,0,1:0:0:0:
80,240,159267,6,0,L|80:128,1,107.999996704102,0|10,1:0|0:0,0:0:0:0:
336,272,159567,1,0,1:0:0:0:
352,240,159642,1,0,0:0:0:0:
336,272,159717,1,0,1:0:0:0:
304,272,159792,1,0,0:0:0:0:
240,272,159867,1,2,1:2:0:0:
96,272,160017,1,10,0:0:0:0:
240,272,160167,1,0,1:0:0:0:
496,272,160317,5,0,1:0:0:0:
240,272,160467,2,0,L|240:144,1,107.999996704102,0|10,1:0|0:0,0:0:0:0:
496,272,160767,2,0,B|388:272|388:272|512:272,1,215.999993408203,0|0,1:0|1:0,0:0:0:0:
352,192,161217,1,10,0:0:0:0:
496,272,161367,1,0,1:0:0:0:
240,272,161517,5,0,1:0:0:0:
496,272,161667,2,0,L|496:160,1,107.999996704102,0|10,1:0|0:0,0:0:0:0:
240,272,161967,2,0,L|480:272,1,215.999993408203,0|0,1:0|1:0,0:0:0:0:
192,192,162417,1,10,0:0:0:0:
48,192,162567,1,0,1:0:0:0:
304,192,162717,5,0,1:0:0:0:
48,192,162867,2,0,L|48:304,1,107.999996704102,0|10,1:0|0:0,0:0:0:0:
176,304,163167,1,0,1:0:0:0:
240,304,163242,1,0,1:0:0:0:
176,304,163317,1,0,1:0:0:0:
304,224,163467,1,0,1:0:0:0:
240,224,163542,1,0,1:0:0:0:
176,224,163617,1,10,0:0:0:0:
304,144,163767,1,0,1:0:0:0:
240,144,163842,1,0,0:0:0:0:
304,144,163917,1,0,1:0:0:0:
176,32,164067,6,0,L|176:160,1,107.999996704102,0|10,1:0|0:0,0:0:0:0:
432,304,164367,1,0,1:0:0:0:
448,272,164442,1,0,0:0:0:0:
432,304,164517,1,0,1:0:0:0:
400,304,164592,1,0,0:0:0:0:
336,304,164667,1,2,1:2:0:0:
480,208,164817,1,10,0:0:0:0:
336,208,164967,1,0,1:0:0:0:
80,208,165117,5,6,1:2:0:0:
336,208,165267,2,0,L|336:80,1,107.999996704102,0|10,1:0|0:0,0:0:0:0:
80,208,165567,2,0,L|304:208,1,215.999993408203,0|0,1:0|1:0,0:0:0:0:
160,128,166017,1,10,0:0:0:0:
304,128,166167,1,0,1:0:0:0:
48,304,166317,5,0,1:0:0:0:
304,128,166467,2,0,L|304:240,1,107.999996704102,0|10,1:0|0:0,0:0:0:0:
48,304,166767,2,0,B|156:304|156:304|32:304,1,215.999993408203,0|0,1:0|1:0,0:0:0:0:
304,240,167217,1,10,0:0:0:0:
160,240,167367,1,0,1:0:0:0:
416,304,167517,5,0,1:2:0:0:
160,240,167667,2,0,L|272:240,1,107.999996704102,0|10,1:0|0:0,0:0:0:0:
144,144,167967,1,0,1:0:0:0:
80,144,168042,1,0,1:0:0:0:
144,144,168117,1,0,1:0:0:0:
272,144,168267,1,0,1:0:0:0:
208,144,168342,1,0,1:0:0:0:
144,144,168417,1,10,0:0:0:0:
272,144,168567,1,0,1:0:0:0:
336,144,168642,1,0,0:0:0:0:
272,144,168717,1,0,1:0:0:0:
400,144,168867,6,0,L|400:272,1,107.999996704102,0|10,1:0|0:0,0:0:0:0:
144,320,169167,1,0,1:0:0:0:
128,304,169242,1,0,0:0:0:0:
144,320,169317,1,0,1:0:0:0:
176,320,169392,1,0,0:0:0:0:
240,320,169467,1,2,1:2:0:0:
96,240,169617,1,10,0:0:0:0:
240,320,169767,1,0,1:0:0:0:
496,320,169917,5,0,1:0:0:0:
240,320,170067,2,0,L|240:192,1,107.999996704102,0|10,1:0|0:0,0:0:0:0:
496,272,170367,2,0,B|388:272|388:272|512:272,1,215.999993408203,0|0,1:0|1:0,0:0:0:0:
368,192,170817,1,10,0:0:0:0:
240,176,170967,1,0,1:0:0:0:
496,272,171117,5,0,1:0:0:0:
240,176,171267,2,0,L|240:288,1,107.999996704102,0|10,1:0|0:0,0:0:0:0:
496,272,171567,2,0,L|240:272,1,215.999993408203,0|0,1:0|1:0,0:0:0:0:
144,192,172017,1,10,0:0:0:0:
288,272,172167,1,0,1:0:0:0:
32,272,172317,5,4,1:0:0:0:
288,288,172617,1,10,0:0:0:0:
384,160,172767,2,0,L|304:160,1,53.9999983520508,0|0,1:0|1:0,0:0:0:0:
160,160,172917,1,0,1:0:0:0:
288,160,173067,1,0,1:0:0:0:
160,160,173217,1,10,0:0:0:0:
416,288,173367,6,0,L|416:160,1,107.999996704102,0|0,1:0|0:0,0:0:0:0:
272,192,173667,1,0,1:0:0:0:
416,176,173817,1,10,0:0:0:0:
320,112,173967,2,0,L|240:112,1,53.9999983520508,0|0,1:0|1:0,0:0:0:0:
96,112,174117,2,0,L|96:240,1,107.999996704102,0|0,1:0|0:0,0:0:0:0:
240,224,174417,1,10,0:0:0:0:
96,224,174567,1,0,1:0:0:0:
352,320,174717,5,0,1:0:0:0:
224,320,174867,2,0,L|224:208,1,107.999996704102,0|10,1:0|0:0,0:0:0:0:
320,176,175167,2,0,L|384:176,1,53.9999983520508,0|0,1:0|1:0,0:0:0:0:
192,128,175317,1,0,1:0:0:0:
48,128,175467,1,0,1:0:0:0:
192,128,175617,2,0,L|192:256,1,107.999996704102,10|0,0:0|0:0,0:0:0:0:
448,320,175917,6,0,L|448:208,1,107.999996704102,0|0,1:0|0:0,0:0:0:0:
304,224,176217,1,10,0:0:0:0:
208,176,176367,2,0,L|272:176,1,53.9999983520508,0|0,1:0|1:0,0:0:0:0:
432,176,176517,1,0,1:0:0:0:
304,176,176667,1,0,1:0:0:0:
432,176,176817,1,10,0:0:0:0:
176,288,176967,6,0,L|176:176,1,107.999996704102,0|0,1:0|0:0,0:0:0:0:
320,176,177267,1,0,1:0:0:0:
176,176,177417,1,10,0:0:0:0:
80,128,177567,2,0,L|160:128,1,53.9999983520508,0|0,1:0|1:0,0:0:0:0:
304,128,177717,2,0,L|304:256,1,107.999996704102,0|0,1:0|0:0,0:0:0:0:
160,240,178017,1,10,0:0:0:0:
304,240,178167,1,0,1:0:0:0:
48,304,178317,5,0,1:0:0:0:
192,304,178467,2,0,L|192:192,1,107.999996704102,0|10,1:0|0:0,0:0:0:0:
96,176,178767,2,0,L|32:176,1,53.9999983520508,0|0,1:0|1:0,0:0:0:0:
224,128,178917,1,0,1:0:0:0:
368,128,179067,1,0,1:0:0:0:
224,128,179217,2,0,L|224:256,1,107.999996704102,10|0,0:0|0:0,0:0:0:0:
480,320,179517,6,0,L|480:208,1,107.999996704102,0|0,1:0|0:0,0:0:0:0:
224,224,179817,1,10,0:0:0:0:
128,176,179967,2,0,L|192:176,1,53.9999983520508,0|0,1:0|1:0,0:0:0:0:
352,176,180117,1,0,1:0:0:0:
224,176,180267,1,0,1:0:0:0:
352,176,180417,1,10,0:0:0:0:
480,176,180567,1,0,1:0:0:0:
224,320,180717,6,0,L|96:320,1,107.999996704102,0|0,1:0|0:0,0:0:0:0:
368,320,181017,2,0,L|368:192,1,107.999996704102,10|0,0:0|0:0,0:0:0:0:
112,208,181317,2,0,L|112:80,1,107.999996704102,0|0,1:0|0:0,0:0:0:0:
368,96,181617,2,0,L|496:96,1,107.999996704102,10|0,0:0|1:0,0:0:0:0:
224,176,181917,5,4,1:2:0:0:
480,176,182217,1,10,0:0:0:0:
384,176,182367,2,0,L|320:176,1,53.9999983520508,0|0,1:2|1:0,0:0:0:0:
160,176,182517,1,0,1:0:0:0:
288,240,182667,1,0,1:0:0:0:
160,176,182817,1,10,0:0:0:0:
416,336,182967,6,0,L|416:208,1,107.999996704102,0|0,1:0|0:0,0:0:0:0:
288,208,183267,1,0,1:0:0:0:
160,192,183417,1,10,0:0:0:0:
64,128,183567,2,0,L|128:128,1,53.9999983520508,0|0,1:0|1:0,0:0:0:0:
288,128,183717,2,0,L|288:256,1,107.999996704102,0|0,1:0|0:0,0:0:0:0:
144,272,184017,1,10,0:0:0:0:
288,128,184167,1,0,1:0:0:0:
32,320,184317,5,0,1:0:0:0:
176,288,184467,2,0,L|176:160,1,107.999996704102,0|10,1:0|0:0,0:0:0:0:
80,112,184767,2,0,L|144:112,1,53.9999983520508,0|0,1:0|1:0,0:0:0:0:
304,112,184917,1,0,1:0:0:0:
176,112,185067,1,0,1:0:0:0:
304,112,185217,2,0,L|304:224,1,107.999996704102,10|0,0:0|0:0,0:0:0:0:
48,320,185517,6,0,L|48:208,1,107.999996704102,0|0,1:0|0:0,0:0:0:0:
192,208,185817,1,10,0:0:0:0:
288,208,185967,2,0,L|352:208,1,53.9999983520508,0|0,1:0|1:0,0:0:0:0:
176,144,186117,1,0,1:0:0:0:
32,144,186267,1,0,1:0:0:0:
176,144,186417,1,10,0:0:0:0:
432,304,186567,6,0,L|432:192,1,107.999996704102,0|0,1:0|0:0,0:0:0:0:
288,192,186867,1,0,1:0:0:0:
432,192,187017,1,10,0:0:0:0:
336,128,187167,2,0,L|272:128,1,53.9999983520508,0|0,1:0|1:0,0:0:0:0:
112,112,187317,2,0,L|112:224,1,107.999996704102,0|0,1:0|0:0,0:0:0:0:
256,272,187617,1,10,0:0:0:0:
112,224,187767,1,0,1:0:0:0:
368,352,187917,5,0,1:0:0:0:
224,320,188067,2,0,L|224:192,1,107.999996704102,0|10,1:0|0:0,0:0:0:0:
251,189,188254,1,0,0:0:0:0:
263,157,188291,1,0,0:0:0:0:
260,124,188329,1,0,0:0:0:0:
242,95,188366,1,8,0:0:0:0:
214,78,188404,1,0,0:0:0:0:
181,74,188441,1,0,0:0:0:0:
368,288,188517,6,0,L|432:288,1,53.9999983520508,0|0,1:0|0:0,0:0:0:0:
473,242,188667,2,0,L|473:210,2,26.9999991760254,0|0|0,1:0|0:0|0:0,0:0:0:0:
256,208,188817,2,0,L|256:80,1,107.999996704102,10|0,0:0|1:0,0:0:0:0:
288,96,189004,1,0,1:0:0:0:
320,96,189042,1,0,1:0:0:0:
96,176,189117,5,6,0:0:0:0:
96,176,189417,1,0,0:0:0:0:
176,176,189567,1,0,0:0:0:0:
336,176,189867,1,0,0:0:0:0:
176,176,190167,1,0,0:0:0:0:
336,176,190467,1,0,0:0:0:0:
416,176,190617,1,0,0:0:0:0:
176,176,190917,5,2,0:0:0:0:
336,176,191217,1,0,0:0:0:0:
256,176,191367,1,0,0:0:0:0:
416,176,191667,1,0,0:0:0:0:
256,176,191967,1,0,0:0:0:0:
176,176,192117,1,0,0:0:0:0:
336,176,192417,1,0,0:0:0:0:
176,176,192717,1,0,0:0:0:0:
96,176,192867,1,0,0:0:0:0:
224,256,193017,5,2,0:0:0:0:
448,256,193317,1,2,0:0:0:0:
448,256,193617,1,0,0:0:0:0:
368,256,193767,1,0,0:0:0:0:
208,256,194067,1,0,0:0:0:0:
368,256,194367,1,0,0:0:0:0:
208,256,194667,1,0,0:0:0:0:
128,256,194817,1,0,0:0:0:0:
368,256,195117,5,2,0:0:0:0:
208,256,195417,1,0,0:0:0:0:
288,256,195567,1,0,0:0:0:0:
448,256,195867,1,0,0:0:0:0:
288,256,196167,1,0,0:0:0:0:
128,256,196467,1,0,0:0:0:0:
48,256,196617,1,0,0:0:0:0:
208,256,196917,1,0,0:0:0:0:
448,256,197217,5,2,0:0:0:0:
288,256,197517,1,0,0:0:0:0:
368,256,197667,1,0,0:0:0:0:
208,256,197967,1,0,0:0:0:0:
368,256,198267,1,0,0:0:0:0:
208,256,198567,1,0,0:0:0:0:
128,256,198717,1,0,0:0:0:0:
368,256,199017,5,2,0:0:0:0:
208,256,199317,1,0,0:0:0:0:
288,256,199467,1,0,0:0:0:0:
448,256,199767,1,0,0:0:0:0:
288,256,200067,1,0,0:0:0:0:
208,256,200217,1,0,0:0:0:0:
368,256,200517,1,0,0:0:0:0:
208,256,200817,1,0,0:0:0:0:
288,256,200967,1,0,0:0:0:0:
160,16,201117,5,2,0:0:0:0:
384,16,201417,1,2,0:0:0:0:
224,16,201717,1,0,0:0:0:0:
144,16,201867,1,0,0:0:0:0:
304,16,202167,1,0,0:0:0:0:
144,16,202467,1,0,0:0:0:0:
304,16,202767,1,0,0:0:0:0:
384,16,202917,1,0,0:0:0:0:
144,16,203217,5,2,0:0:0:0:
304,16,203517,1,0,0:0:0:0:
224,16,203667,1,0,0:0:0:0:
384,16,203967,1,0,0:0:0:0:
224,16,204267,1,0,0:0:0:0:
64,16,204567,1,0,0:0:0:0:
144,16,204717,1,0,0:0:0:0:
304,16,205017,1,0,0:0:0:0:
64,96,205317,5,2,0:0:0:0:
224,96,205617,1,0,0:0:0:0:
224,96,205767,1,0,0:0:0:0:
64,96,206067,1,0,0:0:0:0:
224,96,206367,1,0,0:0:0:0:
384,96,206667,1,0,0:0:0:0:
384,96,206817,1,0,0:0:0:0:
224,96,207117,5,0,0:0:0:0:
384,96,207417,1,0,0:0:0:0:
384,96,207567,1,0,0:0:0:0:
224,96,207867,1,0,0:0:0:0:
64,96,208167,1,0,0:0:0:0:
64,96,208317,1,0,0:0:0:0:
224,96,208617,1,0,0:0:0:0:
384,96,208917,1,0,0:0:0:0:
384,96,209067,1,0,0:0:0:0:
256,96,209217,1,2,0:0:0:0:
480,176,209517,5,2,0:0:0:0:
320,176,209817,1,0,0:0:0:0:
320,176,209967,1,0,0:0:0:0:
160,176,210267,1,0,0:0:0:0:
320,176,210567,1,0,0:0:0:0:
160,176,210867,1,0,0:0:0:0:
160,176,211017,1,0,0:0:0:0:
384,288,211317,5,2,0:0:0:0:
224,288,211617,1,0,0:0:0:0:
224,288,211767,1,0,0:0:0:0:
384,288,212067,1,0,0:0:0:0:
224,288,212367,1,0,0:0:0:0:
64,288,212667,1,0,0:0:0:0:
64,288,212817,1,0,0:0:0:0:
224,288,213117,1,0,0:0:0:0:
448,288,213417,5,2,0:0:0:0:
256,192,213717,12,0,221217,0:0:0:0:
