osu file format v14

[General]
AudioFilename: audio.mp3
AudioLeadIn: 0
PreviewTime: 71929
Countdown: 0
SampleSet: Normal
StackLeniency: 0.7
Mode: 1
LetterboxInBreaks: 0
WidescreenStoryboard: 1

[Editor]
Bookmarks: 3693,20308,27693,42462,57231,72000,94154,101539,116308,131077,153231,168000,182769,204923,221539,237775,252211,263038,277474,291910,306347,320783,328001,335219,349655,360482,374918,389354,403790,418226,429053,443489
DistanceSpacing: 0.6
BeatDivisor: 4
GridSize: 16
TimelineZoom: 1.7

[Metadata]
Title:Mermaid Sisters / Summer breeze
TitleUnicode:Mermaid Sisters / Summer breeze
Artist:Yuuko (CV: Kotobuki Minako)
ArtistUnicode:ユー子 (CV: 寿美菜子)
Creator:yuki_momoiro722
Version:Tropical Muzukashii
Source:Aチャンネル
Tags:taiko japanese anime channel a-channel insert character song 西由宇子 nishi
BeatmapID:2536620
BeatmapSetID:1114080

[Difficulty]
HPDrainRate:6
CircleSize:2
OverallDifficulty:5
ApproachRate:10
SliderMultiplier:1.4
SliderTickRate:1

[Events]
//Background and Video events
0,0,"bg.jpg",0,90
//Break Periods
2,218046,221539
//Storyboard Layer 0 (Background)
//Storyboard Layer 1 (Fail)
//Storyboard Layer 2 (Pass)
//Storyboard Layer 3 (Foreground)
//Storyboard Layer 4 (Overlay)
//Storyboard Sound Samples

[TimingPoints]
3693,461.538461538462,4,1,0,70,1,0
3693,-111.111111111111,4,1,0,70,0,0
18231,-111.111111111111,4,1,0,70,0,0
18346,-111.111111111111,4,1,0,70,0,0
18462,-111.111111111111,4,1,0,75,0,0
19385,-111.111111111111,4,1,0,80,0,0
19846,-105.263157894737,4,1,0,85,0,0
20308,-100,4,1,0,90,0,0
27231,-105.263157894737,4,1,0,90,0,0
27693,-111.111111111111,4,1,0,70,0,0
34385,-111.111111111111,4,1,0,70,0,0
34616,-105.263157894737,4,1,0,70,0,0
35077,-100,4,1,0,75,0,0
42462,-100,4,1,0,80,0,0
57231,-100,4,1,0,75,0,0
64616,-100,4,1,0,80,0,0
72000,-95.2380952380952,4,1,0,90,0,1
94154,-100,4,1,0,80,0,0
101077,-105.263157894737,4,1,0,80,0,0
101539,-111.111111111111,4,1,0,75,0,0
104769,-105.263157894737,4,1,0,75,0,0
105231,-100,4,1,0,80,0,0
116309,-100,4,1,0,70,0,0
123693,-100,4,1,0,80,0,0
131077,-95.2380952380952,4,1,0,90,0,1
153231,-100,4,1,0,80,0,0
166154,-100,4,1,0,70,0,0
166846,-105.263157894737,4,1,0,70,0,0
167539,-105.263157894737,4,1,0,70,0,0
168000,-111.111111111111,4,1,0,70,0,0
180462,-111.111111111111,4,1,0,72,0,0
180693,-111.111111111111,4,1,0,74,0,0
180808,-111.111111111111,4,1,0,76,0,0
180923,-111.111111111111,4,1,0,78,0,0
181385,-105.263157894737,4,1,0,82,0,0
181500,-105.263157894737,4,1,0,85,0,0
181616,-105.263157894737,4,1,0,87,0,0
182077,-100,4,1,0,89,0,0
182539,-95.2380952380952,4,1,0,93,0,0
182769,-90.9090909090909,4,1,0,95,0,1
204923,-95.2380952380952,4,1,0,90,0,0
212308,-100,4,1,0,90,0,0
212539,-100,4,1,0,20,0,0
221535,451.127819548872,4,1,0,20,1,0
222437,-100,4,1,0,90,0,0
235745,-100,4,1,0,90,0,0
237775,-95.2380952380952,4,1,0,95,0,1
263038,-100,4,1,0,90,0,0
291910,-100,4,1,0,80,0,0
299128,-100,4,1,0,90,0,0
320783,-100,4,1,0,80,0,0
328001,-100,4,1,0,90,0,0
333189,-100,4,1,0,90,0,0
335219,-95.2380952380952,4,1,0,95,0,1
360482,-100,4,1,0,85,0,0
374918,-100,4,1,0,90,0,0
389354,-100,4,1,0,80,0,0
396572,-100,4,1,0,90,0,0
402888,-95.2380952380952,4,1,0,90,0,0
403790,-90.9090909090909,4,1,0,95,0,1
429053,-95.2380952380952,4,1,0,90,0,0
443489,-100,4,1,0,90,0,0
443941,-100,4,1,0,90,0,0
444392,-100,4,1,0,84,0,0
444843,-100,4,1,0,74,0,0
445294,-100,4,1,0,63,0,0
445745,-100,4,1,0,52,0,0
446196,-100,4,1,0,41,0,0
446647,-100,4,1,0,31,0,0
447098,-100,4,1,0,20,0,0

[HitObjects]
256,192,3693,5,0,0:0:0:0:
256,192,4154,1,8,0:0:0:0:
256,192,4385,1,0,0:0:0:0:
256,192,4846,1,0,0:0:0:0:
256,192,5308,1,8,0:0:0:0:
256,192,6231,1,0,0:0:0:0:
256,192,6462,1,0,0:0:0:0:
256,192,6923,1,8,0:0:0:0:
256,192,7385,1,8,0:0:0:0:
256,192,8539,1,8,0:0:0:0:
256,192,9000,1,8,0:0:0:0:
256,192,9693,1,8,0:0:0:0:
256,192,9923,1,0,0:0:0:0:
256,192,10385,1,8,0:0:0:0:
256,192,11077,1,0,0:0:0:0:
256,192,11539,1,8,0:0:0:0:
256,192,11769,1,0,0:0:0:0:
256,192,12231,1,0,0:0:0:0:
256,192,12693,1,8,0:0:0:0:
256,192,13616,1,0,0:0:0:0:
256,192,13846,1,0,0:0:0:0:
256,192,14308,1,8,0:0:0:0:
256,192,14769,1,8,0:0:0:0:
256,192,15923,1,8,0:0:0:0:
256,192,16154,1,8,0:0:0:0:
256,192,16385,1,0,0:0:0:0:
256,192,17077,1,8,0:0:0:0:
256,192,17308,1,0,0:0:0:0:
256,192,17769,1,12,0:0:0:0:
256,192,18231,1,8,0:0:0:0:
256,192,18346,1,8,0:0:0:0:
256,192,18462,1,8,0:0:0:0:
256,192,18693,1,0,0:0:0:0:
256,192,18923,1,8,0:0:0:0:
256,192,19385,1,0,0:0:0:0:
256,192,19616,1,0,0:0:0:0:
256,192,19846,1,8,0:0:0:0:
256,192,20308,5,4,0:0:0:0:
256,192,20769,1,8,0:0:0:0:
256,192,21231,1,0,0:0:0:0:
256,192,21462,1,0,0:0:0:0:
256,192,21693,1,8,0:0:0:0:
256,192,21923,1,0,0:0:0:0:
256,192,22154,1,8,0:0:0:0:
256,192,22616,1,8,0:0:0:0:
256,192,22846,1,0,0:0:0:0:
256,192,23308,1,0,0:0:0:0:
256,192,23539,1,8,0:0:0:0:
256,192,24000,1,8,0:0:0:0:
256,192,24462,1,8,0:0:0:0:
256,192,24693,1,0,0:0:0:0:
256,192,24923,1,0,0:0:0:0:
256,192,25154,1,0,0:0:0:0:
256,192,25385,1,8,0:0:0:0:
256,192,25846,1,8,0:0:0:0:
256,192,26308,1,0,0:0:0:0:
256,192,26539,1,8,0:0:0:0:
256,192,27231,1,8,0:0:0:0:
256,192,27346,1,8,0:0:0:0:
256,192,27462,1,8,0:0:0:0:
256,192,27693,5,4,0:0:0:0:
256,192,28154,1,8,0:0:0:0:
256,192,28616,1,8,0:0:0:0:
256,192,29077,1,0,0:0:0:0:
256,192,29539,1,0,0:0:0:0:
256,192,30231,1,8,0:0:0:0:
256,192,30923,1,8,0:0:0:0:
256,192,31154,1,0,0:0:0:0:
256,192,31385,1,0,0:0:0:0:
256,192,31846,1,8,0:0:0:0:
256,192,32077,1,0,0:0:0:0:
256,192,32769,1,8,0:0:0:0:
256,192,33000,1,0,0:0:0:0:
256,192,33231,1,0,0:0:0:0:
256,192,33923,1,8,0:0:0:0:
256,192,34385,1,0,0:0:0:0:
256,192,34616,1,8,0:0:0:0:
256,192,35077,1,4,0:0:0:0:
256,192,35539,1,8,0:0:0:0:
256,192,36000,1,0,0:0:0:0:
256,192,36462,1,8,0:0:0:0:
256,192,36923,1,0,0:0:0:0:
256,192,37269,1,8,0:0:0:0:
256,192,37616,1,0,0:0:0:0:
256,192,38077,1,0,0:0:0:0:
256,192,38308,1,8,0:0:0:0:
249,190,38539,1,0,0:0:0:0:
256,192,38769,1,8,0:0:0:0:
256,192,39231,1,8,0:0:0:0:
256,192,39693,1,0,0:0:0:0:
256,192,39923,1,0,0:0:0:0:
256,192,40154,1,8,0:0:0:0:
256,192,40385,1,0,0:0:0:0:
249,190,40616,1,8,0:0:0:0:
249,190,40962,1,0,0:0:0:0:
256,192,41308,1,8,0:0:0:0:
256,192,42000,1,8,0:0:0:0:
256,192,42231,1,8,0:0:0:0:
256,192,42462,5,4,0:0:0:0:
256,192,42923,1,8,0:0:0:0:
256,192,43385,1,0,0:0:0:0:
256,192,43846,1,8,0:0:0:0:
256,192,44077,1,0,0:0:0:0:
256,192,44308,1,8,0:0:0:0:
256,192,44654,1,0,0:0:0:0:
256,192,45000,1,8,0:0:0:0:
256,192,45231,1,0,0:0:0:0:
256,192,45462,1,0,0:0:0:0:
256,192,45693,1,8,0:0:0:0:
256,192,46154,1,8,0:0:0:0:
256,192,46616,1,8,0:0:0:0:
256,192,46846,1,0,0:0:0:0:
256,192,47539,1,8,0:0:0:0:
256,192,47769,1,0,0:0:0:0:
256,192,48000,1,0,0:0:0:0:
256,192,48462,1,8,0:0:0:0:
256,192,48923,1,8,0:0:0:0:
256,192,49154,1,0,0:0:0:0:
256,192,49385,1,8,0:0:0:0:
256,192,49846,1,4,0:0:0:0:
256,192,50308,1,8,0:0:0:0:
256,192,50769,1,0,0:0:0:0:
256,192,51000,1,0,0:0:0:0:
256,192,51231,1,8,0:0:0:0:
256,192,51462,1,0,0:0:0:0:
256,192,51693,1,8,0:0:0:0:
256,192,52039,1,8,0:0:0:0:
256,192,52385,1,8,0:0:0:0:
256,192,52846,1,0,0:0:0:0:
256,192,53077,1,8,0:0:0:0:
256,192,53539,1,0,0:0:0:0:
256,192,54000,1,8,0:0:0:0:
256,192,54462,1,0,0:0:0:0:
256,192,54693,1,0,0:0:0:0:
256,192,54923,1,8,0:0:0:0:
256,192,55385,1,0,0:0:0:0:
256,192,56077,1,12,0:0:0:0:
256,192,56539,1,0,0:0:0:0:
256,192,56769,1,8,0:0:0:0:
256,192,56885,1,8,0:0:0:0:
256,192,57000,1,8,0:0:0:0:
256,192,57231,5,4,0:0:0:0:
256,192,57577,1,8,0:0:0:0:
256,192,57923,1,8,0:0:0:0:
256,192,58154,1,0,0:0:0:0:
256,192,58500,1,0,0:0:0:0:
256,192,58846,1,0,0:0:0:0:
256,192,59077,1,8,0:0:0:0:
256,192,59769,1,0,0:0:0:0:
256,192,59885,1,0,0:0:0:0:
256,192,60000,1,0,0:0:0:0:
256,192,60462,1,8,0:0:0:0:
256,192,60923,1,8,0:0:0:0:
256,192,61269,1,8,0:0:0:0:
256,192,61616,1,0,0:0:0:0:
256,192,61846,1,0,0:0:0:0:
256,192,62193,1,0,0:0:0:0:
256,192,62539,1,8,0:0:0:0:
256,192,62769,1,0,0:0:0:0:
256,192,63231,1,8,0:0:0:0:
256,192,63693,1,0,0:0:0:0:
256,192,64154,1,8,0:0:0:0:
256,192,64616,1,4,0:0:0:0:
256,192,64962,1,8,0:0:0:0:
256,192,65308,1,8,0:0:0:0:
256,192,65539,1,0,0:0:0:0:
256,192,65885,1,8,0:0:0:0:
256,192,66231,1,0,0:0:0:0:
256,192,66462,1,8,0:0:0:0:
256,192,67154,1,0,0:0:0:0:
256,192,67385,1,0,0:0:0:0:
256,192,67616,1,8,0:0:0:0:
256,192,67846,1,8,0:0:0:0:
256,192,68308,1,12,0:0:0:0:
256,192,68539,1,12,0:0:0:0:
256,192,69000,1,4,0:0:0:0:
256,192,69462,1,4,0:0:0:0:
256,192,69923,1,0,0:0:0:0:
256,192,70154,1,12,0:0:0:0:
256,192,70846,1,12,0:0:0:0:
256,192,71308,1,0,0:0:0:0:
256,192,71539,1,12,0:0:0:0:
256,192,72000,5,4,0:0:0:0:
256,192,72462,1,8,0:0:0:0:
256,192,72693,1,0,0:0:0:0:
256,192,73154,1,0,0:0:0:0:
256,192,73385,1,8,0:0:0:0:
256,192,73616,1,0,0:0:0:0:
256,192,73846,1,0,0:0:0:0:
256,192,74308,1,8,0:0:0:0:
256,192,74539,1,0,0:0:0:0:
256,192,74654,1,0,0:0:0:0:
256,192,74769,1,0,0:0:0:0:
256,192,75000,1,0,0:0:0:0:
256,192,75231,1,8,0:0:0:0:
256,192,75462,1,0,0:0:0:0:
256,192,75693,1,8,0:0:0:0:
256,192,76154,1,8,0:0:0:0:
256,192,76616,1,0,0:0:0:0:
256,192,76846,1,0,0:0:0:0:
256,192,77077,1,8,0:0:0:0:
256,192,77308,1,8,0:0:0:0:
256,192,78000,1,8,0:0:0:0:
256,192,78231,1,0,0:0:0:0:
256,192,78693,1,0,0:0:0:0:
256,192,78923,1,8,0:0:0:0:
256,192,79154,1,0,0:0:0:0:
256,192,79385,1,4,0:0:0:0:
256,192,79846,1,8,0:0:0:0:
256,192,80077,1,0,0:0:0:0:
256,192,80539,1,0,0:0:0:0:
256,192,80769,1,8,0:0:0:0:
256,192,81000,1,0,0:0:0:0:
256,192,81231,1,0,0:0:0:0:
256,192,81693,1,8,0:0:0:0:
256,192,81923,1,0,0:0:0:0:
256,192,82039,1,0,0:0:0:0:
256,192,82154,1,0,0:0:0:0:
256,192,82385,1,0,0:0:0:0:
256,192,82616,1,8,0:0:0:0:
256,192,82846,1,0,0:0:0:0:
256,192,83077,1,8,0:0:0:0:
256,192,83539,1,8,0:0:0:0:
256,192,84000,1,0,0:0:0:0:
256,192,84231,1,0,0:0:0:0:
256,192,84462,1,8,0:0:0:0:
256,192,84693,1,4,0:0:0:0:
256,192,85385,1,0,0:0:0:0:
256,192,85616,1,12,0:0:0:0:
256,192,86077,1,0,0:0:0:0:
256,192,86308,1,8,0:0:0:0:
256,192,86423,1,8,0:0:0:0:
256,192,86539,1,8,0:0:0:0:
256,192,86769,1,4,0:0:0:0:
256,192,87231,1,0,0:0:0:0:
256,192,87693,1,8,0:0:0:0:
256,192,88154,1,8,0:0:0:0:
256,192,88616,1,4,0:0:0:0:
256,192,89077,1,8,0:0:0:0:
256,192,89539,1,0,0:0:0:0:
256,192,90000,1,8,0:0:0:0:
256,192,90462,1,12,0:0:0:0:
256,192,90693,1,0,0:0:0:0:
256,192,90923,1,0,0:0:0:0:
256,192,91154,1,0,0:0:0:0:
256,192,91385,1,8,0:0:0:0:
256,192,91616,1,8,0:0:0:0:
256,192,91846,1,8,0:0:0:0:
256,192,91962,1,8,0:0:0:0:
256,192,92077,1,8,0:0:0:0:
256,192,92308,1,12,0:0:0:0:
256,192,93231,1,8,0:0:0:0:
256,192,93462,1,0,0:0:0:0:
256,192,93693,1,8,0:0:0:0:
256,192,94154,5,4,0:0:0:0:
256,192,94616,1,8,0:0:0:0:
256,192,95077,1,0,0:0:0:0:
256,192,95308,1,0,0:0:0:0:
256,192,95539,1,8,0:0:0:0:
256,192,95769,1,0,0:0:0:0:
256,192,96000,1,8,0:0:0:0:
256,192,96462,1,8,0:0:0:0:
256,192,96693,1,0,0:0:0:0:
256,192,97154,1,0,0:0:0:0:
256,192,97385,1,8,0:0:0:0:
256,192,97846,1,8,0:0:0:0:
256,192,98308,1,8,0:0:0:0:
256,192,98539,1,0,0:0:0:0:
256,192,99231,1,8,0:0:0:0:
256,192,99462,1,8,0:0:0:0:
256,192,99577,1,8,0:0:0:0:
256,192,99693,1,8,0:0:0:0:
256,192,99923,1,0,0:0:0:0:
256,192,100154,1,0,0:0:0:0:
256,192,100385,1,12,0:0:0:0:
256,192,101077,1,8,0:0:0:0:
256,192,101308,1,8,0:0:0:0:
256,192,101539,5,4,0:0:0:0:
256,192,102000,1,8,0:0:0:0:
256,192,102231,1,0,0:0:0:0:
256,192,102693,1,0,0:0:0:0:
256,192,102923,1,8,0:0:0:0:
256,192,103385,1,8,0:0:0:0:
256,192,103846,1,8,0:0:0:0:
256,192,104077,1,0,0:0:0:0:
256,192,104539,1,0,0:0:0:0:
256,192,104769,1,8,0:0:0:0:
256,192,104885,1,8,0:0:0:0:
256,192,105000,1,8,0:0:0:0:
256,192,105231,1,8,0:0:0:0:
256,192,105693,1,8,0:0:0:0:
256,192,105923,1,0,0:0:0:0:
256,192,106616,1,8,0:0:0:0:
256,192,106846,1,0,0:0:0:0:
256,192,107077,1,0,0:0:0:0:
256,192,107539,1,8,0:0:0:0:
256,192,108000,1,8,0:0:0:0:
256,192,108231,1,0,0:0:0:0:
256,192,108462,1,8,0:0:0:0:
256,192,108923,1,4,0:0:0:0:
256,192,109385,1,8,0:0:0:0:
256,192,109846,1,0,0:0:0:0:
256,192,110077,1,0,0:0:0:0:
256,192,110308,1,8,0:0:0:0:
256,192,110539,1,0,0:0:0:0:
256,192,110769,1,8,0:0:0:0:
256,192,111116,1,8,0:0:0:0:
256,192,111462,1,0,0:0:0:0:
256,192,111923,1,0,0:0:0:0:
256,192,112154,1,8,0:0:0:0:
256,192,112616,1,0,0:0:0:0:
256,192,113077,1,8,0:0:0:0:
256,192,113539,1,0,0:0:0:0:
256,192,113769,1,0,0:0:0:0:
256,192,114000,1,8,0:0:0:0:
256,192,114462,1,0,0:0:0:0:
256,192,115154,1,12,0:0:0:0:
256,192,115616,1,8,0:0:0:0:
256,192,115846,1,0,0:0:0:0:
256,192,115962,1,0,0:0:0:0:
256,192,116077,1,0,0:0:0:0:
256,192,116308,5,12,0:0:0:0:
256,192,116654,1,0,0:0:0:0:
256,192,117000,1,8,0:0:0:0:
256,192,117231,1,0,0:0:0:0:
256,192,117577,1,8,0:0:0:0:
256,192,117923,1,0,0:0:0:0:
256,192,118154,1,8,0:0:0:0:
256,192,118846,1,0,0:0:0:0:
256,192,118962,1,0,0:0:0:0:
256,192,119077,1,0,0:0:0:0:
256,192,119539,1,8,0:0:0:0:
256,192,120000,1,8,0:0:0:0:
256,192,120346,1,0,0:0:0:0:
256,192,120693,1,8,0:0:0:0:
256,192,120923,1,0,0:0:0:0:
256,192,121269,1,0,0:0:0:0:
256,192,121616,1,8,0:0:0:0:
256,192,121846,1,0,0:0:0:0:
256,192,122308,1,8,0:0:0:0:
256,192,122769,1,0,0:0:0:0:
256,192,123231,1,8,0:0:0:0:
256,192,123693,1,4,0:0:0:0:
256,192,124039,1,8,0:0:0:0:
256,192,124385,1,8,0:0:0:0:
256,192,124616,1,0,0:0:0:0:
256,192,124962,1,8,0:0:0:0:
256,192,125308,1,0,0:0:0:0:
256,192,125539,1,8,0:0:0:0:
256,192,126231,1,0,0:0:0:0:
256,192,126462,1,0,0:0:0:0:
256,192,126693,1,8,0:0:0:0:
256,192,126923,1,8,0:0:0:0:
256,192,127385,1,12,0:0:0:0:
256,192,127616,1,12,0:0:0:0:
256,192,128077,1,4,0:0:0:0:
256,192,128539,1,4,0:0:0:0:
256,192,129000,1,0,0:0:0:0:
256,192,129231,1,12,0:0:0:0:
256,192,129923,1,12,0:0:0:0:
256,192,130385,1,0,0:0:0:0:
256,192,130616,1,12,0:0:0:0:
256,192,131077,5,4,0:0:0:0:
256,192,131539,1,8,0:0:0:0:
256,192,131769,1,0,0:0:0:0:
256,192,132231,1,0,0:0:0:0:
256,192,132462,1,8,0:0:0:0:
256,192,132693,1,8,0:0:0:0:
256,192,132923,1,0,0:0:0:0:
256,192,133385,1,8,0:0:0:0:
256,192,133616,1,0,0:0:0:0:
256,192,133731,1,0,0:0:0:0:
256,192,133846,1,0,0:0:0:0:
256,192,134077,1,8,0:0:0:0:
256,192,134308,1,8,0:0:0:0:
256,192,134539,1,0,0:0:0:0:
256,192,134769,1,8,0:0:0:0:
256,192,135231,1,8,0:0:0:0:
256,192,135693,1,0,0:0:0:0:
256,192,135923,1,0,0:0:0:0:
256,192,136154,1,8,0:0:0:0:
256,192,136385,1,8,0:0:0:0:
256,192,137077,1,8,0:0:0:0:
256,192,137308,1,0,0:0:0:0:
256,192,137769,1,0,0:0:0:0:
256,192,138000,1,8,0:0:0:0:
256,192,138231,1,0,0:0:0:0:
256,192,138462,1,4,0:0:0:0:
256,192,138923,1,8,0:0:0:0:
256,192,139154,1,0,0:0:0:0:
256,192,139616,1,0,0:0:0:0:
256,192,139846,1,8,0:0:0:0:
256,192,140077,1,8,0:0:0:0:
256,192,140308,1,0,0:0:0:0:
256,192,140769,1,8,0:0:0:0:
256,192,141000,1,0,0:0:0:0:
256,192,141116,1,0,0:0:0:0:
256,192,141231,1,0,0:0:0:0:
256,192,141462,1,8,0:0:0:0:
256,192,141693,1,8,0:0:0:0:
256,192,141923,1,0,0:0:0:0:
256,192,142154,1,8,0:0:0:0:
256,192,142616,1,8,0:0:0:0:
256,192,143077,1,0,0:0:0:0:
256,192,143308,1,8,0:0:0:0:
256,192,143539,1,8,0:0:0:0:
256,192,143769,1,4,0:0:0:0:
256,192,144462,1,0,0:0:0:0:
256,192,144693,1,12,0:0:0:0:
256,192,145154,1,0,0:0:0:0:
256,192,145385,1,8,0:0:0:0:
256,192,145500,1,8,0:0:0:0:
256,192,145616,1,8,0:0:0:0:
256,192,145846,1,4,0:0:0:0:
256,192,146308,1,0,0:0:0:0:
256,192,146769,1,8,0:0:0:0:
256,192,147231,1,8,0:0:0:0:
256,192,147693,1,4,0:0:0:0:
256,192,148154,1,8,0:0:0:0:
256,192,148616,1,0,0:0:0:0:
256,192,149077,1,8,0:0:0:0:
256,192,149539,1,12,0:0:0:0:
256,192,149769,1,0,0:0:0:0:
256,192,150000,1,0,0:0:0:0:
256,192,150231,1,0,0:0:0:0:
256,192,150462,1,8,0:0:0:0:
256,192,150693,1,0,0:0:0:0:
256,192,150923,1,8,0:0:0:0:
256,192,151039,1,8,0:0:0:0:
256,192,151154,1,8,0:0:0:0:
256,192,151385,1,12,0:0:0:0:
256,192,152308,1,8,0:0:0:0:
256,192,152539,1,0,0:0:0:0:
256,192,152769,1,8,0:0:0:0:
256,192,153231,5,4,0:0:0:0:
256,192,153693,1,0,0:0:0:0:
256,192,153923,1,8,0:0:0:0:
256,192,154616,1,8,0:0:0:0:
256,192,154846,1,0,0:0:0:0:
256,192,155077,1,8,0:0:0:0:
256,192,155539,1,8,0:0:0:0:
256,192,155769,1,0,0:0:0:0:
256,192,156462,1,8,0:0:0:0:
256,192,156923,1,4,0:0:0:0:
256,192,157385,1,8,0:0:0:0:
256,192,157616,1,0,0:0:0:0:
256,192,158077,1,0,0:0:0:0:
256,192,158308,1,8,0:0:0:0:
256,192,158539,1,0,0:0:0:0:
256,192,158769,1,8,0:0:0:0:
256,192,159231,1,8,0:0:0:0:
256,192,159462,1,4,0:0:0:0:
256,192,159923,1,0,0:0:0:0:
256,192,160154,1,8,0:0:0:0:
256,192,160269,1,8,0:0:0:0:
256,192,160385,1,8,0:0:0:0:
256,192,160616,1,4,0:0:0:0:
256,192,161077,1,8,0:0:0:0:
256,192,161539,1,8,0:0:0:0:
256,192,161769,1,0,0:0:0:0:
256,192,162000,1,8,0:0:0:0:
256,192,162462,1,8,0:0:0:0:
256,192,163154,1,8,0:0:0:0:
256,192,163616,1,0,0:0:0:0:
256,192,163846,1,8,0:0:0:0:
256,192,164193,1,8,0:0:0:0:
256,192,164308,1,0,0:0:0:0:
256,192,164539,1,0,0:0:0:0:
256,192,164769,1,0,0:0:0:0:
256,192,165000,1,8,0:0:0:0:
256,192,165231,1,8,0:0:0:0:
256,192,165462,1,8,0:0:0:0:
256,192,165693,1,0,0:0:0:0:
256,192,165808,1,0,0:0:0:0:
256,192,165923,1,0,0:0:0:0:
256,192,166154,1,12,0:0:0:0:
256,192,166846,1,4,0:0:0:0:
256,192,167539,1,12,0:0:0:0:
256,192,168000,5,0,0:0:0:0:
256,192,168462,1,8,0:0:0:0:
256,192,168693,1,0,0:0:0:0:
256,192,169154,1,0,0:0:0:0:
256,192,169616,1,8,0:0:0:0:
256,192,170539,1,0,0:0:0:0:
256,192,170769,1,0,0:0:0:0:
256,192,171231,1,8,0:0:0:0:
256,192,171693,1,8,0:0:0:0:
256,192,172846,1,8,0:0:0:0:
256,192,173308,1,8,0:0:0:0:
256,192,174000,1,8,0:0:0:0:
256,192,174231,1,0,0:0:0:0:
256,192,174693,1,8,0:0:0:0:
256,192,175385,1,0,0:0:0:0:
256,192,175846,1,8,0:0:0:0:
256,192,176077,1,0,0:0:0:0:
256,192,176539,1,0,0:0:0:0:
256,192,177000,1,8,0:0:0:0:
256,192,177923,1,0,0:0:0:0:
256,192,178154,1,0,0:0:0:0:
256,192,178616,1,8,0:0:0:0:
256,192,179077,1,8,0:0:0:0:
256,192,180231,1,8,0:0:0:0:
256,192,180462,1,8,0:0:0:0:
256,192,180693,1,0,0:0:0:0:
256,192,180808,1,0,0:0:0:0:
256,192,180923,1,0,0:0:0:0:
256,192,181385,1,8,0:0:0:0:
256,192,181500,1,8,0:0:0:0:
256,192,181616,1,8,0:0:0:0:
256,192,182077,1,12,0:0:0:0:
256,192,182539,1,8,0:0:0:0:
256,192,182769,5,4,0:0:0:0:
256,192,183231,1,8,0:0:0:0:
256,192,183462,1,0,0:0:0:0:
256,192,183923,1,0,0:0:0:0:
256,192,184154,1,8,0:0:0:0:
256,192,184385,1,0,0:0:0:0:
256,192,184616,1,0,0:0:0:0:
256,192,185077,1,8,0:0:0:0:
256,192,185308,1,0,0:0:0:0:
256,192,185423,1,0,0:0:0:0:
256,192,185539,1,0,0:0:0:0:
256,192,185769,1,0,0:0:0:0:
256,192,186000,1,8,0:0:0:0:
256,192,186231,1,0,0:0:0:0:
256,192,186462,1,8,0:0:0:0:
256,192,186923,1,8,0:0:0:0:
256,192,187385,1,0,0:0:0:0:
256,192,187616,1,0,0:0:0:0:
256,192,187846,1,8,0:0:0:0:
256,192,188077,1,8,0:0:0:0:
256,192,188769,1,8,0:0:0:0:
256,192,189000,1,0,0:0:0:0:
256,192,189462,1,0,0:0:0:0:
256,192,189693,1,8,0:0:0:0:
256,192,189923,1,8,0:0:0:0:
256,192,190154,1,4,0:0:0:0:
256,192,190616,1,8,0:0:0:0:
256,192,190846,1,0,0:0:0:0:
256,192,191308,1,0,0:0:0:0:
256,192,191539,1,8,0:0:0:0:
256,192,191769,1,0,0:0:0:0:
256,192,192000,1,0,0:0:0:0:
256,192,192462,1,8,0:0:0:0:
256,192,192693,1,0,0:0:0:0:
256,192,192808,1,0,0:0:0:0:
256,192,192923,1,0,0:0:0:0:
256,192,193154,1,0,0:0:0:0:
256,192,193385,1,8,0:0:0:0:
256,192,193616,1,0,0:0:0:0:
256,192,193846,1,8,0:0:0:0:
256,192,194308,1,8,0:0:0:0:
256,192,194769,1,0,0:0:0:0:
256,192,195000,1,0,0:0:0:0:
256,192,195231,1,8,0:0:0:0:
256,192,195462,1,4,0:0:0:0:
256,192,196154,1,0,0:0:0:0:
256,192,196385,1,12,0:0:0:0:
256,192,196846,1,0,0:0:0:0:
256,192,197077,1,8,0:0:0:0:
256,192,197193,1,8,0:0:0:0:
256,192,197308,1,8,0:0:0:0:
256,192,197539,1,4,0:0:0:0:
256,192,198000,1,0,0:0:0:0:
256,192,198462,1,8,0:0:0:0:
256,192,198923,1,8,0:0:0:0:
256,192,199385,1,4,0:0:0:0:
256,192,199846,1,8,0:0:0:0:
256,192,200308,1,0,0:0:0:0:
256,192,200769,1,8,0:0:0:0:
256,192,201231,1,12,0:0:0:0:
256,192,201462,1,0,0:0:0:0:
256,192,201693,1,0,0:0:0:0:
256,192,201923,1,0,0:0:0:0:
256,192,202154,1,8,0:0:0:0:
256,192,202385,1,8,0:0:0:0:
256,192,202616,1,8,0:0:0:0:
256,192,202731,1,8,0:0:0:0:
256,192,202846,1,8,0:0:0:0:
256,192,203077,1,12,0:0:0:0:
256,192,204000,5,8,0:0:0:0:
256,192,204231,1,0,0:0:0:0:
256,192,204462,1,8,0:0:0:0:
256,192,204923,5,4,0:0:0:0:
256,192,205385,1,8,0:0:0:0:
256,192,205846,1,0,0:0:0:0:
256,192,206077,1,0,0:0:0:0:
256,192,206308,1,8,0:0:0:0:
256,192,206539,1,0,0:0:0:0:
256,192,206769,1,8,0:0:0:0:
256,192,207231,1,8,0:0:0:0:
256,192,207462,1,0,0:0:0:0:
256,192,207923,1,0,0:0:0:0:
256,192,208154,1,8,0:0:0:0:
256,192,208616,1,8,0:0:0:0:
256,192,209077,1,8,0:0:0:0:
256,192,209308,1,0,0:0:0:0:
256,192,209769,1,0,0:0:0:0:
256,192,210000,1,8,0:0:0:0:
256,192,210231,1,8,0:0:0:0:
256,192,210346,1,8,0:0:0:0:
256,192,210462,1,8,0:0:0:0:
256,192,210693,1,0,0:0:0:0:
256,192,210923,1,0,0:0:0:0:
256,192,211154,1,8,0:0:0:0:
256,192,211846,1,8,0:0:0:0:
256,192,211962,1,8,0:0:0:0:
256,192,212077,1,8,0:0:0:0:
256,192,212308,1,4,0:0:0:0:
256,192,212539,8,0,217846,0:0:0:0:
256,192,222437,5,0,0:0:0:0:
256,192,222662,1,8,0:0:0:0:
256,192,222775,1,8,0:0:0:0:
256,192,222888,1,8,0:0:0:0:
256,192,223113,1,0,0:0:0:0:
256,192,223339,5,4,0:0:0:0:
256,192,223790,1,8,0:0:0:0:
256,192,224016,1,0,0:0:0:0:
256,192,224467,1,0,0:0:0:0:
256,192,224692,1,8,0:0:0:0:
256,192,225144,1,8,0:0:0:0:
256,192,225482,1,8,0:0:0:0:
256,192,225595,1,0,0:0:0:0:
256,192,225820,1,8,0:0:0:0:
256,192,226046,1,0,0:0:0:0:
256,192,226384,1,8,0:0:0:0:
256,192,226722,1,0,0:0:0:0:
256,192,226948,1,0,0:0:0:0:
256,192,227399,1,8,0:0:0:0:
256,192,227850,1,0,0:0:0:0:
256,192,228076,1,8,0:0:0:0:
256,192,228301,1,0,0:0:0:0:
256,192,228527,1,8,0:0:0:0:
256,192,228978,1,8,0:0:0:0:
256,192,229204,1,0,0:0:0:0:
256,192,229429,1,8,0:0:0:0:
256,192,229655,1,0,0:0:0:0:
256,192,229880,1,0,0:0:0:0:
256,192,230106,1,8,0:0:0:0:
256,192,230557,1,4,0:0:0:0:
256,192,231234,1,8,0:0:0:0:
256,192,231685,1,0,0:0:0:0:
256,192,231910,1,8,0:0:0:0:
256,192,232362,1,0,0:0:0:0:
256,192,232700,1,0,0:0:0:0:
256,192,232813,1,8,0:0:0:0:
256,192,233038,1,8,0:0:0:0:
256,192,233264,1,0,0:0:0:0:
256,192,233602,1,8,0:0:0:0:
256,192,233941,1,8,0:0:0:0:
256,192,234166,1,4,0:0:0:0:
256,192,234843,1,8,0:0:0:0:
256,192,234956,1,8,0:0:0:0:
256,192,235068,1,8,0:0:0:0:
256,192,235294,1,0,0:0:0:0:
256,192,235519,1,0,0:0:0:0:
256,192,235745,1,12,0:0:0:0:
256,192,236196,1,12,0:0:0:0:
256,192,236422,1,12,0:0:0:0:
256,192,236873,1,0,0:0:0:0:
256,192,237211,1,8,0:0:0:0:
256,192,237324,1,8,0:0:0:0:
256,192,237550,1,0,0:0:0:0:
256,192,237775,5,12,0:0:0:0:
256,192,238226,1,8,0:0:0:0:
256,192,238452,1,0,0:0:0:0:
256,192,238903,1,0,0:0:0:0:
256,192,239128,1,8,0:0:0:0:
256,192,239354,1,0,0:0:0:0:
256,192,239580,1,0,0:0:0:0:
256,192,239805,1,8,0:0:0:0:
256,192,239918,1,8,0:0:0:0:
256,192,240031,1,8,0:0:0:0:
256,192,240256,1,8,0:0:0:0:
256,192,240933,1,8,0:0:0:0:
256,192,241159,1,0,0:0:0:0:
256,192,241384,1,0,0:0:0:0:
256,192,241835,1,8,0:0:0:0:
256,192,242061,1,0,0:0:0:0:
256,192,242512,1,0,0:0:0:0:
256,192,242738,1,8,0:0:0:0:
256,192,242963,1,8,0:0:0:0:
256,192,243189,1,0,0:0:0:0:
256,192,243414,1,8,0:0:0:0:
256,192,243527,1,8,0:0:0:0:
256,192,243640,1,8,0:0:0:0:
256,192,243865,1,8,0:0:0:0:
256,192,244542,1,8,0:0:0:0:
256,192,244768,1,0,0:0:0:0:
256,192,244993,1,0,0:0:0:0:
256,192,245444,1,8,0:0:0:0:
256,192,245670,1,0,0:0:0:0:
256,192,245895,1,0,0:0:0:0:
256,192,246121,1,0,0:0:0:0:
256,192,246347,1,8,0:0:0:0:
256,192,246572,1,4,0:0:0:0:
256,192,247249,1,8,0:0:0:0:
256,192,247700,1,0,0:0:0:0:
256,192,247925,1,0,0:0:0:0:
256,192,248151,1,8,0:0:0:0:
256,192,248377,1,0,0:0:0:0:
256,192,248602,1,12,0:0:0:0:
256,192,249053,1,8,0:0:0:0:
256,192,249279,1,0,0:0:0:0:
256,192,249730,1,0,0:0:0:0:
256,192,249956,1,8,0:0:0:0:
256,192,250407,1,0,0:0:0:0:
256,192,250632,1,0,0:0:0:0:
256,192,250858,1,8,0:0:0:0:
256,192,251196,1,8,0:0:0:0:
256,192,251309,1,8,0:0:0:0:
256,192,251535,1,0,0:0:0:0:
256,192,251760,1,8,0:0:0:0:
256,192,251873,1,8,0:0:0:0:
256,192,251986,1,8,0:0:0:0:
256,192,252211,5,4,0:0:0:0:
256,192,252662,1,8,0:0:0:0:
256,192,252888,1,0,0:0:0:0:
256,192,253339,1,0,0:0:0:0:
256,192,253565,1,8,0:0:0:0:
256,192,254016,1,0,0:0:0:0:
256,192,254241,1,8,0:0:0:0:
256,192,254354,1,8,0:0:0:0:
256,192,254467,1,8,0:0:0:0:
256,192,254692,1,8,0:0:0:0:
256,192,255369,1,0,0:0:0:0:
256,192,255595,1,8,0:0:0:0:
256,192,255820,1,4,0:0:0:0:
256,192,256271,1,8,0:0:0:0:
256,192,256497,1,0,0:0:0:0:
256,192,256948,1,0,0:0:0:0:
256,192,257174,1,8,0:0:0:0:
256,192,257625,1,0,0:0:0:0:
256,192,257850,1,8,0:0:0:0:
256,192,257963,1,8,0:0:0:0:
256,192,258076,1,8,0:0:0:0:
256,192,258301,1,8,0:0:0:0:
256,192,258527,1,0,0:0:0:0:
256,192,258753,1,0,0:0:0:0:
256,192,258978,1,8,0:0:0:0:
256,192,259429,1,8,0:0:0:0:
256,192,259880,1,8,0:0:0:0:
256,192,260331,1,0,0:0:0:0:
256,192,260557,1,0,0:0:0:0:
256,192,260783,1,8,0:0:0:0:
256,192,261008,1,12,0:0:0:0:
256,192,261459,1,4,0:0:0:0:
256,192,261685,1,4,0:0:0:0:
256,192,262136,1,8,0:0:0:0:
256,192,262474,1,8,0:0:0:0:
256,192,262587,1,8,0:0:0:0:
256,192,262813,1,0,0:0:0:0:
256,192,263038,1,4,0:0:0:0:
256,192,263715,1,8,0:0:0:0:
256,192,264166,1,0,0:0:0:0:
256,192,264392,1,8,0:0:0:0:
256,192,264843,1,8,0:0:0:0:
256,192,265181,1,0,0:0:0:0:
256,192,265519,1,8,0:0:0:0:
256,192,265745,1,0,0:0:0:0:
256,192,265971,1,0,0:0:0:0:
256,192,266196,1,8,0:0:0:0:
256,192,266647,1,0,0:0:0:0:
256,192,267098,1,8,0:0:0:0:
256,192,267324,1,8,0:0:0:0:
256,192,267550,1,0,0:0:0:0:
256,192,267775,1,8,0:0:0:0:
256,192,268226,1,8,0:0:0:0:
256,192,268677,1,8,0:0:0:0:
256,192,268903,1,0,0:0:0:0:
256,192,269128,1,8,0:0:0:0:
256,192,269354,1,0,0:0:0:0:
256,192,269580,1,8,0:0:0:0:
256,192,269692,1,8,0:0:0:0:
256,192,269805,1,8,0:0:0:0:
256,192,270031,1,0,0:0:0:0:
256,192,270256,5,0,0:0:0:0:
256,192,270933,1,8,0:0:0:0:
256,192,271384,1,0,0:0:0:0:
256,192,271610,1,8,0:0:0:0:
256,192,272061,1,8,0:0:0:0:
256,192,272399,1,0,0:0:0:0:
256,192,272512,1,8,0:0:0:0:
256,192,272738,1,0,0:0:0:0:
256,192,272963,1,8,0:0:0:0:
256,192,273301,1,0,0:0:0:0:
256,192,273640,1,8,0:0:0:0:
256,192,273865,1,0,0:0:0:0:
256,192,274316,1,8,0:0:0:0:
256,192,274542,1,0,0:0:0:0:
256,192,274768,1,8,0:0:0:0:
256,192,274880,1,8,0:0:0:0:
256,192,274993,1,8,0:0:0:0:
256,192,275219,1,0,0:0:0:0:
256,192,275444,1,12,0:0:0:0:
256,192,275895,1,4,0:0:0:0:
256,192,276121,1,4,0:0:0:0:
256,192,276572,1,0,0:0:0:0:
256,192,276798,1,8,0:0:0:0:
256,192,276910,1,8,0:0:0:0:
256,192,277023,1,8,0:0:0:0:
256,192,277249,1,0,0:0:0:0:
256,192,277474,5,4,0:0:0:0:
256,192,278377,1,0,0:0:0:0:
256,192,278602,1,0,0:0:0:0:
256,192,278828,1,8,0:0:0:0:
256,192,279279,1,8,0:0:0:0:
256,192,279730,1,8,0:0:0:0:
256,192,279956,1,0,0:0:0:0:
256,192,280407,1,0,0:0:0:0:
256,192,280632,1,8,0:0:0:0:
256,192,281083,1,0,0:0:0:0:
256,192,281309,1,8,0:0:0:0:
256,192,281422,1,8,0:0:0:0:
256,192,281760,1,0,0:0:0:0:
256,192,281986,1,0,0:0:0:0:
256,192,282437,1,8,0:0:0:0:
256,192,282888,1,0,0:0:0:0:
256,192,283339,1,8,0:0:0:0:
256,192,283565,1,8,0:0:0:0:
256,192,283790,1,0,0:0:0:0:
256,192,284016,1,0,0:0:0:0:
256,192,284241,1,8,0:0:0:0:
256,192,284692,1,0,0:0:0:0:
256,192,285144,1,8,0:0:0:0:
256,192,285369,1,0,0:0:0:0:
256,192,285595,1,0,0:0:0:0:
256,192,285820,1,0,0:0:0:0:
256,192,286046,1,8,0:0:0:0:
256,192,286497,1,8,0:0:0:0:
256,192,286948,1,8,0:0:0:0:
256,192,287174,1,0,0:0:0:0:
256,192,287399,1,0,0:0:0:0:
256,192,287625,1,8,0:0:0:0:
256,192,287850,1,8,0:0:0:0:
256,192,288076,1,0,0:0:0:0:
256,192,288301,1,8,0:0:0:0:
256,192,288978,1,0,0:0:0:0:
256,192,289204,1,0,0:0:0:0:
256,192,289655,1,8,0:0:0:0:
256,192,289880,1,0,0:0:0:0:
256,192,290331,1,8,0:0:0:0:
256,192,290557,1,8,0:0:0:0:
256,192,290783,1,0,0:0:0:0:
256,192,291234,1,8,0:0:0:0:
256,192,291910,5,12,0:0:0:0:
256,192,292587,1,0,0:0:0:0:
256,192,292813,1,0,0:0:0:0:
256,192,293264,1,8,0:0:0:0:
256,192,293715,1,0,0:0:0:0:
256,192,294392,1,0,0:0:0:0:
256,192,294617,1,8,0:0:0:0:
256,192,294956,1,0,0:0:0:0:
256,192,295294,1,8,0:0:0:0:
256,192,295519,1,0,0:0:0:0:
256,192,296196,1,0,0:0:0:0:
256,192,296422,1,0,0:0:0:0:
256,192,296873,1,8,0:0:0:0:
256,192,297098,1,0,0:0:0:0:
256,192,297324,1,8,0:0:0:0:
256,192,298226,1,0,0:0:0:0:
256,192,298452,1,8,0:0:0:0:
256,192,298677,1,8,0:0:0:0:
256,192,298903,1,8,0:0:0:0:
256,192,299128,1,0,0:0:0:0:
256,192,299580,1,8,0:0:0:0:
256,192,299805,1,0,0:0:0:0:
256,192,300031,1,0,0:0:0:0:
256,192,300482,1,8,0:0:0:0:
256,192,300707,1,0,0:0:0:0:
256,192,301384,1,8,0:0:0:0:
256,192,301835,1,0,0:0:0:0:
256,192,302061,1,0,0:0:0:0:
256,192,302286,1,8,0:0:0:0:
256,192,302738,1,0,0:0:0:0:
256,192,302963,1,8,0:0:0:0:
256,192,303189,1,8,0:0:0:0:
256,192,303414,1,0,0:0:0:0:
256,192,303640,1,8,0:0:0:0:
256,192,304091,1,0,0:0:0:0:
256,192,304316,1,12,0:0:0:0:
256,192,304768,1,8,0:0:0:0:
256,192,304993,1,0,0:0:0:0:
256,192,305219,1,12,0:0:0:0:
256,192,305670,1,12,0:0:0:0:
256,192,305895,1,8,0:0:0:0:
256,192,306008,1,8,0:0:0:0:
256,192,306121,1,8,0:0:0:0:
256,192,306347,5,4,0:0:0:0:
256,192,307136,1,8,0:0:0:0:
256,192,307249,1,8,0:0:0:0:
256,192,307474,1,0,0:0:0:0:
256,192,307700,1,8,0:0:0:0:
256,192,308151,1,8,0:0:0:0:
256,192,308602,1,8,0:0:0:0:
256,192,308828,1,8,0:0:0:0:
256,192,309053,1,0,0:0:0:0:
256,192,309279,1,0,0:0:0:0:
256,192,309504,1,8,0:0:0:0:
256,192,309956,1,0,0:0:0:0:
256,192,310181,1,8,0:0:0:0:
256,192,310294,1,8,0:0:0:0:
256,192,310632,1,0,0:0:0:0:
256,192,310858,1,8,0:0:0:0:
256,192,311309,1,8,0:0:0:0:
256,192,311535,1,0,0:0:0:0:
256,192,311760,1,8,0:0:0:0:
256,192,312211,1,8,0:0:0:0:
256,192,312437,1,0,0:0:0:0:
256,192,313113,1,8,0:0:0:0:
256,192,313339,1,0,0:0:0:0:
256,192,313452,1,0,0:0:0:0:
256,192,313565,1,0,0:0:0:0:
256,192,314016,1,8,0:0:0:0:
256,192,314241,1,0,0:0:0:0:
256,192,314692,1,0,0:0:0:0:
256,192,314918,1,8,0:0:0:0:
256,192,315369,1,8,0:0:0:0:
256,192,315595,1,0,0:0:0:0:
256,192,315820,1,8,0:0:0:0:
256,192,316046,1,8,0:0:0:0:
256,192,316497,1,8,0:0:0:0:
256,192,316722,1,0,0:0:0:0:
256,192,316948,1,8,0:0:0:0:
256,192,317061,1,8,0:0:0:0:
256,192,317174,1,8,0:0:0:0:
256,192,317850,1,0,0:0:0:0:
256,192,318076,1,0,0:0:0:0:
256,192,318527,1,0,0:0:0:0:
256,192,318753,1,12,0:0:0:0:
256,192,319204,1,8,0:0:0:0:
256,192,319429,1,0,0:0:0:0:
256,192,319655,1,8,0:0:0:0:
256,192,320106,1,8,0:0:0:0:
256,192,320331,1,8,0:0:0:0:
256,192,320557,1,0,0:0:0:0:
256,192,320783,5,12,0:0:0:0:
256,192,321459,1,0,0:0:0:0:
256,192,321685,1,0,0:0:0:0:
256,192,322136,1,8,0:0:0:0:
256,192,322587,1,0,0:0:0:0:
256,192,323264,1,0,0:0:0:0:
256,192,323489,1,8,0:0:0:0:
256,192,323828,1,8,0:0:0:0:
256,192,323941,1,8,0:0:0:0:
256,192,324166,1,8,0:0:0:0:
256,192,324392,1,0,0:0:0:0:
256,192,325068,1,0,0:0:0:0:
256,192,325294,1,0,0:0:0:0:
251,188,325745,1,8,0:0:0:0:
251,188,325971,1,0,0:0:0:0:
256,192,326196,1,8,0:0:0:0:
256,192,327098,1,0,0:0:0:0:
256,192,327324,1,8,0:0:0:0:
256,192,327437,1,8,0:0:0:0:
256,192,327550,1,8,0:0:0:0:
256,192,327775,1,0,0:0:0:0:
256,192,328001,1,8,0:0:0:0:
256,192,328452,1,8,0:0:0:0:
256,192,328903,1,0,0:0:0:0:
256,192,329128,1,0,0:0:0:0:
256,192,329354,1,8,0:0:0:0:
256,192,329580,1,0,0:0:0:0:
256,192,330031,1,0,0:0:0:0:
256,192,330256,1,8,0:0:0:0:
256,192,330482,1,8,0:0:0:0:
256,192,330707,1,0,0:0:0:0:
256,192,331159,1,8,0:0:0:0:
256,192,331384,1,0,0:0:0:0:
256,192,331497,1,0,0:0:0:0:
256,192,331610,1,0,0:0:0:0:
256,192,332061,1,8,0:0:0:0:
256,192,332286,1,0,0:0:0:0:
256,192,332512,1,8,0:0:0:0:
256,192,332625,1,8,0:0:0:0:
256,192,332738,1,8,0:0:0:0:
256,192,332963,1,0,0:0:0:0:
256,192,333189,1,12,0:0:0:0:
256,192,333640,1,12,0:0:0:0:
256,192,333865,1,12,0:0:0:0:
256,192,334542,1,8,0:0:0:0:
256,192,334655,1,8,0:0:0:0:
256,192,334768,1,8,0:0:0:0:
256,192,334993,1,0,0:0:0:0:
256,192,335219,5,12,0:0:0:0:
256,192,335670,1,8,0:0:0:0:
256,192,335895,1,0,0:0:0:0:
256,192,336347,1,0,0:0:0:0:
256,192,336572,1,8,0:0:0:0:
256,192,337023,1,0,0:0:0:0:
256,192,337249,1,8,0:0:0:0:
256,192,337362,1,8,0:0:0:0:
256,192,337474,1,8,0:0:0:0:
256,192,337700,1,8,0:0:0:0:
256,192,338151,1,0,0:0:0:0:
256,192,338377,1,8,0:0:0:0:
256,192,338602,1,0,0:0:0:0:
256,192,338828,1,4,0:0:0:0:
256,192,339279,1,8,0:0:0:0:
256,192,339504,1,0,0:0:0:0:
256,192,339956,1,0,0:0:0:0:
256,192,340181,1,8,0:0:0:0:
256,192,340632,1,0,0:0:0:0:
256,192,340858,1,8,0:0:0:0:
256,192,340971,1,8,0:0:0:0:
256,192,341083,1,8,0:0:0:0:
256,192,341309,1,8,0:0:0:0:
256,192,341986,1,8,0:0:0:0:
256,192,342211,1,0,0:0:0:0:
256,192,342437,1,0,0:0:0:0:
256,192,342888,1,8,0:0:0:0:
256,192,343113,1,0,0:0:0:0:
256,192,343339,1,0,0:0:0:0:
256,192,343565,1,0,0:0:0:0:
256,192,343790,1,8,0:0:0:0:
256,192,344016,1,4,0:0:0:0:
256,192,344692,1,8,0:0:0:0:
256,192,345144,1,0,0:0:0:0:
256,192,345369,1,0,0:0:0:0:
256,192,345595,1,8,0:0:0:0:
256,192,345820,1,0,0:0:0:0:
256,192,346046,1,12,0:0:0:0:
256,192,346497,1,8,0:0:0:0:
256,192,346722,1,0,0:0:0:0:
256,192,347174,1,0,0:0:0:0:
256,192,347399,1,8,0:0:0:0:
256,192,347850,1,0,0:0:0:0:
256,192,348076,1,0,0:0:0:0:
256,192,348301,1,8,0:0:0:0:
256,192,348640,1,8,0:0:0:0:
256,192,348753,1,8,0:0:0:0:
256,192,348978,1,0,0:0:0:0:
256,192,349204,1,8,0:0:0:0:
256,192,349316,1,8,0:0:0:0:
256,192,349429,1,8,0:0:0:0:
256,192,349655,5,4,0:0:0:0:
256,192,350106,1,8,0:0:0:0:
256,192,350331,1,0,0:0:0:0:
256,192,350783,1,0,0:0:0:0:
256,192,351008,1,8,0:0:0:0:
256,192,351459,1,0,0:0:0:0:
256,192,351685,1,8,0:0:0:0:
256,192,351798,1,8,0:0:0:0:
256,192,351910,1,8,0:0:0:0:
256,192,352136,1,8,0:0:0:0:
256,192,352813,1,0,0:0:0:0:
256,192,353038,1,8,0:0:0:0:
256,192,353264,1,4,0:0:0:0:
256,192,353715,1,8,0:0:0:0:
256,192,353941,1,0,0:0:0:0:
256,192,354392,1,0,0:0:0:0:
256,192,354617,1,8,0:0:0:0:
256,192,355068,1,0,0:0:0:0:
256,192,355294,1,8,0:0:0:0:
256,192,355407,1,8,0:0:0:0:
256,192,355519,1,8,0:0:0:0:
256,192,355745,1,8,0:0:0:0:
256,192,356422,1,8,0:0:0:0:
256,192,356647,1,0,0:0:0:0:
256,192,356873,1,8,0:0:0:0:
256,192,357324,1,8,0:0:0:0:
256,192,357775,1,0,0:0:0:0:
256,192,358001,1,0,0:0:0:0:
256,192,358226,1,8,0:0:0:0:
256,192,358452,1,12,0:0:0:0:
256,192,358903,1,4,0:0:0:0:
256,192,359128,1,4,0:0:0:0:
256,192,359580,1,8,0:0:0:0:
256,192,359918,1,8,0:0:0:0:
256,192,360031,1,8,0:0:0:0:
256,192,360256,1,0,0:0:0:0:
256,192,360482,5,4,0:0:0:0:
256,192,360820,1,8,0:0:0:0:
256,192,360933,1,8,0:0:0:0:
256,192,361159,1,0,0:0:0:0:
256,192,361271,1,0,0:0:0:0:
256,192,361384,1,0,0:0:0:0:
256,192,361610,1,8,0:0:0:0:
256,192,362061,1,0,0:0:0:0:
256,192,362738,1,8,0:0:0:0:
256,192,363189,1,0,0:0:0:0:
256,192,363414,1,8,0:0:0:0:
256,192,363527,1,8,0:0:0:0:
256,192,363640,1,8,0:0:0:0:
256,192,364091,1,4,0:0:0:0:
249,196,364429,1,8,0:0:0:0:
256,192,364542,1,8,0:0:0:0:
256,192,364768,1,0,0:0:0:0:
256,192,364880,1,0,0:0:0:0:
256,192,364993,1,0,0:0:0:0:
256,192,365219,1,8,0:0:0:0:
256,192,365670,1,8,0:0:0:0:
256,192,365895,1,0,0:0:0:0:
256,192,366347,1,8,0:0:0:0:
256,192,366572,1,0,0:0:0:0:
256,192,367023,1,8,0:0:0:0:
256,192,367249,1,8,0:0:0:0:
256,192,367474,1,0,0:0:0:0:
256,192,367700,1,4,0:0:0:0:
256,192,368377,1,4,0:0:0:0:
256,192,369053,1,12,0:0:0:0:
256,192,369730,1,4,0:0:0:0:
256,192,370407,1,4,0:0:0:0:
256,192,370858,1,12,0:0:0:0:
256,192,371309,1,12,0:0:0:0:
256,192,371986,1,4,0:0:0:0:
256,192,372662,1,12,0:0:0:0:
256,192,373339,1,4,0:0:0:0:
256,192,374016,1,12,0:0:0:0:
256,192,374467,1,12,0:0:0:0:
256,192,374918,5,4,0:0:0:0:
256,192,375707,1,8,0:0:0:0:
256,192,375820,1,8,0:0:0:0:
256,192,376046,1,0,0:0:0:0:
256,192,376271,1,8,0:0:0:0:
256,192,376722,1,8,0:0:0:0:
256,192,377174,1,8,0:0:0:0:
256,192,377399,1,0,0:0:0:0:
256,192,377850,1,8,0:0:0:0:
256,192,378076,1,8,0:0:0:0:
256,192,378527,1,0,0:0:0:0:
256,192,378753,1,8,0:0:0:0:
256,192,378865,1,8,0:0:0:0:
256,192,379204,1,8,0:0:0:0:
256,192,379429,1,8,0:0:0:0:
256,192,379880,1,8,0:0:0:0:
256,192,380106,1,0,0:0:0:0:
256,192,380331,1,8,0:0:0:0:
256,192,380783,1,8,0:0:0:0:
256,192,381008,1,0,0:0:0:0:
256,192,381685,1,8,0:0:0:0:
256,192,381910,1,0,0:0:0:0:
256,192,382023,1,0,0:0:0:0:
256,192,382136,1,0,0:0:0:0:
256,192,382587,1,8,0:0:0:0:
256,192,382813,1,0,0:0:0:0:
256,192,383264,1,0,0:0:0:0:
256,192,383489,1,8,0:0:0:0:
256,192,383941,1,8,0:0:0:0:
256,192,384166,1,0,0:0:0:0:
256,192,384392,1,0,0:0:0:0:
256,192,384617,1,8,0:0:0:0:
256,192,385068,1,8,0:0:0:0:
256,192,385294,1,0,0:0:0:0:
256,192,385519,1,8,0:0:0:0:
256,192,385632,1,8,0:0:0:0:
256,192,385745,1,8,0:0:0:0:
256,192,386422,1,0,0:0:0:0:
256,192,386647,1,0,0:0:0:0:
256,192,387098,1,0,0:0:0:0:
256,192,387324,1,12,0:0:0:0:
256,192,387775,1,8,0:0:0:0:
256,192,388001,1,0,0:0:0:0:
256,192,388226,1,8,0:0:0:0:
256,192,388677,1,8,0:0:0:0:
256,192,388903,1,8,0:0:0:0:
256,192,389128,1,0,0:0:0:0:
256,192,389354,5,12,0:0:0:0:
256,192,390031,1,0,0:0:0:0:
256,192,390256,1,0,0:0:0:0:
256,192,390707,1,8,0:0:0:0:
256,192,391159,1,0,0:0:0:0:
256,192,391835,1,0,0:0:0:0:
256,192,392061,1,8,0:0:0:0:
256,192,392399,1,8,0:0:0:0:
256,192,392512,1,8,0:0:0:0:
256,192,392738,1,0,0:0:0:0:
256,192,392963,1,0,0:0:0:0:
256,192,393640,1,0,0:0:0:0:
256,192,393865,1,0,0:0:0:0:
251,188,394316,1,8,0:0:0:0:
251,188,394542,1,0,0:0:0:0:
256,192,394768,1,8,0:0:0:0:
256,192,395670,1,0,0:0:0:0:
256,192,395895,1,8,0:0:0:0:
256,192,396008,1,8,0:0:0:0:
256,192,396121,1,8,0:0:0:0:
256,192,396347,1,0,0:0:0:0:
256,192,396572,1,8,0:0:0:0:
256,192,397023,1,8,0:0:0:0:
256,192,397474,1,0,0:0:0:0:
256,192,397700,1,0,0:0:0:0:
256,192,397925,1,8,0:0:0:0:
256,192,398151,1,0,0:0:0:0:
256,192,398602,1,0,0:0:0:0:
256,192,398828,1,8,0:0:0:0:
256,192,399053,1,8,0:0:0:0:
256,192,399279,1,0,0:0:0:0:
256,192,399730,1,8,0:0:0:0:
256,192,399956,1,0,0:0:0:0:
256,192,400068,1,0,0:0:0:0:
256,192,400181,1,0,0:0:0:0:
256,192,400632,1,8,0:0:0:0:
256,192,400858,1,0,0:0:0:0:
256,192,401083,1,8,0:0:0:0:
256,192,401196,1,8,0:0:0:0:
256,192,401309,1,8,0:0:0:0:
256,192,401534,1,0,0:0:0:0:
256,192,401760,1,12,0:0:0:0:
256,192,402211,1,12,0:0:0:0:
256,192,402437,1,12,0:0:0:0:
256,201,403113,1,8,0:0:0:0:
256,192,403226,1,8,0:0:0:0:
256,192,403339,1,8,0:0:0:0:
256,192,403565,1,0,0:0:0:0:
256,192,403790,5,12,0:0:0:0:
256,192,404241,1,8,0:0:0:0:
256,192,404467,1,0,0:0:0:0:
256,192,404918,1,0,0:0:0:0:
256,192,405144,1,8,0:0:0:0:
256,192,405595,1,0,0:0:0:0:
256,192,405820,1,8,0:0:0:0:
256,192,405933,1,8,0:0:0:0:
256,192,406046,1,8,0:0:0:0:
256,192,406271,1,8,0:0:0:0:
256,192,406722,1,8,0:0:0:0:
256,192,406948,1,0,0:0:0:0:
256,192,407174,1,8,0:0:0:0:
256,192,407399,1,4,0:0:0:0:
256,192,407850,1,8,0:0:0:0:
256,192,408076,1,0,0:0:0:0:
256,192,408527,1,0,0:0:0:0:
256,192,408753,1,8,0:0:0:0:
256,192,409204,1,0,0:0:0:0:
256,192,409429,1,8,0:0:0:0:
256,192,409542,1,8,0:0:0:0:
256,192,409655,1,8,0:0:0:0:
256,192,409880,1,8,0:0:0:0:
256,192,410331,1,0,0:0:0:0:
256,192,410557,1,8,0:0:0:0:
256,192,411008,1,0,0:0:0:0:
256,192,411459,1,8,0:0:0:0:
256,192,411685,1,0,0:0:0:0:
256,192,411910,1,0,0:0:0:0:
256,192,412136,1,0,0:0:0:0:
256,192,412362,1,8,0:0:0:0:
256,192,412587,1,4,0:0:0:0:
256,192,413264,1,8,0:0:0:0:
256,192,413715,1,0,0:0:0:0:
256,192,413941,1,0,0:0:0:0:
256,192,414166,1,8,0:0:0:0:
256,192,414392,1,0,0:0:0:0:
256,192,414617,1,12,0:0:0:0:
256,192,415068,1,8,0:0:0:0:
256,192,415294,1,0,0:0:0:0:
256,192,415519,1,0,0:0:0:0:
256,192,415745,1,0,0:0:0:0:
256,192,415971,1,8,0:0:0:0:
256,192,416422,1,0,0:0:0:0:
256,192,416647,1,0,0:0:0:0:
256,192,416873,1,8,0:0:0:0:
256,192,417211,1,8,0:0:0:0:
256,192,417324,1,8,0:0:0:0:
256,192,417550,1,0,0:0:0:0:
256,192,417775,1,8,0:0:0:0:
256,192,417888,1,8,0:0:0:0:
256,192,418001,1,8,0:0:0:0:
256,192,418226,5,4,0:0:0:0:
256,192,418677,1,8,0:0:0:0:
256,192,418903,1,0,0:0:0:0:
256,192,419354,1,0,0:0:0:0:
256,192,419580,1,8,0:0:0:0:
256,192,420031,1,0,0:0:0:0:
256,192,420256,1,8,0:0:0:0:
256,192,420369,1,8,0:0:0:0:
256,192,420482,1,8,0:0:0:0:
256,192,420707,1,8,0:0:0:0:
256,192,421384,1,0,0:0:0:0:
256,192,421610,1,8,0:0:0:0:
256,192,421835,1,4,0:0:0:0:
256,192,422286,1,8,0:0:0:0:
256,192,422512,1,0,0:0:0:0:
256,192,422963,1,0,0:0:0:0:
256,192,423189,1,8,0:0:0:0:
256,192,423640,1,0,0:0:0:0:
256,192,423865,1,8,0:0:0:0:
256,192,423978,1,8,0:0:0:0:
256,192,424091,1,8,0:0:0:0:
256,192,424316,1,8,0:0:0:0:
256,192,424542,1,0,0:0:0:0:
256,192,424768,1,0,0:0:0:0:
256,192,424993,1,8,0:0:0:0:
256,192,425444,1,8,0:0:0:0:
256,192,425895,1,8,0:0:0:0:
256,192,426121,1,0,0:0:0:0:
256,192,426234,1,0,0:0:0:0:
256,192,426347,1,0,0:0:0:0:
256,192,426572,1,0,0:0:0:0:
256,192,426798,1,8,0:0:0:0:
256,192,427023,1,12,0:0:0:0:
256,192,427474,1,4,0:0:0:0:
256,192,427700,1,4,0:0:0:0:
256,192,428151,1,8,0:0:0:0:
256,192,428489,1,8,0:0:0:0:
256,192,428602,1,8,0:0:0:0:
256,192,428828,1,0,0:0:0:0:
256,192,429053,5,4,0:0:0:0:
256,192,429730,1,8,0:0:0:0:
256,192,430181,1,0,0:0:0:0:
256,192,430407,1,8,0:0:0:0:
256,192,430858,1,8,0:0:0:0:
256,192,431196,1,0,0:0:0:0:
256,192,431534,1,8,0:0:0:0:
256,192,431760,1,0,0:0:0:0:
256,192,431986,1,0,0:0:0:0:
256,192,432211,1,8,0:0:0:0:
256,192,432662,1,0,0:0:0:0:
256,192,433113,1,8,0:0:0:0:
256,192,433339,1,8,0:0:0:0:
256,192,433565,1,0,0:0:0:0:
256,192,433790,1,8,0:0:0:0:
256,192,434241,1,8,0:0:0:0:
256,192,434918,1,0,0:0:0:0:
256,192,435144,1,8,0:0:0:0:
256,192,435369,1,0,0:0:0:0:
256,192,435707,1,8,0:0:0:0:
256,192,435820,1,8,0:0:0:0:
256,192,436046,1,8,0:0:0:0:
256,192,436271,5,0,0:0:0:0:
256,192,436948,1,8,0:0:0:0:
256,192,437399,1,0,0:0:0:0:
256,192,437625,1,8,0:0:0:0:
256,192,438076,1,8,0:0:0:0:
256,192,438414,1,8,0:0:0:0:
256,192,438527,1,8,0:0:0:0:
256,192,438753,1,0,0:0:0:0:
256,192,438978,1,8,0:0:0:0:
256,192,439316,1,0,0:0:0:0:
256,192,439655,1,8,0:0:0:0:
256,192,439880,1,0,0:0:0:0:
256,192,440331,1,8,0:0:0:0:
256,192,440557,1,0,0:0:0:0:
256,192,441008,1,8,0:0:0:0:
256,192,441234,1,0,0:0:0:0:
256,192,441459,1,8,0:0:0:0:
256,192,442136,1,0,0:0:0:0:
256,192,442362,1,0,0:0:0:0:
256,192,442587,1,8,0:0:0:0:
256,192,442925,1,8,0:0:0:0:
256,192,443038,1,0,0:0:0:0:
256,192,443264,1,8,0:0:0:0:
256,192,443489,1,12,0:0:0:0:
256,192,443715,12,0,447098,0:0:0:0:
