osu file format v14

[General]
AudioFilename: audio.mp3
AudioLeadIn: 0
PreviewTime: 53676
Countdown: 0
SampleSet: Drum
StackLeniency: 0.7
Mode: 3
LetterboxInBreaks: 0
SpecialStyle: 0
WidescreenStoryboard: 1

[Editor]
Bookmarks: 555,5237,14603,16798,26457,35676,45042,49725,54262,75481,84847,94067,103579,112945,122164,168994,190213
DistanceSpacing: 0.7
BeatDivisor: 4
GridSize: 4
TimelineZoom: 1.900006

[Metadata]
Title:The Order...
TitleUnicode:The Order...
Artist:Yuuki Noa (CV: Kanako)
ArtistUnicode:結城希亜 (CV: 夏和小)
Creator:Drum-Hitnormal
Version:Parfait Queen
Source:9-nine-ゆきいろゆきはなゆきのあと
Tags:Antipole Symmatrix- Yukiiro Yukihana Yukinoato Episode 4 Palette Character Song 藤田茜 Fujita Akane Sound Premium Record Japanese pop visual novel vn eroge galge punishment dudehacker yuki noa rock jrock j-rock
BeatmapID:3356625
BeatmapSetID:1644396

[Difficulty]
HPDrainRate:8
CircleSize:4
OverallDifficulty:8
ApproachRate:5
SliderMultiplier:1.4
SliderTickRate:1

[Events]
//Background and Video events
0,0,"the order.jpg",0,0
//Break Periods
//Storyboard Layer 0 (Background)
//Storyboard Layer 1 (Fail)
//Storyboard Layer 2 (Pass)
//Storyboard Layer 3 (Foreground)
//Storyboard Layer 4 (Overlay)
//Storyboard Sound Samples
Sample,35384,0,"Tom2.wav",70
Sample,58798,0,"LR_Snare Drum .wav",70
Sample,103286,0,"Tom2.wav",70
Sample,119676,0,"Tom1.wav",70
Sample,149823,0,"LR_Snare Drum .wav",70
Sample,173530,0,"LR_Snare Drum .wav",70
Sample,187579,0,"LR_Snare Drum .wav",70

[TimingPoints]
555,292.682926829268,4,3,1,70,1,0
54262,-100,4,3,1,70,0,1
75481,-100,4,3,1,70,0,0
122164,-100,4,3,1,70,0,1
140896,-100,4,3,1,70,0,0
163140,-200,4,3,1,70,0,0
163286,-66.6666666666667,4,3,1,70,0,0
163433,-200,4,3,1,70,0,0
163579,-66.6666666666667,4,3,1,70,0,0
163725,-142.857142857143,4,3,1,70,0,0
163798,-76.9230769230769,4,3,1,70,0,0
163872,-142.857142857143,4,3,1,70,0,0
163945,-76.9230769230769,4,3,1,70,0,0
164018,-100,4,3,1,70,0,0
168994,-100,4,3,1,70,0,1
190213,-100,4,3,1,70,0,0

[HitObjects]
64,192,555,128,2,774:0:0:0:0:
320,192,555,128,0,774:0:0:0:70:CrashRight.wav
448,192,555,128,0,774:0:0:0:0:
64,192,847,128,2,1067:0:0:0:0:
192,192,847,128,0,1067:0:0:0:70:CrashRight.wav
320,192,847,128,0,1067:0:0:0:0:
192,192,1140,128,2,1359:0:0:0:0:
320,192,1140,128,0,1359:0:0:0:70:CrashRight.wav
448,192,1140,128,0,1359:0:0:0:0:
64,192,1433,128,2,1652:0:0:0:0:
192,192,1433,128,0,1652:0:0:0:70:CrashRight.wav
448,192,1433,128,0,1652:0:0:0:0:
64,192,1725,1,8,0:0:0:0:
192,192,1725,1,0,0:0:0:0:
320,192,1798,1,8,0:0:0:0:
448,192,1798,1,0,0:0:0:0:
64,192,1872,1,2,0:0:0:0:
192,192,1872,1,0,0:0:0:0:
320,192,1945,1,2,0:0:0:0:
448,192,1945,1,0,0:0:0:0:
64,192,2018,1,0,0:0:0:70:Tom2.wav
192,192,2018,1,0,0:0:0:0:
448,192,2091,1,0,0:0:0:70:Tom2.wav
320,192,2164,1,2,0:0:0:0:
192,192,2237,1,2,0:0:0:0:
64,192,2311,1,8,0:0:0:0:
448,192,2311,1,0,0:0:0:0:
192,192,2384,1,0,0:0:0:70:Tom2.wav
320,192,2457,1,2,0:0:0:0:
192,192,2530,1,0,0:0:0:70:Tom2.wav
64,192,2603,128,8,2823:0:0:0:0:
320,192,2603,128,0,2823:0:0:0:70:CrashRight.wav
448,192,2603,128,0,2823:0:0:0:0:
64,192,2896,128,2,3481:0:0:0:0:
192,192,2896,128,0,3481:0:0:0:70:CrashRight.wav
448,192,2896,1,0,0:0:0:0:
320,192,3042,1,0,0:0:0:0:
448,192,3189,1,0,0:0:0:0:
320,192,3335,1,0,0:0:0:0:
448,192,3481,1,0,0:0:0:0:
64,192,3774,1,0,0:0:0:0:
192,192,3847,1,0,0:0:0:0:
64,192,3920,1,0,0:0:0:0:
192,192,3994,1,0,0:0:0:0:
448,192,4067,1,0,0:0:0:0:
320,192,4140,1,0,0:0:0:0:
448,192,4213,1,0,0:0:0:0:
320,192,4286,1,0,0:0:0:0:
192,192,4359,1,0,0:0:0:0:
64,192,4506,1,2,0:0:0:0:
448,192,4506,1,0,0:0:0:0:
192,192,4554,1,2,0:0:0:0:
320,192,4603,1,2,0:0:0:0:
64,192,4652,128,8,5164:0:0:0:0:
192,192,4652,1,0,0:0:0:0:
448,192,4652,128,0,5164:0:0:0:0:
320,192,4945,128,0,5164:0:0:0:0:
64,192,5237,1,2,0:0:0:0:
192,192,5237,128,0,5530:0:0:0:70:CrashRight.wav
448,192,5237,1,0,0:0:0:0:
320,192,5384,128,0,5530:0:0:0:0:
64,192,5530,128,8,5823:0:0:0:0:
448,192,5530,1,0,0:0:0:0:
320,192,5676,128,4,5823:0:0:0:0:
192,192,5823,128,2,5896:0:0:0:0:
448,192,5823,128,0,6115:0:0:0:0:
192,192,5969,128,4,6115:0:0:0:0:
64,192,6115,1,8,0:0:0:0:
320,192,6115,1,0,0:0:0:0:
64,192,6262,128,4,6554:0:0:0:0:
192,192,6408,1,2,0:0:0:0:
320,192,6408,128,0,6554:0:0:0:0:
448,192,6554,128,4,6847:0:0:0:0:
64,192,6701,1,8,0:0:0:0:
192,192,6701,128,0,6847:0:0:0:0:
320,192,6847,128,4,7140:0:0:0:0:
64,192,6994,128,2,7140:0:0:0:0:
448,192,6994,1,0,0:0:0:0:
192,192,7140,128,4,7286:0:0:0:0:
320,192,7286,128,8,7579:0:0:0:0:
448,192,7286,1,0,0:0:0:0:
64,192,7433,128,4,7579:0:0:0:0:
192,192,7579,128,2,7872:0:0:0:0:
448,192,7579,1,0,0:0:0:0:
320,192,7725,128,4,7872:0:0:0:0:
64,192,7872,128,8,8164:0:0:0:0:
448,192,7872,1,0,0:0:0:0:
320,192,8018,128,4,8164:0:0:0:0:
192,192,8164,128,2,8237:0:0:0:0:
448,192,8164,128,0,8457:0:0:0:0:
192,192,8311,128,4,8457:0:0:0:0:
64,192,8457,1,8,0:0:0:0:
320,192,8457,1,0,0:0:0:0:
64,192,8603,128,4,8896:0:0:0:0:
192,192,8750,1,2,0:0:0:0:
320,192,8750,128,0,8896:0:0:0:0:
448,192,8896,128,4,9189:0:0:0:0:
64,192,9042,1,8,0:0:0:0:
192,192,9042,128,0,9189:0:0:0:0:
320,192,9189,128,4,9481:0:0:0:0:
192,192,9335,128,2,9481:0:0:0:0:
448,192,9335,1,0,0:0:0:0:
64,192,9481,128,4,9774:0:0:0:0:
320,192,9628,1,8,0:0:0:0:
448,192,9628,1,0,0:0:0:0:
192,192,9774,1,4,0:0:0:0:
64,192,9920,1,2,0:0:0:0:
192,192,9920,128,0,10213:0:0:0:70:CrashRight.wav
448,192,9920,1,0,0:0:0:0:
320,192,10067,128,0,10213:0:0:0:0:
64,192,10213,128,8,10506:0:0:0:0:
448,192,10213,1,0,0:0:0:0:
320,192,10359,128,4,10506:0:0:0:0:
192,192,10506,128,2,10579:0:0:0:0:
448,192,10506,128,0,10798:0:0:0:0:
192,192,10652,128,4,10798:0:0:0:0:
64,192,10798,1,8,0:0:0:0:
320,192,10798,1,0,0:0:0:0:
64,192,10945,128,4,11237:0:0:0:0:
192,192,11091,1,2,0:0:0:0:
320,192,11091,128,0,11237:0:0:0:0:
448,192,11237,128,4,11530:0:0:0:0:
64,192,11384,1,8,0:0:0:0:
192,192,11384,128,0,11530:0:0:0:0:
320,192,11530,128,4,11823:0:0:0:0:
64,192,11676,128,2,11823:0:0:0:0:
448,192,11676,1,0,0:0:0:0:
192,192,11823,128,4,11969:0:0:0:0:
320,192,11969,1,8,0:0:0:0:
448,192,11969,1,0,0:0:0:0:
64,192,12115,128,2,12408:0:0:0:0:
192,192,12115,1,0,0:0:0:70:CrashRight.wav
448,192,12115,128,0,12408:0:0:0:0:
192,192,12408,1,2,0:0:0:0:
320,192,12408,1,0,0:0:0:0:
64,192,12554,1,8,0:0:0:0:
320,192,12554,1,0,0:0:0:0:
448,192,12554,1,0,0:0:0:0:
192,192,12701,1,2,0:0:0:0:
448,192,12701,1,0,0:0:0:0:
64,192,12847,1,8,0:0:0:0:
192,192,12847,1,0,0:0:0:0:
320,192,12847,1,0,0:0:0:0:
64,192,12994,1,2,0:0:0:0:
192,192,12994,1,0,0:0:0:0:
320,192,13067,1,2,0:0:0:0:
448,192,13067,1,0,0:0:0:0:
64,192,13140,1,8,0:0:0:0:
192,192,13140,1,0,0:0:0:0:
320,192,13286,1,2,0:0:0:0:
448,192,13286,1,0,0:0:0:0:
64,192,13433,1,8,0:0:0:0:
192,192,13433,1,0,0:0:0:0:
448,192,13433,1,0,0:0:0:0:
320,192,13506,1,0,0:0:0:70:Tom1.wav
192,192,13579,1,2,0:0:0:0:
320,192,13652,1,2,0:0:0:0:
64,192,13725,1,0,0:0:0:70:Tom2.wav
448,192,13725,1,0,0:0:0:0:
192,192,13798,1,0,0:0:0:70:Tom2.wav
320,192,13872,1,2,0:0:0:0:
192,192,13945,1,2,0:0:0:0:
320,192,14018,1,8,0:0:0:0:
448,192,14018,1,0,0:0:0:0:
64,192,14091,1,0,0:0:0:70:Tom1.wav
192,192,14164,1,0,0:0:0:70:Tom2.wav
320,192,14237,1,0,0:0:0:70:Tom3.wav
64,192,14311,1,8,0:0:0:0:
192,192,14311,1,4,0:0:0:0:
448,192,14311,1,0,0:0:0:0:
192,192,14603,1,2,0:0:0:0:
320,192,14603,1,0,0:0:0:70:CrashRight.wav
448,192,14603,128,0,14676:0:0:0:0:
448,192,14750,128,0,14823:0:0:0:0:
64,192,14896,1,2,0:0:0:0:
320,192,14896,128,0,14969:0:0:0:0:
320,192,15042,128,0,15115:0:0:0:0:
448,192,15115,1,0,0:0:0:0:
64,192,15189,128,2,15262:0:0:0:0:
192,192,15189,1,0,0:0:0:0:
64,192,15335,128,0,15408:0:0:0:0:
320,192,15408,1,0,0:0:0:0:
192,192,15481,128,2,15554:0:0:0:0:
448,192,15481,1,0,0:0:0:0:
192,192,15628,128,0,15701:0:0:0:0:
320,192,15701,1,0,0:0:0:0:
64,192,15774,128,4,15920:0:0:0:0:
448,192,15774,128,2,15847:0:0:0:0:
448,192,15920,128,0,15994:0:0:0:0:
64,192,15994,1,0,0:0:0:0:
192,192,16067,128,2,16140:0:0:0:0:
320,192,16067,128,4,16213:0:0:0:0:
192,192,16213,128,4,16286:0:0:0:0:
64,192,16359,1,8,0:0:0:0:
320,192,16359,1,0,0:0:0:70:Tom2.wav
448,192,16359,1,0,0:0:0:0:
64,192,16506,1,8,0:0:0:0:
320,192,16506,1,0,0:0:0:70:Tom2.wav
448,192,16506,1,0,0:0:0:0:
64,192,16798,128,2,17091:0:0:0:0:
192,192,16798,128,0,17091:0:0:0:70:CrashRight.wav
320,192,16798,1,0,0:0:0:0:
320,192,17091,1,2,0:0:0:0:
448,192,17091,1,0,0:0:0:0:
64,192,17237,1,8,0:0:0:0:
192,192,17237,1,0,0:0:0:0:
448,192,17237,1,0,0:0:0:0:
64,192,17823,1,8,0:0:0:0:
320,192,17823,1,0,0:0:0:0:
448,192,17823,1,0,0:0:0:0:
192,192,17969,1,2,0:0:0:0:
320,192,17969,1,0,0:0:0:0:
192,192,18262,1,2,0:0:0:0:
320,192,18262,1,0,0:0:0:0:
64,192,18408,1,8,0:0:0:0:
192,192,18408,1,0,0:0:0:0:
448,192,18408,1,0,0:0:0:0:
320,192,18847,1,2,0:0:0:0:
448,192,18847,1,0,0:0:0:0:
64,192,18994,1,8,0:0:0:0:
192,192,18994,1,0,0:0:0:0:
448,192,18994,1,0,0:0:0:0:
192,192,19140,128,2,19433:0:0:0:0:
320,192,19140,1,0,0:0:0:0:
64,192,19433,1,2,0:0:0:0:
448,192,19433,1,0,0:0:0:0:
64,192,19579,1,8,0:0:0:0:
192,192,19579,1,0,0:0:0:0:
320,192,19579,1,0,0:0:0:0:
64,192,20164,1,8,0:0:0:0:
192,192,20164,1,0,0:0:0:0:
448,192,20164,1,0,0:0:0:0:
192,192,20311,1,2,0:0:0:0:
320,192,20311,1,0,0:0:0:0:
192,192,20603,1,2,0:0:0:0:
320,192,20603,1,0,0:0:0:0:
64,192,20750,1,8,0:0:0:0:
320,192,20750,1,0,0:0:0:0:
448,192,20750,1,0,0:0:0:0:
64,192,21189,1,2,0:0:0:0:
192,192,21189,1,0,0:0:0:0:
64,192,21335,1,8,0:0:0:0:
320,192,21335,1,0,0:0:0:0:
448,192,21335,1,0,0:0:0:0:
192,192,21481,1,2,0:0:0:0:
320,192,21481,128,0,21774:0:0:0:70:CrashRight.wav
448,192,21481,128,0,21774:0:0:0:0:
64,192,21774,1,2,0:0:0:0:
192,192,21774,1,0,0:0:0:0:
64,192,21920,1,8,0:0:0:0:
320,192,21920,1,0,0:0:0:0:
448,192,21920,1,0,0:0:0:0:
192,192,22506,1,8,0:0:0:0:
320,192,22506,1,0,0:0:0:0:
448,192,22506,1,0,0:0:0:0:
64,192,22652,128,2,22945:0:0:0:0:
192,192,22652,128,0,22945:0:0:0:70:CrashRight.wav
448,192,22652,1,0,0:0:0:0:
320,192,22945,1,2,0:0:0:0:
448,192,22945,1,0,0:0:0:0:
64,192,23091,1,8,0:0:0:0:
192,192,23091,1,4,0:0:0:0:
448,192,23091,1,0,0:0:0:0:
320,192,23237,1,2,0:0:0:0:
192,192,23311,1,0,0:0:0:0:
64,192,23384,1,0,0:0:0:70:Tom1.wav
448,192,23384,1,0,0:0:0:0:
320,192,23457,1,0,0:0:0:70:Tom2.wav
192,192,23530,1,2,0:0:0:0:
320,192,23603,1,2,0:0:0:0:
64,192,23676,1,8,0:0:0:0:
192,192,23676,1,0,0:0:0:70:CrashRight.wav
448,192,23676,1,0,0:0:0:0:
64,192,23823,1,2,0:0:0:0:
320,192,23823,1,0,0:0:0:70:CrashRight.wav
192,192,23969,1,0,0:0:0:0:
320,192,24115,1,2,0:0:0:0:
448,192,24115,1,0,0:0:0:0:
64,192,24262,1,8,0:0:0:0:
192,192,24262,1,0,0:0:0:0:
448,192,24262,1,0,0:0:0:0:
320,192,24408,1,0,0:0:0:0:
192,192,24554,1,2,0:0:0:0:
448,192,24554,1,0,0:0:0:0:
320,192,24701,1,0,0:0:0:0:
64,192,24847,1,8,0:0:0:0:
192,192,24847,1,0,0:0:0:0:
448,192,24847,1,0,0:0:0:0:
320,192,24994,1,0,0:0:0:0:
64,192,25140,1,2,0:0:0:0:
192,192,25140,1,0,0:0:0:0:
320,192,25286,1,2,0:0:0:0:
448,192,25286,1,0,0:0:0:0:
64,192,25433,1,8,0:0:0:0:
192,192,25433,1,0,0:0:0:0:
320,192,25433,1,0,0:0:0:0:
448,192,25579,1,0,0:0:0:0:
64,192,25725,1,2,0:0:0:0:
192,192,25725,1,0,0:0:0:0:
320,192,25872,1,2,0:0:0:0:
448,192,25872,1,0,0:0:0:0:
64,192,26018,1,8,0:0:0:0:
192,192,26018,1,0,0:0:0:0:
320,192,26018,1,0,0:0:0:0:
64,192,26164,128,2,26457:0:0:0:0:
192,192,26164,128,0,26457:0:0:0:70:CrashRight.wav
448,192,26164,1,0,0:0:0:0:
320,192,26457,1,2,0:0:0:0:
448,192,26457,1,0,0:0:0:0:
64,192,26603,1,4,0:0:0:0:
192,192,26603,1,8,0:0:0:0:
320,192,26603,1,0,0:0:0:0:
448,192,26750,1,0,0:0:0:0:
192,192,26896,1,0,0:0:0:0:
192,192,27042,1,2,0:0:0:0:
320,192,27042,1,0,0:0:0:0:
64,192,27189,1,8,0:0:0:0:
320,192,27189,1,0,0:0:0:0:
448,192,27189,1,0,0:0:0:0:
192,192,27335,1,0,0:0:0:0:
64,192,27481,1,0,0:0:0:0:
192,192,27628,1,2,0:0:0:0:
320,192,27628,1,0,0:0:0:0:
64,192,27774,1,8,0:0:0:0:
192,192,27774,1,0,0:0:0:0:
448,192,27774,1,0,0:0:0:0:
320,192,27920,1,0,0:0:0:0:
64,192,28067,1,2,0:0:0:0:
192,192,28067,1,0,0:0:0:0:
320,192,28213,1,2,0:0:0:0:
448,192,28213,1,0,0:0:0:0:
64,192,28359,1,8,0:0:0:0:
192,192,28359,1,0,0:0:0:0:
448,192,28359,1,0,0:0:0:0:
64,192,28506,1,2,0:0:0:0:
192,192,28506,1,4,0:0:0:0:
320,192,28506,1,0,0:0:0:0:
320,192,28652,1,0,0:0:0:0:
192,192,28798,1,2,0:0:0:0:
448,192,28798,1,0,0:0:0:0:
64,192,28945,1,8,0:0:0:0:
320,192,28945,1,0,0:0:0:0:
448,192,28945,1,0,0:0:0:0:
192,192,29091,1,0,0:0:0:0:
448,192,29237,1,0,0:0:0:0:
192,192,29384,1,2,0:0:0:0:
320,192,29384,1,0,0:0:0:0:
64,192,29530,1,8,0:0:0:0:
320,192,29530,1,0,0:0:0:0:
448,192,29530,1,0,0:0:0:0:
64,192,29676,1,0,0:0:0:0:
320,192,29823,1,0,0:0:0:0:
192,192,29969,1,2,0:0:0:0:
320,192,29969,1,0,0:0:0:0:
64,192,30115,1,8,0:0:0:0:
192,192,30115,1,0,0:0:0:0:
448,192,30115,1,0,0:0:0:0:
320,192,30262,1,0,0:0:0:0:
192,192,30408,1,2,0:0:0:0:
320,192,30408,1,0,0:0:0:0:
64,192,30554,1,2,0:0:0:0:
448,192,30554,1,0,0:0:0:0:
64,192,30701,1,8,0:0:0:0:
192,192,30701,1,0,0:0:0:0:
448,192,30701,1,0,0:0:0:0:
192,192,30847,1,2,0:0:0:0:
320,192,30847,1,0,0:0:0:70:CrashRight.wav
448,192,30847,1,0,0:0:0:0:
64,192,30994,1,0,0:0:0:0:
64,192,31140,1,2,0:0:0:0:
320,192,31140,1,0,0:0:0:0:
64,192,31286,1,8,0:0:0:0:
192,192,31286,1,0,0:0:0:0:
448,192,31286,1,0,0:0:0:0:
64,192,31433,1,0,0:0:0:0:
320,192,31579,1,0,0:0:0:0:
192,192,31725,1,2,0:0:0:0:
320,192,31725,1,0,0:0:0:0:
64,192,31872,1,8,0:0:0:0:
320,192,31872,1,0,0:0:0:0:
448,192,31872,1,0,0:0:0:0:
320,192,32018,1,0,0:0:0:0:
192,192,32164,1,0,0:0:0:0:
192,192,32311,1,2,0:0:0:0:
448,192,32311,1,0,0:0:0:0:
64,192,32457,1,8,0:0:0:0:
192,192,32457,1,0,0:0:0:0:
320,192,32457,1,0,0:0:0:0:
192,192,32603,1,0,0:0:0:0:
64,192,32750,1,2,0:0:0:0:
448,192,32750,1,0,0:0:0:0:
320,192,32896,1,2,0:0:0:0:
448,192,32896,1,0,0:0:0:0:
64,192,33042,1,8,0:0:0:0:
192,192,33042,1,0,0:0:0:0:
448,192,33042,1,0,0:0:0:0:
64,192,33189,1,4,0:0:0:0:
320,192,33189,1,2,0:0:0:0:
448,192,33189,1,0,0:0:0:0:
192,192,33335,1,0,0:0:0:0:
64,192,33481,1,2,0:0:0:0:
320,192,33481,1,0,0:0:0:0:
192,192,33628,1,8,0:0:0:0:
320,192,33628,1,4,0:0:0:0:
448,192,33628,1,0,0:0:0:0:
192,192,33774,1,0,0:0:0:0:
320,192,33920,1,4,0:0:0:0:
448,192,33920,1,0,0:0:0:0:
64,192,34067,1,2,0:0:0:0:
192,192,34067,1,0,0:0:0:0:
64,192,34213,1,4,0:0:0:0:
320,192,34213,1,8,0:0:0:0:
448,192,34213,1,0,0:0:0:0:
320,192,34359,1,0,0:0:0:0:
64,192,34506,1,4,0:0:0:0:
192,192,34506,1,0,0:0:0:0:
64,192,34652,1,2,0:0:0:0:
448,192,34652,1,0,0:0:0:0:
192,192,34798,1,8,0:0:0:0:
320,192,34798,1,4,0:0:0:0:
448,192,34798,1,0,0:0:0:0:
64,192,34945,1,2,0:0:0:0:
320,192,35018,1,0,0:0:0:0:
64,192,35091,1,0,0:0:0:70:Tom1.wav
192,192,35091,1,0,0:0:0:0:
320,192,35164,1,0,0:0:0:70:Tom2.wav
448,192,35164,1,0,0:0:0:0:
64,192,35237,1,0,0:0:0:70:Tom3.wav
192,192,35237,1,0,0:0:0:0:
320,192,35311,1,0,0:0:0:70:Tom1.wav
448,192,35311,1,0,0:0:0:0:
64,192,35384,1,4,0:0:0:0:
192,192,35457,1,0,0:0:0:0:
448,192,35530,1,0,0:0:0:0:
320,192,35603,1,0,0:0:0:0:
64,192,35676,128,2,36262:0:0:0:0:
192,192,35676,1,0,0:0:0:70:CrashRight.wav
448,192,35676,1,0,0:0:0:0:
320,192,35969,1,0,0:0:0:0:
448,192,36115,1,2,0:0:0:0:
192,192,36189,1,2,0:0:0:0:
320,192,36262,1,8,0:0:0:0:
448,192,36262,1,0,0:0:0:70:CrashRight.wav
320,192,36408,1,0,0:0:0:0:
192,192,36554,1,0,0:0:0:0:
192,192,36701,1,0,0:0:0:70:LR_Snare Drum .wav
64,192,36847,1,2,0:0:0:0:
320,192,36847,1,0,0:0:0:70:CrashRight.wav
448,192,36847,1,0,0:0:0:0:
64,192,36994,1,0,0:0:0:70:LR_Snare Drum .wav
320,192,37140,1,0,0:0:0:0:
320,192,37286,1,2,0:0:0:0:
192,192,37359,1,2,0:0:0:0:
64,192,37433,1,8,0:0:0:0:
320,192,37433,1,0,0:0:0:70:CrashRight.wav
448,192,37433,1,0,0:0:0:0:
448,192,37579,1,0,0:0:0:70:LR_Snare Drum .wav
192,192,37725,1,0,0:0:0:0:
192,192,37872,1,0,0:0:0:70:LR_Snare Drum .wav
320,192,37872,1,0,0:0:0:0:
64,192,38018,1,2,0:0:0:0:
320,192,38018,1,0,0:0:0:70:CrashRight.wav
448,192,38018,128,0,38603:0:0:0:0:
192,192,38164,1,0,0:0:0:0:
64,192,38311,1,0,0:0:0:0:
192,192,38457,1,2,0:0:0:0:
320,192,38530,1,2,0:0:0:0:
64,192,38603,1,8,0:0:0:0:
192,192,38603,1,0,0:0:0:70:CrashRight.wav
320,192,38750,1,0,0:0:0:0:
192,192,38896,1,0,0:0:0:0:
64,192,39042,1,0,0:0:0:70:LR_Snare Drum .wav
192,192,39115,1,0,0:0:0:0:
64,192,39189,1,2,0:0:0:0:
320,192,39189,1,0,0:0:0:70:CrashRight.wav
448,192,39189,1,0,0:0:0:0:
192,192,39335,1,0,0:0:0:70:LR_Snare Drum .wav
320,192,39335,1,0,0:0:0:0:
64,192,39481,1,0,0:0:0:0:
448,192,39481,1,0,0:0:0:0:
192,192,39628,1,2,0:0:0:0:
320,192,39701,1,2,0:0:0:0:
64,192,39774,1,8,0:0:0:0:
192,192,39774,1,0,0:0:0:70:CrashRight.wav
448,192,39774,1,0,0:0:0:0:
320,192,39920,1,0,0:0:0:0:
64,192,40067,1,2,0:0:0:0:
320,192,40067,1,0,0:0:0:70:CrashRight.wav
448,192,40067,1,0,0:0:0:0:
192,192,40213,1,0,0:0:0:0:
64,192,40359,1,2,0:0:0:0:
192,192,40359,128,0,40945:0:0:0:70:CrashRight.wav
320,192,40359,1,0,0:0:0:0:
448,192,40798,1,2,0:0:0:0:
320,192,40872,1,2,0:0:0:0:
64,192,40945,128,8,41530:0:0:0:0:
448,192,40945,1,0,0:0:0:70:CrashRight.wav
192,192,41237,1,0,0:0:0:0:
448,192,41384,1,8,0:0:0:0:
320,192,41457,1,8,0:0:0:0:
192,192,41530,1,2,0:0:0:0:
448,192,41530,1,0,0:0:0:70:CrashRight.wav
320,192,41676,1,0,0:0:0:70:LR_Snare Drum .wav
64,192,41823,1,0,0:0:0:0:
320,192,41969,1,2,0:0:0:0:
192,192,42042,1,2,0:0:0:0:
64,192,42115,1,8,0:0:0:0:
320,192,42115,1,0,0:0:0:70:CrashRight.wav
448,192,42115,1,0,0:0:0:0:
192,192,42262,1,0,0:0:0:70:LR_Snare Drum .wav
448,192,42408,1,0,0:0:0:0:
64,192,42554,1,0,0:0:0:70:LR_Snare Drum .wav
192,192,42554,1,0,0:0:0:0:
64,192,42701,1,2,0:0:0:0:
320,192,42701,128,0,43286:0:0:0:70:CrashRight.wav
448,192,42701,1,0,0:0:0:0:
64,192,43140,1,2,0:0:0:0:
192,192,43213,1,2,0:0:0:0:
64,192,43286,1,8,0:0:0:0:
448,192,43286,1,0,0:0:0:70:CrashRight.wav
192,192,43433,1,0,0:0:0:0:
320,192,43579,1,0,0:0:0:0:
64,192,43725,1,0,0:0:0:70:LR_Snare Drum .wav
192,192,43725,1,0,0:0:0:0:
64,192,43872,1,2,0:0:0:0:
320,192,43872,1,0,0:0:0:70:CrashRight.wav
448,192,43872,1,0,0:0:0:0:
192,192,44018,1,0,0:0:0:70:LR_Snare Drum .wav
320,192,44018,1,0,0:0:0:0:
64,192,44164,1,2,0:0:0:0:
192,192,44164,1,0,0:0:0:0:
64,192,44311,1,2,0:0:0:0:
448,192,44311,1,0,0:0:0:0:
192,192,44457,1,8,0:0:0:0:
320,192,44457,1,0,0:0:0:70:CrashRight.wav
448,192,44457,1,0,0:0:0:0:
64,192,44530,1,0,0:0:0:0:
192,192,44603,1,0,0:0:0:0:
320,192,44676,1,0,0:0:0:0:
64,192,44750,1,8,0:0:0:0:
448,192,44750,1,0,0:0:0:0:
192,192,44823,1,0,0:0:0:0:
448,192,44896,1,8,0:0:0:0:
320,192,44969,1,0,0:0:0:0:
64,192,45042,128,2,45628:0:0:0:0:
192,192,45042,1,0,0:0:0:70:CrashRight.wav
448,192,45042,1,0,0:0:0:0:
320,192,45628,128,0,45920:0:0:0:0:
192,192,46067,128,0,46359:0:0:0:0:
448,192,46506,1,0,0:0:0:0:
448,192,46652,128,0,46798:0:0:0:0:
320,192,47091,128,0,47237:0:0:0:0:
64,192,47384,128,0,47823:0:0:0:0:
192,192,47969,128,0,48262:0:0:0:0:
320,192,48408,128,0,48554:0:0:0:0:
448,192,48701,128,0,48847:0:0:0:0:
192,192,48847,128,0,48994:0:0:0:0:
320,192,48994,128,0,49140:0:0:0:0:
192,192,49433,128,0,49579:0:0:0:0:
64,192,49725,1,2,0:0:0:0:
320,192,49725,1,0,0:0:0:70:CrashRight.wav
448,192,49725,1,0,0:0:0:0:
320,192,49872,1,0,0:0:0:0:
192,192,50018,1,2,0:0:0:0:
448,192,50018,1,0,0:0:0:0:
192,192,50164,1,0,0:0:0:0:
64,192,50311,1,2,0:0:0:0:
448,192,50311,1,0,0:0:0:0:
64,192,50457,1,4,0:0:0:0:
320,192,50457,1,8,0:0:0:0:
448,192,50457,1,0,0:0:0:0:
192,192,50603,1,2,0:0:0:0:
320,192,50603,1,0,0:0:0:0:
64,192,50750,1,8,0:0:0:0:
192,192,50750,1,4,0:0:0:0:
448,192,50750,1,0,0:0:0:0:
64,192,50896,1,2,0:0:0:0:
320,192,50896,1,0,0:0:0:0:
192,192,51042,1,0,0:0:0:0:
320,192,51189,1,2,0:0:0:0:
448,192,51189,1,0,0:0:0:0:
192,192,51335,1,0,0:0:0:0:
64,192,51481,1,8,0:0:0:0:
448,192,51481,1,0,0:0:0:70:LR_Snare Drum .wav
320,192,51554,1,0,0:0:0:70:LR_Snare Drum .wav
192,192,51628,1,0,0:0:0:70:LR_Snare Drum .wav
320,192,51701,1,0,0:0:0:70:LR_Snare Drum .wav
64,192,51774,1,2,0:0:0:0:
448,192,51774,1,0,0:0:0:70:Tom1.wav
192,192,51847,1,0,0:0:0:0:
320,192,51920,1,0,0:0:0:70:Tom2.wav
192,192,51994,1,0,0:0:0:0:
64,192,52067,128,2,52359:0:0:0:0:
320,192,52067,1,0,0:0:0:70:Tom3.wav
448,192,52067,1,0,0:0:0:70:CrashRight.wav
320,192,52359,1,2,0:0:0:0:
448,192,52359,1,8,0:0:0:0:
320,192,52506,1,8,0:0:0:0:
448,192,52506,1,0,0:0:0:0:
64,192,52652,1,8,0:0:0:0:
192,192,52652,1,2,0:0:0:0:
64,192,52798,1,8,0:0:0:0:
192,192,52798,1,0,0:0:0:0:
64,192,52945,1,8,0:0:0:0:
320,192,52945,1,2,0:0:0:0:
448,192,52945,1,0,0:0:0:0:
64,192,53091,1,8,0:0:0:0:
320,192,53091,1,0,0:0:0:70:CrashRight.wav
448,192,53091,1,0,0:0:0:0:
192,192,53384,1,8,0:0:0:0:
320,192,53384,1,0,0:0:0:70:Tom3.wav
448,192,53384,1,0,0:0:0:0:
64,192,53530,1,8,0:0:0:0:
192,192,53530,1,4,0:0:0:0:
320,192,53530,1,0,0:0:0:70:Tom3.wav
448,192,53676,1,0,0:0:0:0:
192,192,53823,1,0,0:0:0:0:
64,192,53969,1,0,0:0:0:0:
320,192,54115,1,0,0:0:0:0:
64,192,54262,1,2,0:0:0:0:
192,192,54262,1,0,0:0:0:70:CrashRight.wav
320,192,54262,1,0,0:0:0:0:
448,192,54262,1,0,0:0:0:0:
192,192,54554,1,2,0:0:0:0:
320,192,54554,1,0,0:0:0:0:
64,192,54701,1,8,0:0:0:0:
192,192,54701,1,4,0:0:0:0:
448,192,54701,1,0,0:0:0:0:
448,192,54847,1,0,0:0:0:0:
64,192,54994,1,2,0:0:0:0:
320,192,54994,1,4,0:0:0:0:
64,192,55140,1,2,0:0:0:0:
192,192,55140,1,0,0:0:0:0:
192,192,55286,1,4,0:0:0:0:
320,192,55286,1,8,0:0:0:0:
448,192,55286,1,0,0:0:0:0:
64,192,55433,1,2,0:0:0:0:
448,192,55433,1,0,0:0:0:0:
192,192,55579,1,4,0:0:0:0:
192,192,55725,1,2,0:0:0:0:
320,192,55725,1,0,0:0:0:0:
64,192,55872,1,4,0:0:0:0:
320,192,55872,1,8,0:0:0:0:
448,192,55872,1,0,0:0:0:0:
64,192,56018,1,0,0:0:0:0:
192,192,56164,1,2,0:0:0:0:
448,192,56164,1,4,0:0:0:0:
192,192,56311,1,2,0:0:0:0:
320,192,56311,1,0,0:0:0:0:
64,192,56457,1,4,0:0:0:0:
320,192,56457,1,8,0:0:0:0:
448,192,56457,1,0,0:0:0:0:
64,192,56603,1,2,0:0:0:0:
192,192,56603,1,0,0:0:0:70:CrashRight.wav
320,192,56603,1,0,0:0:0:0:
448,192,56603,1,0,0:0:0:0:
64,192,56896,1,2,0:0:0:0:
320,192,56896,1,0,0:0:0:0:
192,192,57042,1,8,0:0:0:0:
320,192,57042,1,4,0:0:0:0:
448,192,57042,1,0,0:0:0:0:
448,192,57189,1,0,0:0:0:0:
64,192,57335,1,2,0:0:0:0:
192,192,57335,1,4,0:0:0:0:
64,192,57481,1,2,0:0:0:0:
320,192,57481,1,0,0:0:0:0:
192,192,57628,1,4,0:0:0:0:
320,192,57628,1,8,0:0:0:0:
448,192,57628,1,0,0:0:0:0:
64,192,57774,1,2,0:0:0:0:
192,192,57774,1,0,0:0:0:70:CrashRight.wav
320,192,57774,1,0,0:0:0:0:
448,192,57774,1,0,0:0:0:0:
192,192,58067,1,2,0:0:0:0:
320,192,58067,1,0,0:0:0:0:
64,192,58213,1,8,0:0:0:0:
192,192,58213,1,4,0:0:0:0:
448,192,58213,1,0,0:0:0:0:
320,192,58359,1,2,0:0:0:0:
448,192,58359,1,0,0:0:0:0:
64,192,58506,1,2,0:0:0:0:
192,192,58506,1,0,0:0:0:0:
64,192,58652,1,0,0:0:0:70:LR_Snare Drum .wav
320,192,58725,1,0,0:0:0:70:LR_Snare Drum .wav
192,192,58798,1,8,0:0:0:0:
448,192,58872,1,0,0:0:0:70:LR_Snare Drum .wav
320,192,58945,1,0,0:0:0:70:LR_Snare Drum .wav
192,192,59018,1,0,0:0:0:70:LR_Snare Drum .wav
64,192,59091,1,2,0:0:0:0:
320,192,59091,1,0,0:0:0:70:CrashRight.wav
448,192,59091,1,0,0:0:0:0:
192,192,59384,1,8,0:0:0:0:
320,192,59384,1,0,0:0:0:0:
448,192,59384,1,0,0:0:0:0:
192,192,59530,1,4,0:0:0:0:
64,192,59676,1,2,0:0:0:0:
448,192,59676,1,0,0:0:0:0:
448,192,59823,1,4,0:0:0:0:
64,192,59969,1,8,0:0:0:0:
192,192,59969,1,0,0:0:0:0:
320,192,59969,1,0,0:0:0:0:
320,192,60115,1,4,0:0:0:0:
64,192,60262,1,2,0:0:0:0:
448,192,60262,1,0,0:0:0:0:
64,192,60408,1,4,0:0:0:0:
192,192,60554,1,8,0:0:0:0:
320,192,60554,1,0,0:0:0:0:
448,192,60554,1,0,0:0:0:0:
320,192,60701,1,4,0:0:0:0:
64,192,60847,1,2,0:0:0:0:
192,192,60847,1,0,0:0:0:0:
192,192,60994,1,4,0:0:0:0:
64,192,61140,1,8,0:0:0:0:
320,192,61140,1,0,0:0:0:0:
448,192,61140,1,0,0:0:0:0:
64,192,61286,1,2,0:0:0:0:
192,192,61286,1,0,0:0:0:70:CrashRight.wav
320,192,61286,1,0,0:0:0:0:
448,192,61286,1,0,0:0:0:0:
192,192,61579,1,2,0:0:0:0:
320,192,61579,1,0,0:0:0:0:
64,192,61725,1,8,0:0:0:0:
192,192,61725,1,0,0:0:0:0:
448,192,61725,1,0,0:0:0:0:
320,192,61872,1,2,0:0:0:0:
448,192,61872,1,0,0:0:0:0:
64,192,61945,1,2,0:0:0:0:
192,192,61945,1,0,0:0:0:0:
320,192,62018,1,8,0:0:0:0:
448,192,62018,1,0,0:0:0:0:
64,192,62164,1,2,0:0:0:0:
192,192,62164,1,0,0:0:0:0:
64,192,62311,1,8,0:0:0:0:
320,192,62311,1,0,0:0:0:0:
448,192,62311,1,0,0:0:0:0:
64,192,62457,1,2,0:0:0:0:
192,192,62457,1,0,0:0:0:70:CrashRight.wav
320,192,62457,1,0,0:0:0:0:
448,192,62457,1,0,0:0:0:0:
64,192,62750,1,2,0:0:0:0:
192,192,62750,1,0,0:0:0:0:
64,192,62896,1,8,0:0:0:0:
320,192,62896,1,0,0:0:0:0:
448,192,62896,1,0,0:0:0:0:
320,192,63042,1,0,0:0:0:0:
64,192,63189,1,2,0:0:0:0:
192,192,63189,1,0,0:0:0:0:
192,192,63335,1,2,0:0:0:0:
448,192,63335,1,0,0:0:0:0:
64,192,63481,1,8,0:0:0:0:
320,192,63481,1,0,0:0:0:0:
448,192,63481,1,0,0:0:0:0:
64,192,63628,1,2,0:0:0:0:
192,192,63628,1,0,0:0:0:70:CrashRight.wav
320,192,63628,1,0,0:0:0:0:
448,192,63628,1,0,0:0:0:0:
64,192,63920,1,2,0:0:0:0:
448,192,63920,1,0,0:0:0:0:
192,192,64067,1,8,0:0:0:0:
320,192,64067,1,0,0:0:0:0:
448,192,64067,1,0,0:0:0:0:
192,192,64213,1,0,0:0:0:0:
64,192,64359,1,2,0:0:0:0:
448,192,64359,1,0,0:0:0:0:
320,192,64506,1,2,0:0:0:0:
448,192,64506,1,0,0:0:0:0:
64,192,64652,1,8,0:0:0:0:
192,192,64652,1,0,0:0:0:0:
320,192,64652,1,0,0:0:0:0:
192,192,64798,1,2,0:0:0:0:
320,192,64945,1,0,0:0:0:0:
448,192,64945,1,0,0:0:0:0:
64,192,65091,1,2,0:0:0:0:
448,192,65091,1,0,0:0:0:0:
64,192,65237,1,8,0:0:0:0:
192,192,65237,1,0,0:0:0:0:
320,192,65237,1,0,0:0:0:0:
192,192,65384,1,0,0:0:0:0:
320,192,65530,1,2,0:0:0:0:
448,192,65530,1,0,0:0:0:0:
64,192,65676,1,2,0:0:0:0:
448,192,65676,1,0,0:0:0:0:
64,192,65823,1,8,0:0:0:0:
192,192,65823,1,0,0:0:0:0:
320,192,65823,1,0,0:0:0:0:
64,192,65969,1,2,0:0:0:0:
192,192,65969,1,0,0:0:0:70:CrashRight.wav
320,192,65969,1,0,0:0:0:0:
448,192,65969,1,0,0:0:0:0:
64,192,66262,1,2,0:0:0:0:
448,192,66262,1,0,0:0:0:0:
64,192,66408,1,8,0:0:0:0:
192,192,66408,1,0,0:0:0:0:
320,192,66408,1,0,0:0:0:0:
320,192,66554,1,0,0:0:0:0:
64,192,66701,1,2,0:0:0:0:
448,192,66701,1,0,0:0:0:0:
192,192,66847,1,2,0:0:0:0:
448,192,66847,1,0,0:0:0:0:
64,192,66994,1,8,0:0:0:0:
192,192,66994,1,0,0:0:0:0:
320,192,66994,1,0,0:0:0:0:
320,192,67140,1,2,0:0:0:0:
448,192,67140,1,0,0:0:0:0:
64,192,67286,1,0,0:0:0:0:
64,192,67433,1,2,0:0:0:0:
320,192,67433,1,0,0:0:0:0:
192,192,67579,1,8,0:0:0:0:
320,192,67579,1,0,0:0:0:0:
448,192,67579,1,0,0:0:0:0:
448,192,67725,1,0,0:0:0:0:
64,192,67872,1,2,0:0:0:0:
192,192,67872,1,0,0:0:0:0:
320,192,68018,1,2,0:0:0:0:
448,192,68018,1,0,0:0:0:0:
64,192,68164,1,8,0:0:0:0:
192,192,68164,1,0,0:0:0:0:
448,192,68164,1,0,0:0:0:0:
64,192,68311,1,2,0:0:0:0:
192,192,68311,1,0,0:0:0:70:CrashRight.wav
320,192,68311,1,0,0:0:0:0:
448,192,68311,1,0,0:0:0:0:
192,192,68603,1,2,0:0:0:0:
448,192,68603,1,0,0:0:0:0:
64,192,68750,1,4,0:0:0:0:
320,192,68750,1,8,0:0:0:0:
448,192,68750,1,0,0:0:0:0:
64,192,68896,1,0,0:0:0:0:
192,192,69042,1,2,0:0:0:0:
448,192,69042,1,4,0:0:0:0:
192,192,69189,1,2,0:0:0:0:
320,192,69189,1,0,0:0:0:0:
64,192,69335,1,8,0:0:0:0:
320,192,69335,1,4,0:0:0:0:
448,192,69335,1,0,0:0:0:0:
64,192,69481,1,2,0:0:0:0:
192,192,69481,1,0,0:0:0:0:
320,192,69628,1,4,0:0:0:0:
192,192,69774,1,2,0:0:0:0:
448,192,69774,1,0,0:0:0:0:
64,192,69920,1,8,0:0:0:0:
320,192,69920,1,4,0:0:0:0:
448,192,69920,1,0,0:0:0:0:
192,192,69994,1,0,0:0:0:0:
448,192,70067,1,0,0:0:0:0:
320,192,70140,1,0,0:0:0:0:
64,192,70213,1,2,0:0:0:0:
192,192,70213,1,4,0:0:0:0:
64,192,70359,1,2,0:0:0:0:
448,192,70359,1,0,0:0:0:0:
192,192,70506,1,8,0:0:0:0:
320,192,70506,1,0,0:0:0:0:
448,192,70506,1,0,0:0:0:0:
64,192,70652,1,2,0:0:0:0:
192,192,70652,1,0,0:0:0:70:CrashRight.wav
320,192,70652,1,0,0:0:0:0:
448,192,70652,1,0,0:0:0:0:
64,192,70945,1,2,0:0:0:0:
192,192,70945,1,0,0:0:0:0:
64,192,71091,1,8,0:0:0:0:
320,192,71091,1,4,0:0:0:0:
448,192,71091,1,0,0:0:0:0:
192,192,71237,1,2,0:0:0:0:
448,192,71237,1,0,0:0:0:0:
64,192,71384,1,8,0:0:0:0:
192,192,71384,1,4,0:0:0:0:
320,192,71384,1,0,0:0:0:0:
64,192,71530,1,0,0:0:0:70:Tom1.wav
448,192,71530,1,0,0:0:0:0:
192,192,71676,1,0,0:0:0:70:Tom2.wav
320,192,71676,1,0,0:0:0:0:
448,192,71676,1,0,0:0:0:0:
64,192,71823,1,2,0:0:0:0:
192,192,71823,1,0,0:0:0:70:CrashRight.wav
320,192,71823,1,0,0:0:0:0:
448,192,71823,1,0,0:0:0:0:
64,192,72115,1,2,0:0:0:0:
192,192,72115,1,0,0:0:0:0:
64,192,72262,1,8,0:0:0:0:
320,192,72262,1,4,0:0:0:0:
448,192,72262,1,0,0:0:0:0:
192,192,72408,1,2,0:0:0:0:
448,192,72408,1,0,0:0:0:0:
64,192,72554,1,2,0:0:0:0:
192,192,72554,1,0,0:0:0:70:LR_Snare Drum .wav
320,192,72554,1,0,0:0:0:0:
64,192,72701,1,0,0:0:0:70:LR_Snare Drum .wav
192,192,72774,1,0,0:0:0:70:LR_Snare Drum .wav
448,192,72847,1,8,0:0:0:0:
320,192,72920,1,0,0:0:0:0:
64,192,72994,1,2,0:0:0:0:
192,192,72994,1,0,0:0:0:70:CrashRight.wav
448,192,72994,1,0,0:0:0:0:
192,192,73286,1,2,0:0:0:0:
320,192,73286,1,0,0:0:0:0:
64,192,73433,1,8,0:0:0:0:
320,192,73433,1,0,0:0:0:0:
448,192,73433,1,0,0:0:0:0:
64,192,73579,1,2,0:0:0:0:
192,192,73579,1,0,0:0:0:0:
192,192,73725,1,0,0:0:0:70:Tom1.wav
448,192,73725,1,0,0:0:0:0:
320,192,73798,1,0,0:0:0:70:Tom2.wav
64,192,73872,1,2,0:0:0:0:
192,192,73945,1,2,0:0:0:0:
320,192,74018,1,8,0:0:0:0:
448,192,74018,1,0,0:0:0:0:
64,192,74164,1,2,0:0:0:0:
192,192,74164,1,0,0:0:0:70:CrashRight.wav
320,192,74164,1,0,0:0:0:0:
448,192,74164,1,0,0:0:0:0:
64,192,74457,1,4,0:0:0:0:
192,192,74457,1,8,0:0:0:0:
320,192,74457,1,0,0:0:0:70:Tom2.wav
192,192,74603,1,8,0:0:0:0:
320,192,74603,1,4,0:0:0:0:
448,192,74603,1,0,0:0:0:70:Tom2.wav
192,192,74896,1,0,0:0:0:0:
320,192,75042,1,2,0:0:0:0:
192,192,75115,1,2,0:0:0:0:
64,192,75189,1,8,0:0:0:0:
320,192,75189,1,0,0:0:0:0:
448,192,75189,1,0,0:0:0:0:
192,192,75335,1,0,0:0:0:0:
320,192,75408,1,0,0:0:0:0:
64,192,75481,1,2,0:0:0:0:
192,192,75481,128,0,75774:0:0:0:70:CrashRight.wav
448,192,75481,1,0,0:0:0:0:
320,192,75628,128,0,75774:0:0:0:0:
64,192,75774,128,8,76067:0:0:0:0:
448,192,75774,1,0,0:0:0:0:
448,192,75920,128,4,76067:0:0:0:0:
192,192,76067,128,2,76140:0:0:0:0:
320,192,76067,128,0,76359:0:0:0:0:
192,192,76213,128,4,76359:0:0:0:0:
64,192,76359,1,8,0:0:0:0:
448,192,76359,1,0,0:0:0:0:
64,192,76506,128,4,76798:0:0:0:0:
192,192,76652,1,2,0:0:0:0:
320,192,76652,128,0,76798:0:0:0:0:
448,192,76798,128,4,77091:0:0:0:0:
64,192,76945,1,8,0:0:0:0:
192,192,76945,128,0,77091:0:0:0:0:
320,192,77091,128,4,77384:0:0:0:0:
64,192,77237,128,2,77384:0:0:0:0:
448,192,77237,1,0,0:0:0:0:
192,192,77384,128,4,77530:0:0:0:0:
320,192,77530,128,8,77823:0:0:0:0:
448,192,77530,1,0,0:0:0:0:
64,192,77676,128,4,77823:0:0:0:0:
192,192,77823,128,2,78115:0:0:0:0:
448,192,77823,1,0,0:0:0:0:
320,192,77969,128,4,78115:0:0:0:0:
64,192,78115,128,8,78408:0:0:0:0:
448,192,78115,1,0,0:0:0:0:
448,192,78262,128,4,78408:0:0:0:0:
192,192,78408,128,2,78481:0:0:0:0:
320,192,78408,128,0,78701:0:0:0:0:
192,192,78554,128,4,78701:0:0:0:0:
64,192,78701,1,8,0:0:0:0:
448,192,78701,1,0,0:0:0:0:
64,192,78847,128,4,79140:0:0:0:0:
192,192,78994,1,2,0:0:0:0:
320,192,78994,128,0,79140:0:0:0:0:
448,192,79140,128,4,79433:0:0:0:0:
64,192,79286,1,8,0:0:0:0:
192,192,79286,128,0,79433:0:0:0:0:
320,192,79433,128,4,79725:0:0:0:0:
192,192,79579,128,2,79725:0:0:0:0:
448,192,79579,1,0,0:0:0:0:
64,192,79725,128,4,80018:0:0:0:0:
320,192,79872,1,8,0:0:0:0:
448,192,79872,1,0,0:0:0:0:
192,192,80018,1,4,0:0:0:0:
64,192,80164,1,2,0:0:0:0:
192,192,80164,128,0,80457:0:0:0:70:CrashRight.wav
448,192,80164,1,0,0:0:0:0:
320,192,80311,128,0,80457:0:0:0:0:
64,192,80457,128,8,80750:0:0:0:0:
448,192,80457,1,0,0:0:0:0:
448,192,80603,128,4,80750:0:0:0:0:
192,192,80750,128,2,80823:0:0:0:0:
320,192,80750,128,0,81042:0:0:0:0:
192,192,80896,128,4,81042:0:0:0:0:
64,192,81042,1,8,0:0:0:0:
448,192,81042,1,0,0:0:0:0:
64,192,81189,128,4,81481:0:0:0:0:
192,192,81335,1,2,0:0:0:0:
320,192,81335,128,0,81481:0:0:0:0:
448,192,81481,128,4,81774:0:0:0:0:
64,192,81628,1,8,0:0:0:0:
192,192,81628,128,0,81774:0:0:0:0:
320,192,81774,128,4,82067:0:0:0:0:
64,192,81920,128,2,82067:0:0:0:0:
448,192,81920,1,0,0:0:0:0:
192,192,82067,128,4,82213:0:0:0:0:
320,192,82213,1,8,0:0:0:0:
448,192,82213,1,0,0:0:0:0:
64,192,82359,128,2,82652:0:0:0:0:
192,192,82359,1,0,0:0:0:70:CrashRight.wav
448,192,82359,128,0,82652:0:0:0:0:
192,192,82652,1,2,0:0:0:0:
320,192,82652,1,0,0:0:0:0:
64,192,82798,1,8,0:0:0:0:
320,192,82798,1,0,0:0:0:0:
448,192,82798,1,0,0:0:0:0:
192,192,82945,1,2,0:0:0:0:
448,192,82945,1,0,0:0:0:0:
64,192,83091,1,8,0:0:0:0:
192,192,83091,1,0,0:0:0:0:
320,192,83091,1,0,0:0:0:0:
64,192,83237,1,2,0:0:0:0:
192,192,83237,1,0,0:0:0:0:
320,192,83311,1,2,0:0:0:0:
448,192,83311,1,0,0:0:0:0:
64,192,83384,1,8,0:0:0:0:
192,192,83384,1,0,0:0:0:0:
320,192,83530,1,2,0:0:0:0:
448,192,83530,1,0,0:0:0:0:
64,192,83676,1,8,0:0:0:0:
192,192,83676,1,0,0:0:0:0:
448,192,83676,1,0,0:0:0:0:
320,192,83750,1,8,0:0:0:0:
192,192,83823,1,0,0:0:0:70:Tom2.wav
320,192,83896,1,0,0:0:0:70:Tom2.wav
64,192,83969,1,0,0:0:0:70:Tom3.wav
448,192,83969,1,0,0:0:0:0:
192,192,84042,1,0,0:0:0:70:Tom3.wav
320,192,84115,1,2,0:0:0:0:
192,192,84189,1,2,0:0:0:0:
320,192,84262,1,8,0:0:0:0:
448,192,84262,1,0,0:0:0:0:
64,192,84335,1,0,0:0:0:70:Tom1.wav
192,192,84408,1,0,0:0:0:70:Tom2.wav
320,192,84481,1,0,0:0:0:70:Tom3.wav
64,192,84554,1,8,0:0:0:0:
192,192,84554,1,0,0:0:0:0:
448,192,84554,1,0,0:0:0:0:
64,192,84701,1,8,0:0:0:0:
320,192,84701,1,4,0:0:0:0:
448,192,84701,1,0,0:0:0:0:
192,192,85140,128,0,85286:0:0:0:0:
320,192,85433,1,0,0:0:0:0:
320,192,85579,128,0,85725:0:0:0:0:
64,192,85872,128,0,86018:0:0:0:0:
448,192,86164,1,0,0:0:0:0:
448,192,86311,128,0,86457:0:0:0:0:
192,192,86457,128,0,86603:0:0:0:0:
320,192,86603,128,0,86750:0:0:0:0:
64,192,86750,128,0,86896:0:0:0:0:
448,192,87042,128,0,87335:0:0:0:0:
192,192,87481,128,0,87628:0:0:0:0:
320,192,87628,128,0,87774:0:0:0:0:
448,192,87774,128,0,87920:0:0:0:0:
320,192,88067,128,0,88213:0:0:0:0:
64,192,88213,128,0,88359:0:0:0:0:
192,192,88506,128,0,88652:0:0:0:0:
320,192,88798,128,0,88945:0:0:0:0:
448,192,89091,128,0,89237:0:0:0:0:
64,192,89384,128,0,89530:0:0:0:0:
320,192,89823,128,0,89969:0:0:0:0:
192,192,89969,128,0,90115:0:0:0:0:
448,192,90115,128,0,90335:0:0:0:0:
64,192,90335,128,0,90554:0:0:0:0:
320,192,90554,128,0,90701:0:0:0:0:
192,192,90847,128,0,90994:0:0:0:0:
320,192,91140,128,0,91286:0:0:0:0:
448,192,91433,128,0,91579:0:0:0:0:
64,192,91725,128,0,92603:0:0:0:0:
320,192,92750,128,0,92896:0:0:0:0:
64,192,92896,1,0,0:0:0:0:
192,192,92896,128,0,93189:0:0:0:0:
448,192,92896,1,0,0:0:0:0:
320,192,93189,1,0,0:0:0:70:LR_Snare Drum .wav
448,192,93189,1,0,0:0:0:0:
64,192,93262,1,0,0:0:0:70:LR_Snare Drum .wav
192,192,93262,1,0,0:0:0:0:
320,192,93335,1,8,0:0:0:0:
448,192,93335,1,0,0:0:0:0:
64,192,93481,1,0,0:0:0:70:LR_Snare Drum .wav
192,192,93481,1,0,0:0:0:0:
320,192,93554,1,0,0:0:0:70:LR_Snare Drum .wav
448,192,93554,1,0,0:0:0:0:
64,192,93628,1,8,0:0:0:0:
192,192,93628,1,0,0:0:0:70:LR_Snare Drum .wav
320,192,93701,1,0,0:0:0:70:LR_Snare Drum .wav
448,192,93701,1,0,0:0:0:0:
64,192,93774,1,0,0:0:0:70:LR_Snare Drum .wav
192,192,93774,1,0,0:0:0:0:
320,192,93847,1,0,0:0:0:70:LR_Snare Drum .wav
448,192,93847,1,0,0:0:0:0:
64,192,93920,1,8,0:0:0:0:
192,192,93920,1,0,0:0:0:70:LR_Snare Drum .wav
320,192,93994,1,0,0:0:0:0:
64,192,94067,1,2,0:0:0:0:
192,192,94067,1,0,0:0:0:70:CrashRight.wav
448,192,94067,1,0,0:0:0:0:
192,192,94359,1,2,0:0:0:0:
320,192,94359,1,0,0:0:0:0:
448,192,94359,1,0,0:0:0:0:
64,192,94506,1,8,0:0:0:0:
192,192,94506,1,4,0:0:0:0:
320,192,94506,1,0,0:0:0:0:
448,192,94652,1,0,0:0:0:0:
192,192,94798,1,0,0:0:0:0:
192,192,94945,1,2,0:0:0:0:
320,192,94945,1,0,0:0:0:0:
64,192,95091,1,8,0:0:0:0:
320,192,95091,1,0,0:0:0:0:
448,192,95091,1,0,0:0:0:0:
192,192,95237,1,0,0:0:0:0:
64,192,95384,1,0,0:0:0:0:
192,192,95530,1,2,0:0:0:0:
320,192,95530,1,0,0:0:0:0:
64,192,95676,1,8,0:0:0:0:
192,192,95676,1,0,0:0:0:0:
448,192,95676,1,0,0:0:0:0:
320,192,95823,1,0,0:0:0:0:
64,192,95969,1,2,0:0:0:0:
192,192,95969,1,0,0:0:0:0:
320,192,96115,1,2,0:0:0:0:
448,192,96115,1,0,0:0:0:0:
64,192,96262,1,8,0:0:0:0:
192,192,96262,1,0,0:0:0:0:
448,192,96262,1,0,0:0:0:0:
64,192,96408,1,2,0:0:0:0:
192,192,96408,1,4,0:0:0:0:
320,192,96408,1,0,0:0:0:0:
320,192,96554,1,0,0:0:0:0:
192,192,96701,1,2,0:0:0:0:
448,192,96701,1,0,0:0:0:0:
64,192,96847,1,8,0:0:0:0:
320,192,96847,1,0,0:0:0:0:
448,192,96847,1,0,0:0:0:0:
192,192,96994,1,0,0:0:0:0:
448,192,97140,1,0,0:0:0:0:
192,192,97286,1,2,0:0:0:0:
320,192,97286,1,0,0:0:0:0:
64,192,97433,1,8,0:0:0:0:
320,192,97433,1,0,0:0:0:0:
448,192,97433,1,0,0:0:0:0:
64,192,97579,1,0,0:0:0:0:
320,192,97725,1,0,0:0:0:0:
192,192,97872,1,2,0:0:0:0:
320,192,97872,1,0,0:0:0:0:
64,192,98018,1,8,0:0:0:0:
192,192,98018,1,0,0:0:0:0:
448,192,98018,1,0,0:0:0:0:
320,192,98164,1,0,0:0:0:0:
192,192,98311,1,2,0:0:0:0:
320,192,98311,1,0,0:0:0:0:
64,192,98457,1,2,0:0:0:0:
448,192,98457,1,0,0:0:0:0:
64,192,98603,1,8,0:0:0:0:
192,192,98603,1,0,0:0:0:0:
448,192,98603,1,0,0:0:0:0:
192,192,98750,1,2,0:0:0:0:
320,192,98750,1,0,0:0:0:70:CrashRight.wav
448,192,98750,1,0,0:0:0:0:
64,192,98896,1,0,0:0:0:0:
64,192,99042,1,2,0:0:0:0:
320,192,99042,1,0,0:0:0:0:
64,192,99189,1,8,0:0:0:0:
192,192,99189,1,4,0:0:0:0:
448,192,99189,1,0,0:0:0:0:
64,192,99335,1,0,0:0:0:0:
320,192,99481,1,0,0:0:0:0:
192,192,99628,1,2,0:0:0:0:
320,192,99628,1,0,0:0:0:0:
64,192,99774,1,8,0:0:0:0:
320,192,99774,1,0,0:0:0:0:
448,192,99774,1,0,0:0:0:0:
320,192,99920,1,0,0:0:0:0:
192,192,100067,1,0,0:0:0:0:
192,192,100213,1,2,0:0:0:0:
448,192,100213,1,0,0:0:0:0:
64,192,100359,1,8,0:0:0:0:
192,192,100359,1,0,0:0:0:0:
320,192,100359,1,0,0:0:0:0:
192,192,100506,1,0,0:0:0:0:
64,192,100652,1,2,0:0:0:0:
448,192,100652,1,0,0:0:0:0:
320,192,100798,1,2,0:0:0:0:
448,192,100798,1,0,0:0:0:0:
64,192,100945,1,8,0:0:0:0:
192,192,100945,1,0,0:0:0:0:
448,192,100945,1,0,0:0:0:0:
64,192,101091,1,2,0:0:0:0:
320,192,101091,1,4,0:0:0:0:
448,192,101091,1,0,0:0:0:0:
192,192,101237,1,0,0:0:0:0:
64,192,101384,1,2,0:0:0:0:
320,192,101384,1,0,0:0:0:0:
192,192,101530,1,8,0:0:0:0:
320,192,101530,1,4,0:0:0:0:
448,192,101530,1,0,0:0:0:0:
192,192,101676,1,0,0:0:0:0:
320,192,101823,1,4,0:0:0:0:
448,192,101823,1,0,0:0:0:0:
64,192,101969,1,2,0:0:0:0:
192,192,101969,1,0,0:0:0:0:
64,192,102115,1,4,0:0:0:0:
320,192,102115,1,8,0:0:0:0:
448,192,102115,1,0,0:0:0:0:
320,192,102262,1,0,0:0:0:0:
64,192,102408,1,4,0:0:0:0:
192,192,102408,1,0,0:0:0:0:
64,192,102554,1,2,0:0:0:0:
448,192,102554,1,0,0:0:0:0:
192,192,102701,1,8,0:0:0:0:
320,192,102701,1,4,0:0:0:0:
448,192,102701,1,0,0:0:0:0:
64,192,102847,1,2,0:0:0:0:
320,192,102920,1,0,0:0:0:0:
64,192,102994,1,0,0:0:0:70:Tom1.wav
192,192,102994,1,0,0:0:0:0:
320,192,103067,1,0,0:0:0:70:Tom2.wav
448,192,103067,1,0,0:0:0:0:
64,192,103140,1,0,0:0:0:70:Tom3.wav
192,192,103140,1,0,0:0:0:0:
320,192,103213,1,0,0:0:0:70:Tom1.wav
448,192,103213,1,0,0:0:0:0:
64,192,103286,1,4,0:0:0:0:
192,192,103359,1,0,0:0:0:0:
448,192,103433,1,0,0:0:0:0:
320,192,103506,1,0,0:0:0:0:
64,192,103579,128,2,104164:0:0:0:0:
192,192,103579,1,0,0:0:0:70:CrashRight.wav
448,192,103579,1,0,0:0:0:0:
320,192,103872,1,0,0:0:0:0:
448,192,104018,1,2,0:0:0:0:
192,192,104091,1,0,0:0:0:0:
320,192,104164,1,8,0:0:0:0:
448,192,104164,1,0,0:0:0:70:CrashRight.wav
320,192,104311,1,0,0:0:0:0:
192,192,104457,1,0,0:0:0:0:
192,192,104603,1,0,0:0:0:70:LR_Snare Drum .wav
64,192,104750,1,2,0:0:0:0:
320,192,104750,1,0,0:0:0:70:CrashRight.wav
448,192,104750,1,0,0:0:0:0:
64,192,104896,1,0,0:0:0:70:LR_Snare Drum .wav
192,192,104896,1,0,0:0:0:0:
448,192,105042,1,0,0:0:0:0:
320,192,105189,1,2,0:0:0:0:
192,192,105262,1,2,0:0:0:0:
64,192,105335,1,8,0:0:0:0:
320,192,105335,1,0,0:0:0:70:CrashRight.wav
448,192,105335,1,0,0:0:0:0:
448,192,105481,1,0,0:0:0:70:LR_Snare Drum .wav
192,192,105628,1,0,0:0:0:0:
192,192,105774,1,0,0:0:0:70:LR_Snare Drum .wav
320,192,105774,1,0,0:0:0:0:
64,192,105920,1,2,0:0:0:0:
320,192,105920,1,0,0:0:0:70:CrashRight.wav
448,192,105920,128,0,106506:0:0:0:0:
192,192,106067,1,0,0:0:0:0:
64,192,106213,1,0,0:0:0:0:
192,192,106359,1,2,0:0:0:0:
320,192,106433,1,2,0:0:0:0:
64,192,106506,1,8,0:0:0:0:
192,192,106506,1,0,0:0:0:70:CrashRight.wav
320,192,106652,1,0,0:0:0:0:
192,192,106798,1,0,0:0:0:0:
64,192,106945,1,0,0:0:0:70:LR_Snare Drum .wav
192,192,107018,1,0,0:0:0:0:
64,192,107091,1,2,0:0:0:0:
320,192,107091,1,0,0:0:0:70:CrashRight.wav
448,192,107091,1,0,0:0:0:0:
192,192,107237,1,0,0:0:0:70:LR_Snare Drum .wav
320,192,107237,1,0,0:0:0:0:
64,192,107384,1,0,0:0:0:0:
448,192,107384,1,0,0:0:0:0:
320,192,107457,1,0,0:0:0:0:
192,192,107530,1,2,0:0:0:0:
320,192,107603,1,2,0:0:0:0:
64,192,107676,1,8,0:0:0:0:
192,192,107676,1,0,0:0:0:70:CrashRight.wav
448,192,107676,1,0,0:0:0:0:
320,192,107823,1,0,0:0:0:0:
64,192,107969,1,2,0:0:0:0:
320,192,107969,1,0,0:0:0:70:CrashRight.wav
448,192,107969,1,0,0:0:0:0:
192,192,108115,1,0,0:0:0:0:
64,192,108262,1,2,0:0:0:0:
192,192,108262,128,0,108847:0:0:0:70:CrashRight.wav
320,192,108262,1,0,0:0:0:0:
448,192,108701,1,2,0:0:0:0:
320,192,108774,1,2,0:0:0:0:
64,192,108847,128,8,109433:0:0:0:0:
448,192,108847,1,0,0:0:0:70:CrashRight.wav
192,192,109140,1,0,0:0:0:0:
448,192,109286,1,8,0:0:0:0:
320,192,109359,1,8,0:0:0:0:
192,192,109433,1,2,0:0:0:0:
448,192,109433,1,0,0:0:0:70:CrashRight.wav
192,192,109579,1,0,0:0:0:70:LR_Snare Drum .wav
320,192,109579,1,0,0:0:0:0:
64,192,109725,1,0,0:0:0:0:
320,192,109872,1,2,0:0:0:0:
192,192,109945,1,2,0:0:0:0:
64,192,110018,1,8,0:0:0:0:
320,192,110018,1,0,0:0:0:70:CrashRight.wav
448,192,110018,1,0,0:0:0:0:
192,192,110164,1,0,0:0:0:70:LR_Snare Drum .wav
448,192,110311,1,0,0:0:0:0:
64,192,110457,1,0,0:0:0:70:LR_Snare Drum .wav
192,192,110457,1,0,0:0:0:0:
64,192,110603,1,2,0:0:0:0:
320,192,110603,128,0,111189:0:0:0:70:CrashRight.wav
448,192,110603,1,0,0:0:0:0:
64,192,111042,1,2,0:0:0:0:
192,192,111115,1,2,0:0:0:0:
64,192,111189,1,8,0:0:0:0:
448,192,111189,1,0,0:0:0:70:CrashRight.wav
192,192,111335,1,0,0:0:0:0:
320,192,111481,1,0,0:0:0:0:
64,192,111628,1,0,0:0:0:70:LR_Snare Drum .wav
192,192,111628,1,0,0:0:0:0:
64,192,111774,1,2,0:0:0:0:
320,192,111774,1,0,0:0:0:70:CrashRight.wav
448,192,111774,1,0,0:0:0:0:
192,192,111920,1,0,0:0:0:70:LR_Snare Drum .wav
320,192,111920,1,0,0:0:0:0:
64,192,112067,1,2,0:0:0:0:
192,192,112067,1,0,0:0:0:0:
64,192,112213,1,2,0:0:0:0:
448,192,112213,1,0,0:0:0:0:
192,192,112359,1,8,0:0:0:0:
320,192,112359,1,0,0:0:0:70:CrashRight.wav
448,192,112359,1,0,0:0:0:0:
64,192,112433,1,0,0:0:0:0:
192,192,112506,1,8,0:0:0:0:
320,192,112579,1,0,0:0:0:0:
64,192,112652,1,8,0:0:0:0:
448,192,112652,1,0,0:0:0:0:
192,192,112725,1,0,0:0:0:0:
320,192,112798,1,8,0:0:0:0:
448,192,112798,1,0,0:0:0:0:
64,192,112945,128,2,113530:0:0:0:0:
192,192,112945,1,0,0:0:0:70:CrashRight.wav
448,192,112945,1,0,0:0:0:0:
320,192,113530,128,0,113823:0:0:0:0:
192,192,113969,128,0,114262:0:0:0:0:
448,192,114408,1,0,0:0:0:0:
448,192,114554,128,0,114701:0:0:0:0:
64,192,114994,128,0,115140:0:0:0:0:
320,192,115286,128,0,115725:0:0:0:0:
192,192,115872,128,0,116164:0:0:0:0:
448,192,116311,128,0,116457:0:0:0:0:
64,192,116603,128,0,116750:0:0:0:0:
320,192,116750,128,0,116896:0:0:0:0:
192,192,116896,128,0,117042:0:0:0:0:
448,192,117335,128,0,117481:0:0:0:0:
64,192,117628,128,2,117920:0:0:0:0:
192,192,117628,1,0,0:0:0:70:CrashRight.wav
448,192,117628,1,0,0:0:0:0:
320,192,117920,1,2,0:0:0:0:
448,192,117920,1,0,0:0:0:0:
320,192,118067,1,0,0:0:0:0:
64,192,118213,1,2,0:0:0:0:
192,192,118213,128,0,118506:0:0:0:0:
320,192,118359,1,8,0:0:0:0:
448,192,118359,1,4,0:0:0:0:
64,192,118506,1,2,0:0:0:0:
448,192,118506,1,0,0:0:0:0:
192,192,118652,1,4,0:0:0:0:
320,192,118652,1,8,0:0:0:0:
64,192,118798,1,2,0:0:0:0:
320,192,118798,1,0,0:0:0:0:
448,192,118798,1,0,0:0:0:0:
192,192,118945,1,0,0:0:0:0:
320,192,119091,1,2,0:0:0:0:
448,192,119091,1,0,0:0:0:0:
192,192,119237,1,0,0:0:0:0:
320,192,119384,1,8,0:0:0:0:
448,192,119384,1,0,0:0:0:0:
64,192,119457,1,8,0:0:0:0:
192,192,119457,1,0,0:0:0:0:
320,192,119530,1,8,0:0:0:0:
448,192,119530,1,0,0:0:0:0:
64,192,119603,1,8,0:0:0:0:
192,192,119603,1,0,0:0:0:0:
448,192,119676,1,2,0:0:0:0:
320,192,119750,1,0,0:0:0:0:
64,192,119823,1,0,0:0:0:70:Tom2.wav
192,192,119896,1,0,0:0:0:0:
64,192,119969,128,2,120554:0:0:0:0:
320,192,119969,1,0,0:0:0:70:Tom3.wav
448,192,119969,1,0,0:0:0:70:CrashRight.wav
192,192,120262,1,8,0:0:0:0:
448,192,120262,1,2,0:0:0:0:
320,192,120408,1,8,0:0:0:0:
448,192,120408,1,0,0:0:0:0:
192,192,120554,1,2,0:0:0:0:
320,192,120554,1,8,0:0:0:0:
192,192,120701,1,8,0:0:0:0:
448,192,120701,1,0,0:0:0:0:
64,192,120847,1,2,0:0:0:0:
448,192,120847,1,8,0:0:0:0:
64,192,120994,1,8,0:0:0:0:
192,192,120994,1,0,0:0:0:70:CrashRight.wav
320,192,120994,1,0,0:0:0:0:
64,192,121286,1,8,0:0:0:0:
320,192,121286,1,0,0:0:0:70:Tom3.wav
448,192,121286,1,0,0:0:0:0:
64,192,121433,1,4,0:0:0:0:
192,192,121433,1,8,0:0:0:0:
320,192,121433,1,0,0:0:0:70:Tom3.wav
320,192,121579,1,2,0:0:0:0:
448,192,121579,1,0,0:0:0:0:
64,192,121652,1,2,0:0:0:0:
192,192,121652,1,0,0:0:0:0:
320,192,121725,1,8,0:0:0:0:
448,192,121725,1,0,0:0:0:0:
64,192,121872,1,8,0:0:0:0:
192,192,121872,1,4,0:0:0:0:
448,192,121872,1,0,0:0:0:0:
320,192,122018,1,0,0:0:0:0:
64,192,122164,1,2,0:0:0:0:
192,192,122164,1,0,0:0:0:70:CrashRight.wav
320,192,122164,1,0,0:0:0:0:
448,192,122164,1,0,0:0:0:0:
192,192,122457,1,2,0:0:0:0:
320,192,122457,1,0,0:0:0:0:
64,192,122603,1,8,0:0:0:0:
192,192,122603,1,4,0:0:0:0:
448,192,122603,1,0,0:0:0:0:
448,192,122750,1,0,0:0:0:0:
64,192,122896,1,4,0:0:0:0:
320,192,122896,1,2,0:0:0:0:
64,192,123042,1,2,0:0:0:0:
192,192,123042,1,0,0:0:0:0:
192,192,123189,1,8,0:0:0:0:
320,192,123189,1,4,0:0:0:0:
448,192,123189,1,0,0:0:0:0:
64,192,123335,1,2,0:0:0:0:
448,192,123335,1,0,0:0:0:0:
192,192,123481,1,4,0:0:0:0:
192,192,123628,1,2,0:0:0:0:
320,192,123628,1,0,0:0:0:0:
64,192,123774,1,4,0:0:0:0:
320,192,123774,1,8,0:0:0:0:
448,192,123774,1,0,0:0:0:0:
64,192,123920,1,0,0:0:0:0:
192,192,124067,1,2,0:0:0:0:
448,192,124067,1,4,0:0:0:0:
192,192,124213,1,2,0:0:0:0:
320,192,124213,1,0,0:0:0:0:
64,192,124359,1,8,0:0:0:0:
320,192,124359,1,4,0:0:0:0:
448,192,124359,1,0,0:0:0:0:
64,192,124506,1,2,0:0:0:0:
192,192,124506,1,0,0:0:0:70:CrashRight.wav
320,192,124506,1,0,0:0:0:0:
448,192,124506,1,0,0:0:0:0:
64,192,124798,1,2,0:0:0:0:
320,192,124798,1,0,0:0:0:0:
192,192,124945,1,8,0:0:0:0:
320,192,124945,1,4,0:0:0:0:
448,192,124945,1,0,0:0:0:0:
448,192,125091,1,0,0:0:0:0:
64,192,125237,1,2,0:0:0:0:
192,192,125237,1,4,0:0:0:0:
64,192,125384,1,2,0:0:0:0:
320,192,125384,1,0,0:0:0:0:
192,192,125530,1,8,0:0:0:0:
320,192,125530,1,4,0:0:0:0:
448,192,125530,1,0,0:0:0:0:
64,192,125676,1,2,0:0:0:0:
192,192,125676,1,0,0:0:0:70:CrashRight.wav
320,192,125676,1,0,0:0:0:0:
448,192,125676,1,0,0:0:0:0:
192,192,125969,1,2,0:0:0:0:
320,192,125969,1,0,0:0:0:0:
64,192,126115,1,8,0:0:0:0:
192,192,126115,1,4,0:0:0:0:
448,192,126115,1,0,0:0:0:0:
320,192,126262,1,2,0:0:0:0:
448,192,126262,1,0,0:0:0:0:
64,192,126408,1,2,0:0:0:0:
192,192,126408,1,0,0:0:0:0:
448,192,126554,1,0,0:0:0:70:LR_Snare Drum .wav
320,192,126628,1,0,0:0:0:70:LR_Snare Drum .wav
64,192,126701,1,8,0:0:0:0:
192,192,126701,1,0,0:0:0:70:LR_Snare Drum .wav
448,192,126774,1,0,0:0:0:70:LR_Snare Drum .wav
320,192,126847,1,0,0:0:0:70:LR_Snare Drum .wav
192,192,126920,1,0,0:0:0:70:LR_Snare Drum .wav
64,192,126994,1,2,0:0:0:0:
320,192,126994,1,0,0:0:0:70:CrashRight.wav
448,192,126994,1,0,0:0:0:0:
192,192,127286,1,8,0:0:0:0:
320,192,127286,1,0,0:0:0:0:
448,192,127286,1,0,0:0:0:0:
192,192,127433,1,4,0:0:0:0:
64,192,127579,1,2,0:0:0:0:
448,192,127579,1,0,0:0:0:0:
448,192,127725,1,4,0:0:0:0:
64,192,127872,1,8,0:0:0:0:
192,192,127872,1,0,0:0:0:0:
320,192,127872,1,0,0:0:0:0:
320,192,128018,1,4,0:0:0:0:
64,192,128164,1,2,0:0:0:0:
448,192,128164,1,0,0:0:0:0:
64,192,128311,1,4,0:0:0:0:
192,192,128457,1,8,0:0:0:0:
320,192,128457,1,0,0:0:0:0:
448,192,128457,1,0,0:0:0:0:
320,192,128603,1,4,0:0:0:0:
64,192,128750,1,2,0:0:0:0:
192,192,128750,1,0,0:0:0:0:
192,192,128896,1,4,0:0:0:0:
64,192,129042,1,8,0:0:0:0:
320,192,129042,1,0,0:0:0:0:
448,192,129042,1,0,0:0:0:0:
64,192,129189,1,2,0:0:0:0:
192,192,129189,1,0,0:0:0:70:CrashRight.wav
320,192,129189,1,0,0:0:0:0:
448,192,129189,1,0,0:0:0:0:
192,192,129481,1,2,0:0:0:0:
320,192,129481,1,0,0:0:0:0:
64,192,129628,1,4,0:0:0:0:
192,192,129628,1,8,0:0:0:0:
448,192,129628,1,0,0:0:0:0:
320,192,129774,1,2,0:0:0:0:
448,192,129774,1,0,0:0:0:0:
64,192,129847,1,2,0:0:0:0:
192,192,129847,1,0,0:0:0:0:
320,192,129920,1,8,0:0:0:0:
448,192,129920,1,4,0:0:0:0:
64,192,130067,1,2,0:0:0:0:
192,192,130067,1,0,0:0:0:0:
64,192,130213,1,8,0:0:0:0:
320,192,130213,1,0,0:0:0:0:
448,192,130213,1,0,0:0:0:0:
64,192,130359,1,2,0:0:0:0:
192,192,130359,1,0,0:0:0:70:CrashRight.wav
320,192,130359,1,0,0:0:0:0:
448,192,130359,1,0,0:0:0:0:
64,192,130652,1,2,0:0:0:0:
192,192,130652,1,0,0:0:0:0:
64,192,130798,1,8,0:0:0:0:
320,192,130798,1,0,0:0:0:0:
448,192,130798,1,0,0:0:0:0:
320,192,130945,1,0,0:0:0:0:
64,192,131091,1,2,0:0:0:0:
192,192,131091,1,0,0:0:0:0:
192,192,131237,1,2,0:0:0:0:
448,192,131237,1,0,0:0:0:0:
64,192,131384,1,8,0:0:0:0:
320,192,131384,1,0,0:0:0:0:
448,192,131384,1,0,0:0:0:0:
64,192,131530,1,2,0:0:0:0:
192,192,131530,1,0,0:0:0:70:CrashRight.wav
320,192,131530,1,0,0:0:0:0:
448,192,131530,1,0,0:0:0:0:
64,192,131823,1,2,0:0:0:0:
448,192,131823,1,0,0:0:0:0:
192,192,131969,1,8,0:0:0:0:
320,192,131969,1,0,0:0:0:0:
448,192,131969,1,0,0:0:0:0:
192,192,132115,1,0,0:0:0:0:
64,192,132262,1,2,0:0:0:0:
448,192,132262,1,0,0:0:0:0:
320,192,132408,1,2,0:0:0:0:
448,192,132408,1,0,0:0:0:0:
64,192,132554,1,8,0:0:0:0:
192,192,132554,1,0,0:0:0:0:
320,192,132554,1,0,0:0:0:0:
64,192,132701,1,2,0:0:0:0:
192,192,132701,1,0,0:0:0:0:
320,192,132847,1,0,0:0:0:0:
448,192,132847,1,0,0:0:0:0:
64,192,132994,1,2,0:0:0:0:
448,192,132994,1,0,0:0:0:0:
64,192,133140,1,8,0:0:0:0:
192,192,133140,1,0,0:0:0:0:
320,192,133140,1,0,0:0:0:0:
192,192,133286,1,0,0:0:0:0:
320,192,133433,1,2,0:0:0:0:
448,192,133433,1,0,0:0:0:0:
64,192,133579,1,2,0:0:0:0:
448,192,133579,1,0,0:0:0:0:
64,192,133725,1,8,0:0:0:0:
192,192,133725,1,0,0:0:0:0:
320,192,133725,1,0,0:0:0:0:
64,192,133872,1,2,0:0:0:0:
192,192,133872,1,0,0:0:0:70:CrashRight.wav
320,192,133872,1,0,0:0:0:0:
448,192,133872,1,0,0:0:0:0:
64,192,134164,1,2,0:0:0:0:
448,192,134164,1,0,0:0:0:0:
64,192,134311,1,8,0:0:0:0:
192,192,134311,1,0,0:0:0:0:
320,192,134311,1,0,0:0:0:0:
320,192,134457,1,0,0:0:0:0:
64,192,134603,1,2,0:0:0:0:
448,192,134603,1,0,0:0:0:0:
192,192,134750,1,2,0:0:0:0:
448,192,134750,1,0,0:0:0:0:
64,192,134896,1,8,0:0:0:0:
192,192,134896,1,0,0:0:0:0:
320,192,134896,1,0,0:0:0:0:
320,192,135042,1,2,0:0:0:0:
448,192,135042,1,0,0:0:0:0:
64,192,135189,1,0,0:0:0:0:
64,192,135335,1,2,0:0:0:0:
320,192,135335,1,0,0:0:0:0:
192,192,135481,1,8,0:0:0:0:
320,192,135481,1,0,0:0:0:0:
448,192,135481,1,0,0:0:0:0:
448,192,135628,1,0,0:0:0:0:
64,192,135774,1,2,0:0:0:0:
192,192,135774,1,0,0:0:0:0:
320,192,135920,1,2,0:0:0:0:
448,192,135920,1,0,0:0:0:0:
64,192,136067,1,8,0:0:0:0:
192,192,136067,1,0,0:0:0:0:
448,192,136067,1,0,0:0:0:0:
64,192,136213,1,2,0:0:0:0:
192,192,136213,1,0,0:0:0:70:CrashRight.wav
320,192,136213,1,0,0:0:0:0:
448,192,136213,1,0,0:0:0:0:
192,192,136506,1,2,0:0:0:0:
448,192,136506,1,0,0:0:0:0:
64,192,136652,1,8,0:0:0:0:
320,192,136652,1,4,0:0:0:0:
448,192,136652,1,0,0:0:0:0:
64,192,136798,1,0,0:0:0:0:
192,192,136945,1,2,0:0:0:0:
448,192,136945,1,4,0:0:0:0:
192,192,137091,1,2,0:0:0:0:
320,192,137091,1,0,0:0:0:0:
64,192,137237,1,8,0:0:0:0:
320,192,137237,1,4,0:0:0:0:
448,192,137237,1,0,0:0:0:0:
64,192,137384,1,2,0:0:0:0:
192,192,137384,1,0,0:0:0:0:
192,192,137676,1,2,0:0:0:0:
448,192,137676,1,0,0:0:0:0:
64,192,137823,1,4,0:0:0:0:
320,192,137823,1,8,0:0:0:0:
448,192,137823,1,0,0:0:0:0:
192,192,137969,1,0,0:0:0:0:
192,192,138115,1,4,0:0:0:0:
320,192,138115,1,2,0:0:0:0:
64,192,138262,1,2,0:0:0:0:
448,192,138262,1,0,0:0:0:0:
192,192,138408,1,8,0:0:0:0:
320,192,138408,1,0,0:0:0:0:
448,192,138408,1,0,0:0:0:0:
64,192,138554,1,2,0:0:0:0:
192,192,138554,1,0,0:0:0:70:CrashRight.wav
320,192,138554,1,0,0:0:0:0:
448,192,138554,1,0,0:0:0:0:
64,192,138847,1,2,0:0:0:0:
192,192,138847,1,0,0:0:0:0:
64,192,138994,1,8,0:0:0:0:
320,192,138994,1,4,0:0:0:0:
448,192,138994,1,0,0:0:0:0:
192,192,139140,1,2,0:0:0:0:
448,192,139140,1,0,0:0:0:0:
64,192,139286,1,8,0:0:0:0:
192,192,139286,1,4,0:0:0:0:
320,192,139286,1,0,0:0:0:0:
64,192,139433,1,0,0:0:0:70:Tom1.wav
448,192,139433,1,0,0:0:0:0:
192,192,139579,1,0,0:0:0:70:Tom2.wav
320,192,139579,1,0,0:0:0:0:
448,192,139579,1,0,0:0:0:0:
64,192,139725,1,2,0:0:0:0:
192,192,139725,1,0,0:0:0:70:CrashRight.wav
320,192,139725,1,0,0:0:0:0:
448,192,139725,1,0,0:0:0:0:
64,192,140018,1,2,0:0:0:0:
448,192,140018,1,0,0:0:0:0:
320,192,140164,1,4,0:0:0:0:
448,192,140164,1,8,0:0:0:0:
64,192,140311,1,2,0:0:0:0:
192,192,140311,1,0,0:0:0:0:
192,192,140457,1,2,0:0:0:0:
320,192,140457,1,0,0:0:0:70:LR_Snare Drum .wav
64,192,140530,1,0,0:0:0:70:LR_Snare Drum .wav
448,192,140603,1,0,0:0:0:70:LR_Snare Drum .wav
320,192,140676,1,0,0:0:0:70:LR_Snare Drum .wav
64,192,140750,1,8,0:0:0:0:
192,192,140750,1,0,0:0:0:0:
64,192,140896,1,2,0:0:0:0:
320,192,140896,1,0,0:0:0:70:CrashRight.wav
448,192,140896,1,0,0:0:0:0:
192,192,141189,1,2,0:0:0:0:
320,192,141189,1,0,0:0:0:0:
64,192,141335,1,8,0:0:0:0:
192,192,141335,1,4,0:0:0:0:
448,192,141335,1,0,0:0:0:0:
192,192,141628,1,2,0:0:0:0:
320,192,141628,1,4,0:0:0:0:
192,192,141774,1,2,0:0:0:0:
448,192,141774,1,0,0:0:0:0:
64,192,141920,1,4,0:0:0:0:
320,192,141920,1,8,0:0:0:0:
448,192,141920,1,0,0:0:0:0:
64,192,142067,1,2,0:0:0:0:
192,192,142067,128,0,142359:0:0:0:0:
320,192,142359,1,2,0:0:0:0:
448,192,142359,1,0,0:0:0:0:
64,192,142506,1,8,0:0:0:0:
192,192,142506,1,4,0:0:0:0:
320,192,142506,1,0,0:0:0:0:
64,192,142798,1,2,0:0:0:0:
448,192,142798,1,4,0:0:0:0:
64,192,142945,1,2,0:0:0:0:
192,192,142945,1,0,0:0:0:0:
320,192,142945,1,0,0:0:0:0:
192,192,143091,1,4,0:0:0:0:
448,192,143091,1,8,0:0:0:0:
64,192,143237,128,2,143530:0:0:0:0:
320,192,143237,1,0,0:0:0:70:CrashRight.wav
448,192,143237,1,0,0:0:0:0:
192,192,143530,1,2,0:0:0:0:
320,192,143530,1,0,0:0:0:0:
64,192,143676,1,8,0:0:0:0:
192,192,143676,1,4,0:0:0:0:
448,192,143676,1,0,0:0:0:0:
64,192,143969,1,2,0:0:0:0:
320,192,143969,1,4,0:0:0:0:
192,192,144115,1,2,0:0:0:0:
320,192,144115,1,0,0:0:0:0:
64,192,144262,1,8,0:0:0:0:
192,192,144262,1,4,0:0:0:0:
448,192,144262,1,0,0:0:0:0:
320,192,144408,128,2,144701:0:0:0:0:
448,192,144408,1,0,0:0:0:0:
64,192,144701,1,2,0:0:0:0:
192,192,144701,1,0,0:0:0:0:
64,192,144847,1,8,0:0:0:0:
320,192,144847,1,4,0:0:0:0:
448,192,144847,1,0,0:0:0:0:
192,192,144994,1,2,0:0:0:0:
448,192,144994,1,0,0:0:0:0:
64,192,145140,1,8,0:0:0:0:
320,192,145140,1,0,0:0:0:70:LR_Snare Drum .wav
192,192,145213,1,0,0:0:0:70:LR_Snare Drum .wav
448,192,145286,1,0,0:0:0:70:LR_Snare Drum .wav
320,192,145359,1,0,0:0:0:70:LR_Snare Drum .wav
64,192,145433,1,8,0:0:0:0:
192,192,145433,1,4,0:0:0:0:
64,192,145579,128,2,145872:0:0:0:0:
320,192,145579,1,0,0:0:0:70:CrashRight.wav
448,192,145579,1,0,0:0:0:0:
192,192,145872,1,2,0:0:0:0:
320,192,145872,1,0,0:0:0:0:
64,192,146018,1,8,0:0:0:0:
192,192,146018,1,4,0:0:0:0:
448,192,146018,1,0,0:0:0:0:
320,192,146311,1,2,0:0:0:0:
448,192,146311,1,4,0:0:0:0:
64,192,146457,1,2,0:0:0:0:
320,192,146457,1,0,0:0:0:0:
64,192,146603,1,8,0:0:0:0:
192,192,146603,1,4,0:0:0:0:
448,192,146603,1,0,0:0:0:0:
192,192,146750,1,2,0:0:0:0:
320,192,146750,1,0,0:0:0:0:
64,192,147042,1,2,0:0:0:0:
192,192,147042,1,0,0:0:0:0:
64,192,147189,1,8,0:0:0:0:
320,192,147189,1,4,0:0:0:0:
448,192,147189,1,0,0:0:0:0:
192,192,147335,1,0,0:0:0:0:
192,192,147481,1,2,0:0:0:0:
448,192,147481,1,4,0:0:0:0:
320,192,147628,1,2,0:0:0:0:
448,192,147628,1,0,0:0:0:0:
64,192,147774,1,8,0:0:0:0:
192,192,147774,1,4,0:0:0:0:
320,192,147774,1,0,0:0:0:0:
64,192,147920,1,2,0:0:0:0:
192,192,147920,1,0,0:0:0:70:CrashRight.wav
448,192,147920,1,0,0:0:0:0:
192,192,148213,1,2,0:0:0:0:
320,192,148213,1,0,0:0:0:0:
64,192,148359,1,8,0:0:0:0:
320,192,148359,1,4,0:0:0:0:
448,192,148359,1,0,0:0:0:0:
64,192,148506,1,2,0:0:0:0:
192,192,148506,1,0,0:0:0:0:
320,192,148652,1,8,0:0:0:0:
448,192,148652,1,4,0:0:0:0:
64,192,148798,1,2,0:0:0:0:
192,192,148798,1,0,0:0:0:0:
320,192,148872,1,2,0:0:0:0:
448,192,148872,1,0,0:0:0:0:
64,192,148945,1,8,0:0:0:0:
192,192,148945,1,4,0:0:0:0:
64,192,149091,1,2,0:0:0:0:
320,192,149091,1,0,0:0:0:70:CrashRight.wav
448,192,149091,1,0,0:0:0:0:
192,192,149384,1,2,0:0:0:0:
320,192,149384,1,0,0:0:0:0:
64,192,149530,1,8,0:0:0:0:
192,192,149530,1,0,0:0:0:0:
448,192,149530,1,0,0:0:0:0:
320,192,149676,1,2,0:0:0:0:
448,192,149676,1,0,0:0:0:0:
64,192,149823,1,8,0:0:0:0:
192,192,149896,1,0,0:0:0:70:LR_Snare Drum .wav
448,192,149969,1,0,0:0:0:70:LR_Snare Drum .wav
320,192,150042,1,0,0:0:0:70:LR_Snare Drum .wav
64,192,150115,1,8,0:0:0:0:
192,192,150115,1,0,0:0:0:0:
64,192,150262,1,2,0:0:0:0:
320,192,150262,1,0,0:0:0:70:CrashRight.wav
448,192,150262,1,0,0:0:0:0:
192,192,150554,1,2,0:0:0:0:
320,192,150554,1,0,0:0:0:0:
64,192,150701,1,8,0:0:0:0:
192,192,150701,1,0,0:0:0:0:
448,192,150701,1,0,0:0:0:0:
320,192,150994,1,2,0:0:0:0:
448,192,150994,1,0,0:0:0:0:
320,192,151140,1,2,0:0:0:0:
448,192,151140,1,0,0:0:0:0:
64,192,151286,1,8,0:0:0:0:
192,192,151286,1,0,0:0:0:0:
448,192,151286,1,0,0:0:0:0:
192,192,151433,1,2,0:0:0:0:
320,192,151433,1,0,0:0:0:0:
64,192,151579,1,0,0:0:0:0:
64,192,151725,1,2,0:0:0:0:
448,192,151725,1,0,0:0:0:0:
192,192,151872,1,8,0:0:0:0:
320,192,151872,1,0,0:0:0:0:
448,192,151872,1,0,0:0:0:0:
64,192,152164,1,2,0:0:0:0:
192,192,152164,1,0,0:0:0:0:
64,192,152311,1,2,0:0:0:0:
192,192,152311,1,0,0:0:0:0:
64,192,152457,1,8,0:0:0:0:
320,192,152457,1,0,0:0:0:0:
448,192,152457,1,0,0:0:0:0:
192,192,152603,1,2,0:0:0:0:
320,192,152603,1,0,0:0:0:70:CrashRight.wav
448,192,152603,1,0,0:0:0:0:
64,192,152896,1,2,0:0:0:0:
192,192,152896,1,0,0:0:0:0:
64,192,153042,1,8,0:0:0:0:
320,192,153042,1,0,0:0:0:0:
448,192,153042,1,0,0:0:0:0:
192,192,153335,1,2,0:0:0:0:
320,192,153335,1,0,0:0:0:0:
192,192,153481,1,2,0:0:0:0:
320,192,153481,1,0,0:0:0:0:
64,192,153628,1,8,0:0:0:0:
192,192,153628,1,0,0:0:0:0:
448,192,153628,1,0,0:0:0:0:
64,192,153774,1,2,0:0:0:0:
320,192,153774,1,0,0:0:0:70:CrashRight.wav
448,192,153774,1,0,0:0:0:0:
64,192,154067,1,2,0:0:0:0:
320,192,154067,1,0,0:0:0:0:
64,192,154213,1,8,0:0:0:0:
192,192,154213,1,0,0:0:0:0:
448,192,154213,1,0,0:0:0:0:
192,192,154359,1,2,0:0:0:0:
320,192,154359,1,0,0:0:0:0:
64,192,154506,1,8,0:0:0:0:
320,192,154506,1,0,0:0:0:70:LR_Snare Drum .wav
448,192,154506,1,0,0:0:0:0:
192,192,154579,1,0,0:0:0:70:LR_Snare Drum .wav
320,192,154652,1,0,0:0:0:70:LR_Snare Drum .wav
192,192,154725,1,0,0:0:0:70:LR_Snare Drum .wav
64,192,154798,1,8,0:0:0:0:
448,192,154798,1,0,0:0:0:0:
64,192,154945,128,2,155237:0:0:0:0:
192,192,154945,1,0,0:0:0:70:CrashRight.wav
320,192,154945,1,0,0:0:0:0:
192,192,155237,1,2,0:0:0:0:
320,192,155237,1,0,0:0:0:0:
64,192,155384,1,8,0:0:0:0:
320,192,155384,1,4,0:0:0:0:
448,192,155384,1,0,0:0:0:0:
64,192,155530,1,0,0:0:0:0:
448,192,155530,128,0,155969:0:0:0:0:
192,192,155603,1,0,0:0:0:0:
320,192,155676,1,6,0:0:0:0:
320,192,155823,1,2,0:0:0:0:
64,192,155969,1,8,0:0:0:0:
192,192,155969,1,4,0:0:0:0:
64,192,156115,128,0,156554:0:0:0:0:
192,192,156189,1,0,0:0:0:0:
320,192,156262,1,6,0:0:0:0:
320,192,156408,1,2,0:0:0:0:
192,192,156554,1,8,0:0:0:0:
448,192,156554,1,4,0:0:0:0:
448,192,156701,128,0,157140:0:0:0:0:
320,192,156774,1,0,0:0:0:0:
192,192,156847,1,6,0:0:0:0:
192,192,156994,1,2,0:0:0:0:
64,192,157140,1,8,0:0:0:0:
320,192,157140,1,4,0:0:0:0:
64,192,157286,1,2,0:0:0:0:
192,192,157286,128,0,157579:0:0:0:70:CrashRight.wav
448,192,157286,1,0,0:0:0:0:
320,192,157579,1,2,0:0:0:0:
448,192,157579,1,0,0:0:0:0:
64,192,157725,1,8,0:0:0:0:
192,192,157725,1,4,0:0:0:0:
320,192,157725,1,0,0:0:0:0:
192,192,157872,1,2,0:0:0:0:
448,192,157872,1,0,0:0:0:0:
64,192,158018,1,4,0:0:0:0:
320,192,158018,1,8,0:0:0:0:
448,192,158018,1,0,0:0:0:0:
64,192,158164,1,2,0:0:0:0:
192,192,158164,1,0,0:0:0:0:
320,192,158237,1,2,0:0:0:0:
448,192,158237,1,0,0:0:0:0:
64,192,158311,1,8,0:0:0:0:
192,192,158311,1,4,0:0:0:0:
192,192,158457,1,2,0:0:0:0:
320,192,158457,1,0,0:0:0:70:CrashRight.wav
448,192,158457,1,0,0:0:0:0:
64,192,158750,1,2,0:0:0:0:
192,192,158750,1,0,0:0:0:0:
64,192,158896,1,8,0:0:0:0:
320,192,158896,1,0,0:0:0:0:
448,192,158896,1,0,0:0:0:0:
192,192,159042,1,2,0:0:0:0:
320,192,159042,1,0,0:0:0:0:
64,192,159189,1,8,0:0:0:0:
192,192,159189,1,0,0:0:0:70:LR_Snare Drum .wav
320,192,159262,1,0,0:0:0:70:LR_Snare Drum .wav
448,192,159262,1,0,0:0:0:0:
64,192,159335,1,0,0:0:0:70:LR_Snare Drum .wav
192,192,159335,1,0,0:0:0:0:
320,192,159408,1,0,0:0:0:70:LR_Snare Drum .wav
448,192,159408,1,0,0:0:0:0:
64,192,159481,1,8,0:0:0:0:
192,192,159481,1,0,0:0:0:0:
64,192,159628,128,2,160798:0:0:0:0:
320,192,159628,1,0,0:0:0:70:CrashRight.wav
448,192,159628,1,0,0:0:0:0:
448,192,160359,1,4,0:0:0:0:
192,192,160798,1,2,0:0:0:0:
320,192,160798,128,0,161530:0:0:0:70:CrashRight.wav
448,192,160798,1,0,0:0:0:0:
448,192,161237,1,4,0:0:0:0:
64,192,161530,1,12,0:0:0:0:
192,192,161530,1,0,0:0:0:70:LR_Snare Drum .wav
448,192,161603,1,0,0:0:0:70:LR_Snare Drum .wav
320,192,161676,1,2,0:0:0:0:
192,192,161750,1,2,0:0:0:0:
64,192,161823,1,8,0:0:0:0:
448,192,161823,1,0,0:0:0:0:
64,192,161969,1,2,0:0:0:0:
192,192,161969,1,0,0:0:0:70:CrashRight.wav
320,192,161969,1,0,0:0:0:0:
320,192,162262,1,8,0:0:0:0:
448,192,162262,1,0,0:0:0:70:Tom1.wav
64,192,162408,1,8,0:0:0:0:
192,192,162408,1,0,0:0:0:70:Tom1.wav
64,192,162554,1,8,0:0:0:0:
320,192,162554,1,0,0:0:0:70:Tom1.wav
448,192,162554,1,0,0:0:0:0:
320,192,162701,1,0,0:0:0:70:Tom2.wav
448,192,162701,1,0,0:0:0:0:
64,192,162774,1,0,0:0:0:70:Tom2.wav
192,192,162774,1,0,0:0:0:0:
320,192,162847,1,0,0:0:0:70:Tom3.wav
448,192,162847,1,0,0:0:0:0:
64,192,162920,1,0,0:0:0:70:Tom3.wav
192,192,162920,1,0,0:0:0:0:
320,192,162994,1,12,0:0:0:0:
448,192,162994,1,2,0:0:0:0:
64,192,163140,1,4,0:0:0:0:
192,192,163140,1,2,0:0:0:0:
448,192,163140,1,8,0:0:0:0:
64,192,163433,1,8,0:0:0:0:
192,192,163433,1,2,0:0:0:0:
320,192,163433,1,4,0:0:0:0:
192,192,163725,1,8,0:0:0:0:
320,192,163725,1,2,0:0:0:0:
448,192,163725,1,4,0:0:0:0:
64,192,163872,1,8,0:0:0:0:
192,192,163872,1,0,0:0:0:0:
64,192,164018,1,2,0:0:0:0:
320,192,164018,1,4,0:0:0:0:
448,192,164018,1,8,0:0:0:0:
192,192,164311,1,2,0:0:0:0:
320,192,164311,1,0,0:0:0:70:CrashRight.wav
448,192,164311,1,0,0:0:0:0:
64,192,164603,1,0,0:0:0:70:LR_Snare Drum .wav
192,192,164676,1,0,0:0:0:70:LR_Snare Drum .wav
320,192,164750,1,2,0:0:0:0:
448,192,164750,1,0,0:0:0:70:LR_Snare Drum .wav
192,192,164823,1,0,0:0:0:70:LR_Snare Drum .wav
64,192,164896,1,0,0:0:0:70:LR_Snare Drum .wav
320,192,164896,1,0,0:0:0:0:
448,192,164969,1,0,0:0:0:70:LR_Snare Drum .wav
64,192,165042,1,2,0:0:0:0:
192,192,165042,1,0,0:0:0:70:LR_Snare Drum .wav
320,192,165115,1,0,0:0:0:70:LR_Snare Drum .wav
192,192,165189,1,0,0:0:0:70:LR_Snare Drum .wav
448,192,165189,1,0,0:0:0:0:
64,192,165262,1,0,0:0:0:70:LR_Snare Drum .wav
320,192,165335,1,2,0:0:0:0:
448,192,165335,1,0,0:0:0:70:LR_Snare Drum .wav
192,192,165408,1,0,0:0:0:70:LR_Snare Drum .wav
64,192,165481,1,0,0:0:0:70:LR_Snare Drum .wav
320,192,165481,1,0,0:0:0:0:
448,192,165554,1,0,0:0:0:70:LR_Snare Drum .wav
64,192,165628,1,2,0:0:0:0:
192,192,165628,1,0,0:0:0:70:LR_Snare Drum .wav
320,192,165701,1,0,0:0:0:70:LR_Snare Drum .wav
192,192,165774,1,0,0:0:0:70:LR_Snare Drum .wav
448,192,165774,1,0,0:0:0:0:
64,192,165847,1,0,0:0:0:70:LR_Snare Drum .wav
320,192,165920,1,2,0:0:0:0:
448,192,165920,1,0,0:0:0:70:LR_Snare Drum .wav
192,192,165994,1,0,0:0:0:70:LR_Snare Drum .wav
64,192,166067,1,0,0:0:0:70:LR_Snare Drum .wav
320,192,166067,1,0,0:0:0:0:
448,192,166140,1,0,0:0:0:70:LR_Snare Drum .wav
64,192,166213,1,2,0:0:0:0:
192,192,166213,1,0,0:0:0:70:LR_Snare Drum .wav
320,192,166286,1,0,0:0:0:70:LR_Snare Drum .wav
192,192,166359,1,0,0:0:0:70:LR_Snare Drum .wav
448,192,166359,1,0,0:0:0:0:
64,192,166433,1,0,0:0:0:70:LR_Snare Drum .wav
320,192,166506,1,2,0:0:0:0:
448,192,166506,1,0,0:0:0:70:LR_Snare Drum .wav
64,192,166652,128,0,167384:0:0:0:0:
192,192,167530,1,0,0:0:0:0:
320,192,167676,1,0,0:0:0:0:
64,192,167823,128,2,168115:0:0:0:0:
192,192,167823,128,0,168115:0:0:0:70:CrashRight.wav
448,192,167823,1,0,0:0:0:0:
320,192,168115,1,0,0:0:0:70:LR_Snare Drum .wav
192,192,168189,1,0,0:0:0:70:LR_Snare Drum .wav
64,192,168262,1,8,0:0:0:0:
448,192,168262,1,0,0:0:0:70:LR_Snare Drum .wav
320,192,168335,1,0,0:0:0:70:LR_Snare Drum .wav
192,192,168408,1,0,0:0:0:70:LR_Snare Drum .wav
64,192,168481,1,0,0:0:0:70:LR_Snare Drum .wav
192,192,168554,1,8,0:0:0:0:
320,192,168554,1,0,0:0:0:70:Tom2.wav
448,192,168554,1,0,0:0:0:0:
64,192,168701,1,8,0:0:0:0:
320,192,168701,1,0,0:0:0:70:Tom2.wav
448,192,168701,1,0,0:0:0:0:
64,192,168994,1,2,0:0:0:0:
192,192,168994,1,0,0:0:0:70:CrashRight.wav
320,192,168994,1,0,0:0:0:0:
448,192,168994,1,0,0:0:0:0:
192,192,169286,1,2,0:0:0:0:
320,192,169286,1,0,0:0:0:0:
64,192,169433,1,8,0:0:0:0:
192,192,169433,1,4,0:0:0:0:
448,192,169433,1,0,0:0:0:0:
64,192,169725,1,4,0:0:0:0:
320,192,169725,1,2,0:0:0:0:
64,192,169872,1,2,0:0:0:0:
192,192,169872,1,0,0:0:0:0:
192,192,170018,1,4,0:0:0:0:
320,192,170018,1,8,0:0:0:0:
448,192,170018,1,0,0:0:0:0:
64,192,170164,1,2,0:0:0:0:
448,192,170164,1,0,0:0:0:0:
192,192,170311,1,4,0:0:0:0:
192,192,170457,1,2,0:0:0:0:
320,192,170457,1,0,0:0:0:0:
64,192,170603,1,4,0:0:0:0:
320,192,170603,1,8,0:0:0:0:
448,192,170603,1,0,0:0:0:0:
64,192,170750,1,0,0:0:0:0:
192,192,170896,1,2,0:0:0:0:
448,192,170896,1,4,0:0:0:0:
192,192,171042,1,2,0:0:0:0:
320,192,171042,1,0,0:0:0:0:
64,192,171189,1,4,0:0:0:0:
320,192,171189,1,8,0:0:0:0:
448,192,171189,1,0,0:0:0:0:
64,192,171335,1,2,0:0:0:0:
192,192,171335,1,0,0:0:0:70:CrashRight.wav
320,192,171335,1,0,0:0:0:0:
448,192,171335,1,0,0:0:0:0:
64,192,171628,1,2,0:0:0:0:
320,192,171628,1,0,0:0:0:0:
192,192,171774,1,8,0:0:0:0:
320,192,171774,1,4,0:0:0:0:
448,192,171774,1,0,0:0:0:0:
448,192,171920,1,0,0:0:0:0:
64,192,172067,1,2,0:0:0:0:
192,192,172067,1,4,0:0:0:0:
64,192,172213,1,2,0:0:0:0:
320,192,172213,1,0,0:0:0:0:
192,192,172359,1,8,0:0:0:0:
320,192,172359,1,4,0:0:0:0:
448,192,172359,1,0,0:0:0:0:
64,192,172506,1,2,0:0:0:0:
192,192,172506,1,0,0:0:0:70:CrashRight.wav
320,192,172506,1,0,0:0:0:0:
448,192,172506,1,0,0:0:0:0:
192,192,172798,1,2,0:0:0:0:
320,192,172798,1,0,0:0:0:0:
64,192,172945,1,8,0:0:0:0:
192,192,172945,1,4,0:0:0:0:
448,192,172945,1,0,0:0:0:0:
320,192,173091,1,2,0:0:0:0:
448,192,173091,1,0,0:0:0:0:
64,192,173237,1,2,0:0:0:0:
192,192,173237,1,0,0:0:0:0:
64,192,173384,1,0,0:0:0:70:LR_Snare Drum .wav
320,192,173457,1,0,0:0:0:70:LR_Snare Drum .wav
192,192,173530,1,8,0:0:0:0:
448,192,173603,1,0,0:0:0:70:LR_Snare Drum .wav
320,192,173676,1,0,0:0:0:70:LR_Snare Drum .wav
192,192,173750,1,0,0:0:0:70:LR_Snare Drum .wav
64,192,173823,1,2,0:0:0:0:
320,192,173823,1,0,0:0:0:70:CrashRight.wav
448,192,173823,1,0,0:0:0:0:
192,192,174115,1,8,0:0:0:0:
320,192,174115,1,0,0:0:0:0:
448,192,174115,1,0,0:0:0:0:
192,192,174262,1,4,0:0:0:0:
64,192,174408,1,2,0:0:0:0:
448,192,174408,1,0,0:0:0:0:
448,192,174554,1,4,0:0:0:0:
64,192,174701,1,8,0:0:0:0:
192,192,174701,1,0,0:0:0:0:
320,192,174701,1,0,0:0:0:0:
320,192,174847,1,4,0:0:0:0:
64,192,174994,1,2,0:0:0:0:
448,192,174994,1,0,0:0:0:0:
64,192,175140,1,4,0:0:0:0:
192,192,175286,1,8,0:0:0:0:
320,192,175286,1,0,0:0:0:0:
448,192,175286,1,0,0:0:0:0:
320,192,175433,1,4,0:0:0:0:
64,192,175579,1,2,0:0:0:0:
192,192,175579,1,0,0:0:0:0:
192,192,175725,1,4,0:0:0:0:
64,192,175872,1,8,0:0:0:0:
320,192,175872,1,0,0:0:0:0:
448,192,175872,1,0,0:0:0:0:
64,192,176018,1,2,0:0:0:0:
192,192,176018,1,0,0:0:0:70:CrashRight.wav
320,192,176018,1,0,0:0:0:0:
448,192,176018,1,0,0:0:0:0:
192,192,176311,1,2,0:0:0:0:
320,192,176311,1,0,0:0:0:0:
64,192,176457,1,8,0:0:0:0:
192,192,176457,1,4,0:0:0:0:
448,192,176457,1,0,0:0:0:0:
320,192,176603,1,2,0:0:0:0:
448,192,176603,1,0,0:0:0:0:
192,192,176676,1,2,0:0:0:0:
64,192,176750,1,4,0:0:0:0:
320,192,176750,1,8,0:0:0:0:
448,192,176750,1,0,0:0:0:0:
192,192,176896,1,2,0:0:0:0:
320,192,176896,1,0,0:0:0:0:
64,192,177042,1,8,0:0:0:0:
192,192,177042,1,0,0:0:0:0:
448,192,177042,1,0,0:0:0:0:
64,192,177189,1,2,0:0:0:0:
192,192,177189,1,0,0:0:0:70:CrashRight.wav
320,192,177189,1,0,0:0:0:0:
448,192,177189,1,0,0:0:0:0:
64,192,177481,1,2,0:0:0:0:
192,192,177481,1,0,0:0:0:0:
64,192,177628,1,8,0:0:0:0:
320,192,177628,1,0,0:0:0:0:
448,192,177628,1,0,0:0:0:0:
320,192,177774,1,0,0:0:0:0:
64,192,177920,1,2,0:0:0:0:
192,192,177920,1,0,0:0:0:0:
192,192,178067,1,2,0:0:0:0:
448,192,178067,1,0,0:0:0:0:
64,192,178213,1,8,0:0:0:0:
320,192,178213,1,0,0:0:0:0:
448,192,178213,1,0,0:0:0:0:
192,192,178359,1,2,0:0:0:0:
320,192,178359,1,0,0:0:0:70:CrashRight.wav
448,192,178359,1,0,0:0:0:0:
64,192,178652,1,2,0:0:0:0:
448,192,178652,1,0,0:0:0:0:
192,192,178798,1,8,0:0:0:0:
320,192,178798,1,0,0:0:0:0:
448,192,178798,1,0,0:0:0:0:
192,192,178945,1,0,0:0:0:0:
64,192,179091,1,2,0:0:0:0:
448,192,179091,1,0,0:0:0:0:
320,192,179237,1,2,0:0:0:0:
448,192,179237,1,0,0:0:0:0:
64,192,179384,1,8,0:0:0:0:
192,192,179384,1,0,0:0:0:0:
320,192,179384,1,0,0:0:0:0:
192,192,179530,1,2,0:0:0:0:
320,192,179676,1,0,0:0:0:0:
448,192,179676,1,0,0:0:0:0:
64,192,179823,1,2,0:0:0:0:
448,192,179823,1,0,0:0:0:0:
64,192,179969,1,8,0:0:0:0:
192,192,179969,1,0,0:0:0:0:
320,192,179969,1,0,0:0:0:0:
192,192,180115,1,0,0:0:0:0:
320,192,180262,1,2,0:0:0:0:
448,192,180262,1,0,0:0:0:0:
64,192,180408,1,2,0:0:0:0:
448,192,180408,1,0,0:0:0:0:
64,192,180554,1,8,0:0:0:0:
192,192,180554,1,0,0:0:0:0:
320,192,180554,1,0,0:0:0:0:
64,192,180701,1,2,0:0:0:0:
192,192,180701,1,0,0:0:0:70:CrashRight.wav
320,192,180701,1,0,0:0:0:0:
448,192,180701,1,0,0:0:0:0:
64,192,180994,1,2,0:0:0:0:
448,192,180994,1,0,0:0:0:0:
64,192,181140,1,8,0:0:0:0:
192,192,181140,1,0,0:0:0:0:
320,192,181140,1,0,0:0:0:0:
320,192,181286,1,0,0:0:0:0:
64,192,181433,1,2,0:0:0:0:
448,192,181433,1,0,0:0:0:0:
192,192,181579,1,2,0:0:0:0:
448,192,181579,1,0,0:0:0:0:
64,192,181725,1,8,0:0:0:0:
192,192,181725,1,0,0:0:0:0:
320,192,181725,1,0,0:0:0:0:
320,192,181872,1,2,0:0:0:0:
448,192,181872,1,0,0:0:0:0:
64,192,182018,1,0,0:0:0:0:
64,192,182164,1,2,0:0:0:0:
320,192,182164,1,0,0:0:0:0:
192,192,182311,1,8,0:0:0:0:
320,192,182311,1,0,0:0:0:0:
448,192,182311,1,0,0:0:0:0:
448,192,182457,1,0,0:0:0:0:
64,192,182603,1,2,0:0:0:0:
192,192,182603,1,0,0:0:0:0:
320,192,182750,1,2,0:0:0:0:
448,192,182750,1,0,0:0:0:0:
64,192,182896,1,8,0:0:0:0:
192,192,182896,1,0,0:0:0:0:
448,192,182896,1,0,0:0:0:0:
64,192,183042,1,2,0:0:0:0:
192,192,183042,1,0,0:0:0:70:CrashRight.wav
320,192,183042,1,0,0:0:0:0:
448,192,183042,1,0,0:0:0:0:
192,192,183335,1,2,0:0:0:0:
448,192,183335,1,0,0:0:0:0:
64,192,183481,1,4,0:0:0:0:
320,192,183481,1,8,0:0:0:0:
448,192,183481,1,0,0:0:0:0:
64,192,183628,1,0,0:0:0:0:
192,192,183774,1,2,0:0:0:0:
448,192,183774,1,4,0:0:0:0:
192,192,183920,1,2,0:0:0:0:
320,192,183920,1,0,0:0:0:0:
64,192,184067,1,4,0:0:0:0:
320,192,184067,1,8,0:0:0:0:
448,192,184067,1,0,0:0:0:0:
64,192,184213,1,2,0:0:0:0:
192,192,184213,1,0,0:0:0:0:
320,192,184359,1,4,0:0:0:0:
192,192,184506,1,2,0:0:0:0:
448,192,184506,1,0,0:0:0:0:
64,192,184652,1,8,0:0:0:0:
320,192,184652,1,4,0:0:0:0:
448,192,184652,1,0,0:0:0:0:
192,192,184798,1,0,0:0:0:0:
64,192,184945,1,2,0:0:0:0:
320,192,184945,1,4,0:0:0:0:
64,192,185091,1,2,0:0:0:0:
448,192,185091,1,0,0:0:0:0:
192,192,185237,1,8,0:0:0:0:
320,192,185237,1,0,0:0:0:0:
448,192,185237,1,0,0:0:0:0:
64,192,185384,1,2,0:0:0:0:
192,192,185384,1,0,0:0:0:70:CrashRight.wav
320,192,185384,1,0,0:0:0:0:
448,192,185384,1,0,0:0:0:0:
64,192,185676,1,2,0:0:0:0:
192,192,185676,1,0,0:0:0:0:
64,192,185823,1,8,0:0:0:0:
320,192,185823,1,4,0:0:0:0:
448,192,185823,1,0,0:0:0:0:
192,192,185969,1,2,0:0:0:0:
448,192,185969,1,0,0:0:0:0:
64,192,186115,1,8,0:0:0:0:
192,192,186115,1,4,0:0:0:0:
320,192,186115,1,0,0:0:0:0:
64,192,186262,1,0,0:0:0:70:Tom1.wav
448,192,186262,1,0,0:0:0:0:
192,192,186408,1,0,0:0:0:70:Tom2.wav
320,192,186408,1,0,0:0:0:0:
448,192,186408,1,0,0:0:0:0:
64,192,186554,1,2,0:0:0:0:
192,192,186554,1,0,0:0:0:70:CrashRight.wav
320,192,186554,1,0,0:0:0:0:
448,192,186554,1,0,0:0:0:0:
64,192,186847,1,2,0:0:0:0:
192,192,186847,1,0,0:0:0:0:
64,192,186994,1,4,0:0:0:0:
320,192,186994,1,8,0:0:0:0:
448,192,186994,1,0,0:0:0:0:
192,192,187140,1,2,0:0:0:0:
448,192,187140,1,0,0:0:0:0:
64,192,187286,1,2,0:0:0:0:
192,192,187286,1,0,0:0:0:0:
320,192,187286,1,0,0:0:0:0:
64,192,187433,1,0,0:0:0:70:LR_Snare Drum .wav
192,192,187506,1,0,0:0:0:70:LR_Snare Drum .wav
448,192,187579,1,8,0:0:0:0:
320,192,187652,1,0,0:0:0:70:LR_Snare Drum .wav
64,192,187725,1,2,0:0:0:0:
192,192,187725,1,0,0:0:0:70:CrashRight.wav
448,192,187725,1,0,0:0:0:0:
192,192,188018,1,2,0:0:0:0:
320,192,188018,1,0,0:0:0:0:
64,192,188164,1,8,0:0:0:0:
320,192,188164,1,0,0:0:0:0:
448,192,188164,1,0,0:0:0:0:
64,192,188311,1,2,0:0:0:0:
192,192,188311,1,0,0:0:0:0:
192,192,188457,1,8,0:0:0:0:
448,192,188457,1,0,0:0:0:0:
320,192,188530,1,0,0:0:0:70:Tom1.wav
64,192,188603,1,0,0:0:0:70:Tom2.wav
192,192,188676,1,0,0:0:0:70:Tom3.wav
320,192,188750,1,8,0:0:0:0:
448,192,188750,1,0,0:0:0:0:
64,192,188896,1,2,0:0:0:0:
192,192,188896,1,0,0:0:0:70:CrashRight.wav
320,192,188896,1,0,0:0:0:0:
448,192,188896,1,0,0:0:0:0:
64,192,189189,1,8,0:0:0:0:
192,192,189189,1,4,0:0:0:0:
320,192,189189,1,0,0:0:0:70:Tom2.wav
192,192,189335,1,8,0:0:0:0:
320,192,189335,1,4,0:0:0:0:
448,192,189335,1,0,0:0:0:70:Tom2.wav
192,192,189628,1,0,0:0:0:0:
320,192,189774,1,2,0:0:0:0:
192,192,189847,1,2,0:0:0:0:
64,192,189920,1,8,0:0:0:0:
320,192,189920,1,0,0:0:0:0:
448,192,189920,1,0,0:0:0:0:
192,192,190067,1,0,0:0:0:0:
64,192,190213,1,2,0:0:0:0:
192,192,190213,128,0,190506:0:0:0:70:CrashRight.wav
448,192,190213,1,0,0:0:0:0:
320,192,190359,128,0,190506:0:0:0:0:
64,192,190506,128,8,190798:0:0:0:0:
448,192,190506,1,0,0:0:0:0:
448,192,190652,128,4,190798:0:0:0:0:
192,192,190798,128,2,190872:0:0:0:0:
320,192,190798,128,0,191091:0:0:0:0:
192,192,190945,128,4,191091:0:0:0:0:
64,192,191091,1,8,0:0:0:0:
448,192,191091,1,0,0:0:0:0:
64,192,191237,128,4,191530:0:0:0:0:
192,192,191384,1,2,0:0:0:0:
320,192,191384,128,0,191530:0:0:0:0:
448,192,191530,128,4,191823:0:0:0:0:
64,192,191676,1,8,0:0:0:0:
192,192,191676,128,0,191823:0:0:0:0:
320,192,191823,128,4,192115:0:0:0:0:
64,192,191969,128,2,192115:0:0:0:0:
448,192,191969,1,0,0:0:0:0:
192,192,192115,128,4,192262:0:0:0:0:
320,192,192262,128,8,192554:0:0:0:0:
448,192,192262,1,0,0:0:0:0:
64,192,192408,128,4,192554:0:0:0:0:
192,192,192554,128,2,192847:0:0:0:0:
448,192,192554,1,0,0:0:0:0:
320,192,192701,128,4,192847:0:0:0:0:
64,192,192847,128,8,193140:0:0:0:0:
448,192,192847,1,0,0:0:0:0:
448,192,192994,128,4,193140:0:0:0:0:
192,192,193140,128,2,193213:0:0:0:0:
320,192,193140,128,0,193433:0:0:0:0:
192,192,193286,128,4,193433:0:0:0:0:
64,192,193433,1,8,0:0:0:0:
448,192,193433,1,0,0:0:0:0:
64,192,193579,128,4,193872:0:0:0:0:
192,192,193725,1,2,0:0:0:0:
320,192,193725,128,0,193872:0:0:0:0:
448,192,193872,128,4,194164:0:0:0:0:
64,192,194018,1,8,0:0:0:0:
192,192,194018,128,0,194164:0:0:0:0:
320,192,194164,128,4,194457:0:0:0:0:
192,192,194311,128,2,194457:0:0:0:0:
448,192,194311,1,0,0:0:0:0:
64,192,194457,128,4,194750:0:0:0:0:
320,192,194603,1,8,0:0:0:0:
448,192,194603,1,0,0:0:0:0:
192,192,194750,1,4,0:0:0:0:
64,192,194896,1,2,0:0:0:0:
192,192,194896,128,0,195189:0:0:0:70:CrashRight.wav
448,192,194896,1,0,0:0:0:0:
320,192,195042,128,0,195189:0:0:0:0:
64,192,195189,128,8,195481:0:0:0:0:
448,192,195189,1,0,0:0:0:0:
448,192,195335,128,4,195481:0:0:0:0:
192,192,195481,128,2,195554:0:0:0:0:
320,192,195481,128,0,195774:0:0:0:0:
192,192,195628,128,4,195774:0:0:0:0:
64,192,195774,1,8,0:0:0:0:
448,192,195774,1,0,0:0:0:0:
64,192,195920,128,4,196213:0:0:0:0:
192,192,196067,1,2,0:0:0:0:
320,192,196067,128,0,196213:0:0:0:0:
448,192,196213,128,4,196506:0:0:0:0:
64,192,196359,1,8,0:0:0:0:
192,192,196359,128,0,196506:0:0:0:0:
320,192,196506,128,4,196798:0:0:0:0:
64,192,196652,1,2,0:0:0:0:
448,192,196652,128,0,196798:0:0:0:0:
192,192,196798,128,4,196945:0:0:0:0:
320,192,196945,1,8,0:0:0:0:
448,192,196945,1,0,0:0:0:0:
64,192,197091,128,2,197384:0:0:0:0:
192,192,197091,1,0,0:0:0:70:CrashRight.wav
448,192,197091,128,0,197384:0:0:0:0:
192,192,197384,1,2,0:0:0:0:
320,192,197384,1,0,0:0:0:0:
64,192,197530,1,8,0:0:0:0:
320,192,197530,1,0,0:0:0:0:
448,192,197530,1,0,0:0:0:0:
192,192,197676,1,2,0:0:0:0:
448,192,197676,1,0,0:0:0:0:
64,192,197823,1,8,0:0:0:0:
192,192,197823,1,0,0:0:0:0:
320,192,197823,1,0,0:0:0:0:
64,192,197969,1,2,0:0:0:0:
192,192,197969,1,0,0:0:0:0:
320,192,198042,1,2,0:0:0:0:
448,192,198042,1,0,0:0:0:0:
64,192,198115,1,8,0:0:0:0:
192,192,198115,1,0,0:0:0:0:
320,192,198262,1,2,0:0:0:0:
448,192,198262,1,0,0:0:0:0:
64,192,198408,1,8,0:0:0:0:
192,192,198408,1,0,0:0:0:70:Tom1.wav
448,192,198408,1,0,0:0:0:0:
320,192,198481,1,0,0:0:0:70:Tom1.wav
192,192,198554,1,0,0:0:0:70:Tom1.wav
320,192,198628,1,0,0:0:0:70:Tom1.wav
64,192,198701,1,2,0:0:0:0:
448,192,198701,1,0,0:0:0:70:Tom2.wav
192,192,198774,1,0,0:0:0:70:Tom2.wav
320,192,198847,1,0,0:0:0:70:Tom2.wav
192,192,198920,1,0,0:0:0:70:Tom2.wav
320,192,198994,1,8,0:0:0:0:
448,192,198994,1,0,0:0:0:70:Tom3.wav
64,192,199067,1,0,0:0:0:70:Tom3.wav
192,192,199140,1,0,0:0:0:70:Tom3.wav
320,192,199213,1,0,0:0:0:70:Tom3.wav
64,192,199286,1,8,0:0:0:0:
192,192,199286,1,4,0:0:0:0:
448,192,199286,1,0,0:0:0:0:
320,192,199433,1,0,0:0:0:0:
64,192,199579,1,2,0:0:0:0:
192,192,199579,128,0,199872:0:0:0:70:CrashRight.wav
448,192,199579,1,0,0:0:0:0:
320,192,199725,128,0,199872:0:0:0:0:
64,192,199872,128,8,200164:0:0:0:0:
448,192,199872,1,0,0:0:0:0:
192,192,200018,128,4,200164:0:0:0:0:
320,192,200164,128,2,200457:0:0:0:0:
448,192,200164,128,0,200237:0:0:0:0:
448,192,200311,128,4,200457:0:0:0:0:
64,192,200457,1,8,0:0:0:0:
192,192,200457,1,0,0:0:0:0:
64,192,200603,128,4,200896:0:0:0:0:
192,192,200750,1,2,0:0:0:0:
320,192,200750,128,0,200896:0:0:0:0:
448,192,200896,128,4,201189:0:0:0:0:
64,192,201042,1,8,0:0:0:0:
192,192,201042,128,0,201189:0:0:0:0:
320,192,201189,128,4,201481:0:0:0:0:
64,192,201335,128,2,201481:0:0:0:0:
448,192,201335,1,0,0:0:0:0:
192,192,201481,128,4,201628:0:0:0:0:
320,192,201628,128,8,201920:0:0:0:0:
448,192,201628,1,0,0:0:0:0:
64,192,201774,128,4,201920:0:0:0:0:
192,192,201920,128,2,202213:0:0:0:0:
448,192,201920,1,0,0:0:0:0:
320,192,202067,128,4,202213:0:0:0:0:
64,192,202213,128,8,202506:0:0:0:0:
448,192,202213,1,0,0:0:0:0:
192,192,202359,128,4,202506:0:0:0:0:
320,192,202506,128,2,202798:0:0:0:0:
448,192,202506,128,0,202579:0:0:0:0:
448,192,202652,128,4,202798:0:0:0:0:
64,192,202798,1,8,0:0:0:0:
192,192,202798,1,0,0:0:0:0:
64,192,202945,128,4,203237:0:0:0:0:
192,192,203091,1,2,0:0:0:0:
320,192,203091,128,0,203237:0:0:0:0:
448,192,203237,128,4,203530:0:0:0:0:
64,192,203384,1,8,0:0:0:0:
192,192,203384,128,0,203530:0:0:0:0:
320,192,203530,128,4,203676:0:0:0:0:
64,192,203676,128,2,204115:0:0:0:0:
192,192,203676,1,0,0:0:0:0:
448,192,203823,1,4,0:0:0:0:
192,192,203969,1,8,0:0:0:0:
448,192,203969,1,0,0:0:0:0:
320,192,204115,1,4,0:0:0:0:
64,192,204262,1,2,0:0:0:0:
192,192,204262,128,0,204554:0:0:0:70:CrashRight.wav
448,192,204262,1,0,0:0:0:0:
320,192,204408,128,0,204554:0:0:0:0:
64,192,204554,128,8,204847:0:0:0:0:
448,192,204554,1,0,0:0:0:0:
192,192,204701,128,4,204847:0:0:0:0:
320,192,204847,128,2,205140:0:0:0:0:
448,192,204847,128,0,204920:0:0:0:0:
448,192,204994,128,4,205140:0:0:0:0:
64,192,205140,1,8,0:0:0:0:
192,192,205140,1,0,0:0:0:0:
64,192,205286,128,4,205579:0:0:0:0:
192,192,205433,1,2,0:0:0:0:
320,192,205433,128,0,205579:0:0:0:0:
448,192,205579,128,4,205872:0:0:0:0:
64,192,205725,1,8,0:0:0:0:
192,192,205725,128,0,205872:0:0:0:0:
320,192,205872,128,4,206164:0:0:0:0:
64,192,206018,128,2,206164:0:0:0:0:
448,192,206018,1,0,0:0:0:0:
192,192,206164,128,4,206311:0:0:0:0:
320,192,206311,1,8,0:0:0:0:
448,192,206311,1,0,0:0:0:0:
64,192,206457,128,2,206750:0:0:0:0:
192,192,206457,1,0,0:0:0:70:CrashRight.wav
448,192,206457,128,0,206750:0:0:0:0:
192,192,206750,1,2,0:0:0:0:
320,192,206750,1,0,0:0:0:0:
64,192,206896,1,8,0:0:0:0:
320,192,206896,1,0,0:0:0:0:
448,192,206896,1,0,0:0:0:0:
192,192,207042,1,2,0:0:0:0:
448,192,207042,1,0,0:0:0:0:
64,192,207189,1,8,0:0:0:0:
192,192,207189,1,0,0:0:0:0:
320,192,207189,1,0,0:0:0:0:
64,192,207335,1,2,0:0:0:0:
192,192,207335,1,0,0:0:0:0:
320,192,207408,1,2,0:0:0:0:
448,192,207408,1,0,0:0:0:0:
64,192,207481,1,8,0:0:0:0:
192,192,207481,1,0,0:0:0:0:
320,192,207628,1,2,0:0:0:0:
448,192,207628,1,0,0:0:0:0:
64,192,207774,1,8,0:0:0:0:
192,192,207774,1,0,0:0:0:0:
448,192,207774,1,0,0:0:0:0:
320,192,207847,1,0,0:0:0:70:Tom1.wav
192,192,207920,1,2,0:0:0:0:
320,192,207994,1,2,0:0:0:0:
64,192,208067,1,0,0:0:0:70:Tom2.wav
448,192,208067,1,0,0:0:0:0:
192,192,208140,1,0,0:0:0:70:Tom2.wav
320,192,208213,1,2,0:0:0:0:
192,192,208286,1,2,0:0:0:0:
320,192,208359,1,8,0:0:0:0:
448,192,208359,1,0,0:0:0:0:
64,192,208433,1,0,0:0:0:70:Tom1.wav
192,192,208506,1,0,0:0:0:70:Tom2.wav
320,192,208579,1,0,0:0:0:70:Tom3.wav
64,192,208652,1,8,0:0:0:0:
192,192,208652,1,4,0:0:0:0:
448,192,208652,1,0,0:0:0:0:
64,192,208798,1,8,0:0:0:0:
320,192,208798,1,4,0:0:0:0:
192,192,208945,1,2,0:0:0:0:
320,192,208945,1,0,0:0:0:70:CrashRight.wav
448,192,208945,128,0,209018:0:0:0:0:
448,192,209091,128,0,209164:0:0:0:0:
64,192,209237,1,2,0:0:0:0:
320,192,209237,128,0,209311:0:0:0:0:
320,192,209384,128,0,209457:0:0:0:0:
448,192,209457,1,0,0:0:0:0:
64,192,209530,128,2,209603:0:0:0:0:
192,192,209530,1,0,0:0:0:0:
64,192,209676,128,0,209750:0:0:0:0:
320,192,209750,1,0,0:0:0:0:
192,192,209823,128,2,209896:0:0:0:0:
448,192,209823,1,0,0:0:0:0:
192,192,209969,128,0,210042:0:0:0:0:
320,192,210042,1,0,0:0:0:0:
64,192,210115,128,2,210262:0:0:0:0:
448,192,210115,128,4,210189:0:0:0:0:
448,192,210262,128,0,210335:0:0:0:0:
64,192,210335,1,0,0:0:0:0:
192,192,210408,128,4,210481:0:0:0:0:
320,192,210408,128,2,210554:0:0:0:0:
192,192,210554,128,4,210628:0:0:0:0:
64,192,210701,1,8,0:0:0:0:
320,192,210701,1,0,0:0:0:70:Tom2.wav
448,192,210701,1,0,0:0:0:0:
64,192,210847,1,8,0:0:0:0:
320,192,210847,1,0,0:0:0:70:Tom2.wav
448,192,210847,1,0,0:0:0:0:
64,192,210994,1,8,0:0:0:0:
320,192,210994,1,0,0:0:0:70:Tom2.wav
448,192,210994,1,0,0:0:0:0:
64,192,211140,128,8,211433:0:0:0:0:
192,192,211140,128,4,211433:0:0:0:0:
320,192,211140,128,0,211433:0:0:0:70:Tom2.wav
448,192,211140,128,0,211433:0:0:0:0:
