osu file format v14

[General]
AudioFilename: audio.mp3
AudioLeadIn: 0
PreviewTime: 49378
Countdown: 0
SampleSet: Soft
StackLeniency: 0.5
Mode: 0
LetterboxInBreaks: 0
WidescreenStoryboard: 1

[Editor]
DistanceSpacing: 1.15
BeatDivisor: 4
GridSize: 8
TimelineZoom: 1

[Metadata]
Title:Kuchihige Awa Baloon [Odekake Size]
TitleUnicode:くちひげ泡バルーン【おでかけサイズ】
Artist:Yuuki Aoi
ArtistUnicode:悠木碧
Creator:RatinA0
Version:Nyanyanya
Source:
Tags:ratinao anime japanese nyan version
BeatmapID:2076066
BeatmapSetID:992744

[Difficulty]
HPDrainRate:5
CircleSize:3.9
OverallDifficulty:8.5
ApproachRate:8.5
SliderMultiplier:1.67
SliderTickRate:2

[Events]
//Background and Video events
0,0,"75313170_p0-w2x-1080p.png",0,0
//Break Periods
//Storyboard Layer 0 (Background)
//Storyboard Layer 1 (Fail)
//Storyboard Layer 2 (Pass)
//Storyboard Layer 3 (Foreground)
//Storyboard Layer 4 (Overlay)
//Storyboard Sound Samples

[TimingPoints]
235,359.281437125748,4,2,1,20,1,0
235,-100,4,2,1,20,0,0
279,-100,4,2,1,25,0,0
324,-100,4,2,1,30,0,0
369,-100,4,2,1,35,0,0
414,-100,4,2,1,40,0,0
459,-100,4,2,1,45,0,0
504,-100,4,2,1,50,0,0
549,-100,4,2,1,55,0,0
594,359.281437125748,4,2,1,40,1,0
594,-100,4,2,1,40,0,0
3108,-66.6666666666667,4,2,1,50,0,0
3468,-100,4,2,1,60,0,0
10474,-80,4,2,1,60,0,0
11372,387.096774193548,4,2,1,60,1,0
11372,-100,4,2,1,60,0,0
11731,402.684563758389,4,2,1,60,1,0
11731,-100,4,2,1,60,0,0
12291,338.983050847458,4,2,1,60,1,0
12291,-100,4,2,1,60,0,0
12629,359.281437125748,4,2,1,60,1,0
12629,-100,4,2,1,60,0,0
14965,359.281437125748,4,2,1,60,1,0
14965,-100,4,2,1,60,0,0
15324,-125,4,2,1,60,0,0
16402,428.571428571429,4,2,1,60,1,0
16402,-100,4,2,1,60,0,0
16941,359.281437125748,4,2,1,60,1,0
16941,-100,4,2,1,60,0,0
17839,363.636363636364,4,2,1,60,1,0
17839,-125,4,2,1,60,0,0
19657,379.746835443038,4,2,1,60,1,0
19657,-125,4,2,1,60,0,0
20713,359.281437125748,4,2,1,60,1,0
20713,-83.3333333333333,4,2,1,60,0,0
21252,-125,4,2,1,60,0,0
22689,-250,4,2,1,60,0,0
23588,-125,4,2,1,60,0,0
25742,346.820809248555,4,2,1,60,1,0
25742,-133.333333333333,4,2,1,60,0,0
25828,-133.333333333333,4,2,1,45,0,0
26002,-133.333333333333,4,2,1,35,0,0
26063,319.148936170213,4,2,1,45,1,0
26063,-133.333333333333,4,2,1,45,0,0
26462,359.281437125748,4,2,1,60,1,0
26462,-125,4,2,1,60,0,0
28976,-125,4,2,1,50,0,0
29066,-125,4,2,1,40,0,0
29156,-125,4,2,1,30,0,0
29246,-125,4,2,1,20,0,0
29336,-100,4,2,1,60,0,0
29605,-100,4,2,99,5,0,0
29695,-100,4,2,1,60,0,0
29964,-100,4,2,99,5,0,0
30054,-100,4,2,1,60,0,0
30324,-100,4,2,99,5,0,0
30414,-100,4,2,1,60,0,0
30683,-100,4,2,99,5,0,0
30773,-100,4,2,1,60,0,0
31042,-100,4,2,99,5,0,0
31132,-100,4,2,1,60,0,0
32210,-83.3333333333333,4,2,1,60,0,0
32749,-125,4,2,1,60,0,0
34186,-250,4,2,1,60,0,0
35084,-100,4,2,1,60,0,0
35803,-125,4,2,1,60,0,0
37240,-200,4,2,1,60,0,0
37779,-100,4,2,1,60,0,0
37959,-166.666666666667,4,2,1,60,0,0
38677,-142.857142857143,4,2,1,60,0,0
39396,-166.666666666667,4,2,1,60,0,0
39935,-142.857142857143,4,2,1,60,0,0
41012,-111.111111111111,4,2,1,60,0,0
44246,-200,4,2,1,60,0,0
49456,-83.3333333333333,4,2,1,60,0,1
51970,-83.3333333333333,4,2,1,60,0,0
52330,-83.3333333333333,4,2,1,60,0,1
54845,-83.3333333333333,4,2,1,60,0,0
55384,-83.3333333333333,4,2,1,60,0,1
56821,-111.111111111111,4,2,1,60,0,1
57180,-83.3333333333333,4,2,1,60,0,1
59515,-66.6666666666667,4,2,1,60,0,1
60503,-83.3333333333333,4,2,99,5,0,1
60593,-83.3333333333333,4,2,1,60,0,1
60773,-83.3333333333333,4,2,99,5,0,0
60953,-83.3333333333333,4,2,1,60,0,1
63467,-83.3333333333333,4,2,1,60,0,0
63827,-83.3333333333333,4,2,1,60,0,1
66342,-83.3333333333333,4,2,1,60,0,0
66881,-83.3333333333333,4,2,1,60,0,1
68677,-83.3333333333333,4,2,1,60,0,1
69216,-83.3333333333333,4,2,1,60,0,0
69575,-90.9090909090909,4,2,1,60,0,1
70114,-111.111111111111,4,2,1,60,0,1
70833,-100,4,2,1,60,0,1
71551,-76.9230769230769,4,2,1,60,0,1
72090,-76.9230769230769,4,2,99,5,0,0
72450,-111.111111111111,4,2,1,60,0,1
72988,-90.9090909090909,4,2,1,60,0,1
73527,-90.9090909090909,4,2,99,5,0,0
73887,-83.3333333333333,4,2,1,60,0,1
75324,-83.3333333333333,4,2,1,60,0,0
76581,344.827586206897,4,2,1,50,1,0
76581,-100,4,2,1,50,0,0
77443,394.736842105263,4,2,1,50,1,0
77443,-100,4,2,1,50,0,0
77837,379.746835443038,4,2,1,30,1,0
77837,-200,4,2,1,30,0,0
78216,359.281437125748,4,2,1,60,1,0
78216,-100,4,2,1,60,0,0

[Colours]
Combo1 : 248,148,220
Combo2 : 255,215,130
Combo3 : 252,186,186
Combo4 : 225,179,251

[HitObjects]
109,183,235,6,0,L|143:166,8,20.875,0|0|0|0|0|0|0|0|2,3:0|3:0|3:0|3:0|3:0|3:0|3:0|3:0|0:0,0:0:0:0:
101,202,953,5,2,0:0:0:0:
295,153,1132,1,2,0:0:0:0:
282,140,1492,5,2,0:0:0:0:
248,69,1671,1,2,0:0:0:0:
170,51,1851,1,2,0:0:0:0:
108,180,2031,1,2,3:2:0:0:
248,212,2210,1,2,0:0:0:0:
108,100,2390,1,2,0:0:0:0:
170,229,2569,1,2,3:2:0:0:
182,246,3108,6,2,B|244:297|323:260|282:247|360:209|416:246,1,250.500009555817,2|2,0:1|0:1,0:1:0:0:
430,267,3827,5,0,3:0:0:0:
430,267,4007,2,0,P|357:246|283:292,1,167,0|0,3:0|0:0,3:0:0:0:
225,338,4546,1,0,3:0:0:0:
158,308,4725,1,0,0:0:0:0:
92,340,4905,5,2,3:2:0:0:
0,231,5085,1,0,0:0:0:0:
109,139,5264,1,0,3:0:0:0:
201,248,5444,1,2,3:2:0:0:
212,257,5803,5,0,3:0:0:0:
283,192,5983,1,2,3:0:0:0:
191,163,6162,1,2,0:3:0:0:
212,257,6522,5,0,3:0:0:0:
354,128,6701,1,2,3:0:0:0:
171,69,6881,2,0,P|251:101|344:126,1,167,2|0,0:3|0:0,3:0:0:0:
369,119,7599,6,2,P|278:97|206:70,1,167,0|2,3:0|0:0,0:1:0:0:
432,48,8138,2,2,P|392:34|351:26,1,83.5,0|2,3:0|0:0,0:1:0:0:
473,160,8498,1,2,3:2:0:0:
451,167,8587,1,2,0:1:0:0:
457,144,8677,1,2,3:2:0:0:
484,250,8857,1,0,3:0:0:0:
432,48,9037,1,2,3:1:0:0:
432,48,9396,5,2,0:1:0:0:
339,144,9576,2,0,P|291:154|220:141,1,83.5,2|0,3:0|0:0,0:0:0:0:
286,279,9935,1,2,3:1:0:0:
257,152,10115,2,0,P|273:103|315:50,1,83.5,2|0,3:0|0:0,0:0:0:0:
385,273,10474,6,2,B|339:310|270:285|294:269|232:250|181:273,1,208.75,2|2,3:1|0:0,0:1:0:0:
130,350,11013,1,2,3:1:0:0:
227,358,11192,1,2,3:0:0:0:
185,271,11372,1,2,0:1:0:0:
149,254,11468,1,2,0:0:0:0:
110,255,11565,1,2,0:0:0:0:
0,336,11731,1,2,0:1:0:0:
22,323,11831,1,2,0:0:0:0:
48,318,11932,1,2,0:3:0:0:
48,318,12291,5,0,3:0:0:0:
22,133,12460,1,2,3:0:0:0:
199,205,12629,2,2,P|125:166|28:135,1,167,0|0,3:1|0:0,0:1:0:0:
26,155,13347,6,0,P|63:81|89:0,1,167,0|2,3:0|3:0,0:0:0:0:
218,200,13886,2,0,P|180:180|140:168,1,83.5,0|2,3:0|3:0,0:0:0:0:
262,8,14245,1,2,3:0:0:0:
246,46,14335,1,2,3:0:0:0:
230,85,14425,1,2,3:0:0:0:
170,16,14605,1,2,3:2:0:0:
323,77,14784,1,2,3:1:0:0:
323,77,15324,6,0,B|349:87|365:106|365:106|382:95,5,66.8,0|0|0|0|0|0,3:0|3:0|3:0|3:0|3:0|3:0,0:0:0:0:
299,160,16402,5,0,3:0:0:0:
452,124,16616,1,0,3:0:0:0:
487,109,16941,5,0,3:0:0:0:
509,77,17300,5,0,3:0:0:0:
452,124,17480,1,0,3:0:0:0:
430,194,17659,1,0,3:0:0:0:
456,263,17839,6,0,P|442:231|419:206,1,66.8,0|0,3:0|0:0,0:0:0:0:
340,341,18202,2,0,P|360:313|370:280,1,66.8,0|0,3:0|3:0,0:0:0:0:
214,279,18566,2,0,P|248:283|281:275,1,66.8,0|0,3:0|0:0,0:0:0:0:
204,139,18929,2,0,P|217:169|240:194,1,66.8,0|0,3:0|0:0,0:0:0:0:
321,61,19293,2,0,P|300:88|290:121,1,66.8,0|0,3:0|0:0,0:0:0:0:
446,123,19657,2,0,P|412:119|378:126,1,66.8,2|0,3:0|0:0,0:0:0:0:
368,160,19941,1,2,0:0:0:0:
334,197,20036,1,2,0:3:0:0:
286,209,20131,1,2,0:3:0:0:
240,194,20226,1,2,0:3:0:0:
240,194,20713,6,0,B|190:234|147:209|156:193|97:163|53:194,1,200.399993884278,0|0,3:0|3:0,0:0:0:0:
26,280,21252,2,0,P|69:264|60:178,1,133.6,0|0,3:0|3:0,0:0:0:0:
107,260,21791,1,0,3:0:0:0:
185,289,21971,1,0,3:0:0:0:
250,236,22150,1,2,0:0:0:0:
188,301,22330,1,0,3:0:0:0:
202,383,22509,1,0,3:0:0:0:
171,207,22689,2,2,P|163:157|153:104,1,100.2,2|0,3:1|0:0,0:1:0:0:
154,108,23588,5,0,3:0:0:0:
362,113,23947,1,0,3:0:0:0:
306,314,24306,1,0,3:0:0:0:
125,211,24665,1,0,3:0:0:0:
268,60,25025,1,0,3:0:0:0:
380,236,25384,1,0,3:0:0:0:
183,302,25742,2,0,L|137:307,3,31.3125011944771,0|0|0|0,3:0|3:0|3:0|3:0,0:0:0:0:
194,306,26063,2,0,L|239:300,4,31.3125011944771,0|0|0|0|0,3:0|3:0|3:0|3:0|3:0,0:0:0:0:
194,306,27899,5,2,0:3:0:0:
250,229,28078,1,2,0:0:0:0:
194,78,28438,1,2,0:1:0:0:
187,62,28797,5,2,0:0:0:0:
270,86,28976,2,0,L|297:93,6,16.7,2|0|2|0|2|0|0,3:0|3:0|3:0|3:0|3:0|3:0|3:0,0:0:0:0:
270,115,29336,6,0,P|221:153|159:154,1,125.25,0|0,3:0|0:0,0:0:0:0:
142,142,29695,2,0,P|151:202|121:256,1,125.25,0|0,3:0|0:0,0:0:0:0:
101,266,30054,2,0,P|158:289|190:342,1,125.25,0|0,3:0|0:0,0:0:0:0:
187,363,30414,2,0,P|236:325|298:324,1,125.25,0|0,3:0|0:0,0:0:0:0:
314,337,30773,2,0,P|305:275|335:221,1,125.25,0|0,3:0|0:0,0:0:0:0:
353,213,31132,2,0,P|296:190|267:140,1,83.5,0|0,3:0|0:0,0:0:0:0:
279,152,31402,1,2,0:0:0:0:
240,169,31492,1,2,0:3:0:0:
198,170,31582,1,2,0:3:0:0:
159,154,31671,1,2,0:3:0:0:
159,154,32210,6,0,B|212:120|271:145|249:164|305:190|348:160,1,200.399993884278,0|0,3:0|3:0,0:0:0:0:
417,102,32749,2,0,P|387:137|438:207,1,133.6,0|0,3:0|3:0,0:0:0:0:
506,235,33288,1,0,3:0:0:0:
425,205,33467,1,0,3:0:0:0:
362,258,33647,1,2,3:2:0:0:
409,106,33827,1,2,3:0:0:0:
444,308,34006,1,2,3:0:0:0:
412,99,34186,2,2,P|403:43|395:1,1,100.2,2|0,3:1|0:0,0:1:0:0:
404,0,35084,6,0,P|413:49|421:98,1,83.5,0|0,3:0|3:0,0:0:0:0:
108,0,35444,2,0,P|99:49|91:98,1,83.5,0|0,3:0|3:0,0:0:0:0:
347,183,35803,2,0,P|374:214|400:246,1,66.8,0|0,3:0|3:0,0:0:0:0:
165,183,36162,2,0,P|137:214|111:246,1,66.8,0|0,3:0|3:0,0:0:0:0:
256,259,36521,1,0,3:0:0:0:
256,40,36881,1,0,3:0:0:0:
256,273,37240,2,0,P|255:329|256:356,1,83.5,0|0,3:0|0:0,0:0:0:0:
266,365,37779,5,0,0:0:0:0:
278,371,37959,2,0,P|278:305|354:324,1,150.299995413208,0|0,3:0|0:0,0:0:0:0:
424,279,38677,2,0,P|445:195|414:114,1,175.349994648743,2|0,3:2|0:0,0:0:0:0:
361,167,39396,2,0,P|351:122|395:107,1,100.199996942139
471,59,39935,6,0,P|427:22|370:19,1,116.899996432495,2|0,0:2|0:0,0:0:0:0:
254,100,40473,1,0,0:0:0:0:
394,107,40653,1,0,0:0:0:0:
284,17,40833,1,0,3:0:0:0:
323,151,41012,2,0,P|282:184|246:184,1,75.1499977066041
173,72,41372,6,0,P|181:144|242:185,1,150.299995413208,2|0,0:2|0:0,0:0:0:0:
323,151,41911,1,0,3:0:0:0:
254,100,42090,1,0,3:0:0:0:
325,229,42270,1,2,0:0:0:0:
334,144,42450,1,2,0:3:0:0:
258,270,42629,1,2,0:0:0:0:
339,238,42809,6,0,P|342:293|270:358,1,150.299995413208,2|2,0:0|0:0,0:0:0:0:
186,335,43348,1,2,0:0:0:0:
147,248,43527,1,2,0:0:0:0:
53,233,43707,1,2,3:0:0:0:
158,103,44066,5,0,0:0:0:0:
53,233,44246,2,0,L|106:168,1,83.5,2|0,3:0|0:0,0:0:0:0:
158,103,44785,5,0,0:0:0:0:
256,114,44964,1,0,0:0:0:0:
295,205,45144,1,2,3:0:0:0:
53,233,45324,2,0,L|79:200,1,41.75,2|0,3:0|0:0,0:0:0:0:
256,114,45683,2,0,L|309:49,1,83.5,2|0,3:0|0:0,0:0:0:0:
309,49,46402,5,0,3:0:0:0:
408,200,46581,1,0,3:0:0:0:
295,340,46761,1,0,3:0:0:0:
127,275,46941,1,0,3:0:0:0:
136,95,47120,1,0,3:0:0:0:
136,95,47479,5,0,3:0:0:0:
272,148,47659,1,0,3:0:0:0:
408,200,47839,1,2,3:0:0:0:
427,276,48557,5,2,3:2:0:0:
484,221,49096,5,2,3:0:0:0:
408,200,49456,6,0,P|376:135|447:42,1,200.399993884278,6|2,3:2|3:0,0:0:0:0:
467,131,49994,1,2,3:0:0:0:
389,200,50174,2,0,P|366:106|429:33,1,200.399993884278,2|2,0:0|3:0,0:0:0:0:
487,234,50893,5,2,3:0:0:0:
418,300,51072,1,0,0:0:0:0:
323,282,51252,1,2,3:0:0:0:
284,194,51432,1,2,3:0:0:0:
334,111,51611,1,0,3:0:0:0:
74,172,51970,1,2,3:0:0:0:
74,172,52330,5,4,0:3:0:0:
137,291,52509,1,0,3:0:0:0:
262,333,52689,1,0,3:0:0:0:
54,217,52869,5,4,0:3:0:0:
154,307,53048,1,0,3:0:0:0:
288,304,53228,1,0,3:0:0:0:
50,267,53408,5,4,0:3:0:0:
176,317,53587,1,0,3:0:0:0:
300,268,53767,1,0,3:0:0:0:
63,314,53947,5,4,0:3:0:0:
198,318,54126,1,0,3:0:0:0:
299,230,54306,1,0,3:0:0:0:
92,354,54485,5,4,0:3:0:0:
284,194,54845,1,4,0:3:0:0:
284,194,55384,6,0,B|219:227|148:193|157:139|204:118|230:148,1,200.399993884278,2|0,3:0|3:0,0:0:0:0:
129,251,55923,1,2,3:2:0:0:
59,186,56102,1,0,0:0:0:0:
77,92,56282,1,2,3:0:0:0:
166,56,56461,1,0,0:0:0:0:
129,251,56641,1,2,3:0:0:0:
77,92,56821,2,0,P|110:78|152:62,1,75.1499977066041,0|0,3:0|3:0,0:0:0:0:
296,25,57180,2,0,B|412:22|372:135|448:179|448:179|506:215|546:170|547:124|479:94,1,400.799987768555,2|0,3:2|0:0,0:0:0:0:
495,102,58258,5,0,3:0:0:0:
463,256,58438,1,0,3:0:0:0:
348,151,58617,1,0,3:0:0:0:
444,171,58797,1,2,3:2:0:0:
444,171,58976,1,0,3:0:0:0:
444,171,59156,1,0,3:0:0:0:
444,171,59336,1,0,3:0:0:0:
369,251,59515,6,0,B|304:268|236:216|281:204|212:155|144:189,2,250.500009555817,2|2|2,3:2|3:2|3:2,0:0:0:0:
204,295,60414,2,0,L|196:375,1,62.6250023889543,2|0,3:0|0:0,3:0:0:0:
192,273,60593,2,0,L|182:373,1,100.199996942139,2|0,3:0|0:0,3:0:0:0:
182,372,60953,6,0,P|168:300|55:269,1,200.399993884278,2|2,3:2|3:0,0:0:0:0:
197,357,61491,2,0,P|161:267|62:254,1,200.399993884278,2|0,3:2|3:0,0:0:0:0:
92,354,62030,1,2,3:2:0:0:
0,182,62390,5,2,3:0:0:0:
78,234,62569,1,0,0:0:0:0:
169,199,62749,1,2,3:0:0:0:
192,106,62929,1,2,3:0:0:0:
128,33,63108,1,0,3:0:0:0:
436,152,63467,1,2,3:0:0:0:
436,152,63827,5,4,0:3:0:0:
321,80,64006,1,0,3:0:0:0:
192,106,64186,1,0,3:0:0:0:
430,103,64366,5,4,0:3:0:0:
299,75,64545,1,0,3:0:0:0:
184,144,64725,1,0,3:0:0:0:
409,57,64905,5,4,0:3:0:0:
275,77,65084,1,0,3:0:0:0:
192,181,65264,1,0,3:0:0:0:
374,23,65444,5,4,0:3:0:0:
255,87,65623,1,0,3:0:0:0:
212,214,65803,1,0,3:0:0:0:
329,3,65982,5,4,0:3:0:0:
243,237,66342,1,4,0:3:0:0:
243,237,66881,5,0,3:0:0:0:
317,178,67060,1,0,3:0:0:0:
402,219,67240,1,0,3:0:0:0:
412,313,67420,1,2,3:2:0:0:
333,365,67599,1,0,3:0:0:0:
249,327,67779,1,0,3:0:0:0:
249,327,68138,5,0,3:0:0:0:
333,365,68318,2,0,P|334:296|291:242,1,100.199996942139,0|0,3:0|0:0,0:0:0:0:
243,237,68677,2,0,B|195:236|152:271|182:292|147:389|13:333|22:267|42:218,1,300.599990826416,2|0,3:2|0:0,0:0:0:0:
20,220,69575,6,0,P|35:310|127:335,1,183.700005606079,0|0,1:0|3:0,3:0:0:0:
28,68,70114,2,0,B|11:93|22:124|22:124|58:121|124:160|113:239,1,225.449993119812,2|0,1:2|0:0,0:0:0:0:
158,82,70833,2,0,P|215:119|312:79,1,167,0|0,1:0|3:0,3:0:0:0:
233,25,71372,1,0,3:0:0:0:
319,197,71551,2,0,B|435:173|381:61|479:42|479:42|476:104|396:125,1,325.649985092927,2|0,1:2|0:0,3:0:0:0:
410,135,72450,6,0,P|473:97|494:27,1,150.299995413208,0|0,1:0|3:0,3:0:0:0:
319,197,72988,2,0,B|349:237|416:270|486:218|486:218|475:266|416:272,1,275.550008409119,2|0,1:2|0:0,3:0:0:0:
424,271,73887,5,2,3:2:0:0:
383,56,74246,1,2,3:2:0:0:
166,29,74605,1,2,3:2:0:0:
73,226,74964,1,2,3:2:0:0:
232,376,75324,1,0,3:0:0:0:
73,226,76042,5,2,0:0:0:0:
73,226,76581,5,0,0:0:0:0:
149,229,76753,1,0,0:0:0:0:
184,298,76925,1,0,0:0:0:0:
143,359,77098,1,0,0:0:0:0:
67,355,77270,1,0,0:0:0:0:
33,288,77443,1,0,0:0:0:0:
33,288,77837,6,0,L|25:271,6,13.9166666666667,2|2|2|2|2|2|2,0:0|0:0|0:0|0:0|0:0|0:0|3:1,0:0:0:0:
37,307,78575,5,0,3:0:0:0:
37,307,78754,2,0,P|5:239|38:158,1,167,0|0,3:0|0:0,3:0:0:0:
111,134,79293,1,0,3:0:0:0:
172,87,79473,1,0,0:0:0:0:
214,22,79653,5,2,3:2:0:0:
188,163,79832,1,0,0:0:0:0:
330,188,80012,1,0,3:0:0:0:
355,47,80192,1,2,3:2:0:0:
362,39,80551,5,0,3:0:0:0:
296,109,80730,1,2,3:0:0:0:
392,128,80910,1,2,0:3:0:0:
362,39,81269,5,0,3:0:0:0:
217,165,81449,1,2,3:0:0:0:
399,227,81629,1,2,0:3:0:0:
399,227,81808,2,0,P|317:207|240:177,1,167,2|0,0:3|0:0,3:0:0:0:
217,165,82527,6,0,P|240:199|259:236,1,83.5,0|0,3:0|3:0,3:0:0:0:
83,123,82886,2,0,P|123:111|164:105,1,83.5,0|0,3:0|3:0,3:0:0:0:
1,237,83245,2,0,P|2:195|9:154,1,83.5,0|0,3:0|3:0,3:0:0:0:
84,350,83605,2,0,P|44:335|7:316,1,83.5,0|0,3:0|3:0,3:0:0:0:
217,305,83964,5,2,3:0:0:0:
161,367,84503,5,2,0:0:0:0:
289,350,85042,5,2,3:0:0:0:
217,305,85401,6,0,B|254:228|391:259|335:313|473:344|511:268,1,334,2|0,3:0|1:0,3:0:0:0:
217,305,86479,1,4,0:3:0:0:
