osu file format v14

[General]
AudioFilename: audio.mp3
AudioLeadIn: 0
PreviewTime: 49378
Countdown: 0
SampleSet: Soft
StackLeniency: 0.6
Mode: 0
LetterboxInBreaks: 0
WidescreenStoryboard: 1

[Editor]
DistanceSpacing: 1.15
BeatDivisor: 4
GridSize: 16
TimelineZoom: 1

[Metadata]
Title:Kuchihige Awa Baloon [Odekake Size]
TitleUnicode:くちひげ泡バルーン【おでかけサイズ】
Artist:Yuuki Aoi
ArtistUnicode:悠木碧
Creator:RatinA0
Version:Nya
Source:
Tags:ratinao anime japanese nyan version
BeatmapID:2105735
BeatmapSetID:992744

[Difficulty]
HPDrainRate:3
CircleSize:3.4
OverallDifficulty:4.6
ApproachRate:4.5
SliderMultiplier:0.87
SliderTickRate:1

[Events]
//Background and Video events
0,0,"75313170_p0-w2x-1080p.png",0,0
//Break Periods
//Storyboard Layer 0 (Background)
//Storyboard Layer 1 (Fail)
//Storyboard Layer 2 (Pass)
//Storyboard Layer 3 (Foreground)
//Storyboard Layer 4 (Overlay)
//Storyboard Sound Samples

[TimingPoints]
235,359.281437125748,4,2,1,20,1,0
235,-100,4,2,1,20,0,0
594,359.281437125748,4,2,1,40,1,0
594,-100,4,2,1,40,0,0
3108,-100,4,2,1,50,0,0
3468,-100,4,2,1,60,0,0
11372,387.096774193548,4,2,1,60,1,0
11372,-100,4,2,1,60,0,0
11731,402.684563758389,4,2,1,60,1,0
11731,-100,4,2,1,60,0,0
12291,338.983050847458,4,2,1,60,1,0
12291,-100,4,2,1,60,0,0
12629,359.281437125748,4,2,1,60,1,0
12629,-100,4,2,1,60,0,0
14965,359.281437125748,4,2,1,60,1,0
14965,-100,4,2,1,60,0,0
16402,428.571428571429,4,2,1,60,1,0
16402,-100,4,2,1,60,0,0
16941,359.281437125748,4,2,1,60,1,0
16941,-100,4,2,1,60,0,0
17839,363.636363636364,4,2,1,60,1,0
17839,-100,4,2,1,60,0,0
19657,379.746835443038,4,2,1,60,1,0
19657,-100,4,2,1,60,0,0
20713,359.281437125748,4,2,1,60,1,0
20713,-100,4,2,1,60,0,0
25742,346.820809248555,4,2,1,60,1,0
25742,-100,4,2,1,60,0,0
26063,319.148936170213,4,2,1,45,1,0
26063,-100,4,2,1,45,0,0
26462,359.281437125748,4,2,1,60,1,0
26462,-100,4,2,1,60,0,0
49456,-100,4,2,1,60,0,1
51970,-100,4,2,1,60,0,0
52330,-100,4,2,1,60,0,1
54845,-100,4,2,1,60,0,0
55384,-100,4,2,1,60,0,1
60773,-100,4,2,99,5,0,0
60953,-100,4,2,1,60,0,1
63467,-100,4,2,1,60,0,0
63827,-100,4,2,1,60,0,1
66342,-100,4,2,1,60,0,0
66881,-100,4,2,1,60,0,1
69216,-100,4,2,1,60,0,0
69575,-100,4,2,1,60,0,1
72090,-100,4,2,99,5,0,0
72450,-100,4,2,1,60,0,1
73527,-100,4,2,99,5,0,0
73887,-100,4,2,1,60,0,1
75324,-100,4,2,1,60,0,0
76581,344.827586206897,4,2,1,50,1,0
76581,-100,4,2,1,50,0,0
77443,394.736842105263,4,2,1,50,1,0
77443,-100,4,2,1,50,0,0
77837,379.746835443038,4,2,1,30,1,0
77837,-100,4,2,1,30,0,0
78216,359.281437125748,4,2,1,60,1,0
78216,-100,4,2,1,60,0,0

[Colours]
Combo1 : 248,148,220
Combo2 : 255,215,130
Combo3 : 252,186,186
Combo4 : 225,179,251

[HitObjects]
245,40,594,6,0,P|206:53|148:54,1,87,2|2,0:0|0:0,0:0:0:0:
110,40,1132,1,2,0:0:0:0:
43,110,1492,2,0,P|48:147|33:203,1,87,2|2,0:0|0:0,0:0:0:0:
39,241,2031,2,0,P|74:254|115:295,1,87,2|2,3:2|0:0,0:0:0:0:
134,332,2570,1,2,3:2:0:0:
273,323,3108,1,2,0:1:0:0:
273,323,3468,6,0,P|235:306|193:266,1,87,2|0,0:1|3:0,0:0:0:0:
178,239,4007,2,0,P|163:201|162:143,1,87,0|0,3:0|0:0,3:0:0:0:
170,112,4545,1,0,3:0:0:0:
265,155,4905,2,0,P|301:173|359:179,1,87,2|0,3:2|3:0,0:0:0:0:
391,172,5444,1,2,3:2:0:0:
470,104,5803,6,0,L|505:79,2,43.5,0|2|2,3:0|3:0|0:3,0:0:0:0:
488,207,6522,2,0,L|491:250,1,43.5,0|2,3:0|3:0,0:0:0:0:
474,290,6881,2,0,P|435:309|393:316,1,87,2|0,0:3|0:0,3:0:0:0:
307,376,7599,6,2,P|294:335|269:300,1,87,0|2,3:0|0:0,0:1:0:0:
243,264,8138,2,2,L|256:223,1,43.5,0|2,3:0|0:0,0:1:0:0:
271,181,8498,2,0,P|258:140|233:105,1,87,2|0,3:2|3:0,0:0:0:0:
200,74,9037,1,2,3:1:0:0:
106,38,9396,6,0,P|97:57|92:79,1,43.5,2|2,0:1|3:0,0:0:0:0:
10,144,9935,2,0,P|22:161|39:175,1,43.5,2|2,3:1|3:0,0:0:0:0:
53,274,10474,2,2,P|74:271|130:225,1,87,2|2,3:1|0:0,0:1:0:0:
141,192,11013,2,0,P|153:211|172:226,1,43.5,2|2,3:1|3:0,0:0:0:0:
203,243,11372,2,0,P|194:265|191:284,1,43.5,2|2,0:1|0:0,0:0:0:0:
166,318,11731,2,0,P|179:335|196:348,1,43.5,2|2,0:1|0:3,0:0:0:0:
293,374,12291,6,0,P|313:368|333:356,1,43.5,0|0,3:0|0:0,0:0:0:0:
348,317,12629,2,2,P|377:285|417:269,1,87,0|0,3:1|0:0,0:1:0:0:
509,221,13347,6,0,P|483:185|446:163,1,87,0|2,3:0|3:0,0:0:0:0:
402,164,13886,2,0,L|361:184,1,43.5,0|2,3:0|3:0,0:0:0:0:
321,188,14245,2,0,P|286:158|268:119,1,87,2|2,3:0|3:2,0:0:0:0:
266,78,14784,1,2,3:1:0:0:
67,0,15324,6,0,P|26:19|-1:52,2,87,0|0|0,3:0|3:0|3:0,0:0:0:0:
84,94,16402,2,0,L|110:128,1,43.5,0|0,3:0|3:0,0:0:0:0:
135,221,16941,1,0,3:0:0:0:
101,309,17300,2,0,L|67:337,2,43.5,0|0|0,3:0|3:0|3:0,0:0:0:0:
140,327,17839,6,0,P|179:337|228:323,1,87,0|0,3:0|3:0,0:0:0:0:
298,384,18566,2,0,P|326:355|339:306,1,87,0|0,3:0|3:0,0:0:0:0:
427,275,19293,2,0,P|416:235|380:200,1,87,0|2,3:0|3:0,0:0:0:0:
311,142,20036,1,2,0:3:0:0:
472,64,20713,6,0,P|423:48|383:57,1,87,0|0,3:0|3:0,0:0:0:0:
350,75,21252,2,0,P|308:88|266:80,1,87,0|0,3:0|3:0,0:0:0:0:
224,68,21791,2,0,P|202:65|180:67,1,43.5,0|0,3:0|3:0,0:0:0:0:
148,95,22150,2,0,L|140:137,2,43.5,2|0|0,0:0|3:0|3:0,0:0:0:0:
118,60,22689,2,2,P|57:46|4:81,1,130.5,2|0,3:1|0:0,0:1:0:0:
4,177,23588,5,0,3:0:0:0:
85,228,23947,1,0,3:0:0:0:
168,182,24306,2,0,P|203:209|230:243,1,87,0|0,3:0|3:0,0:0:0:0:
247,336,25025,1,0,3:0:0:0:
163,382,25384,1,0,3:0:0:0:
79,329,25743,1,0,3:0:0:0:
168,286,27899,5,2,0:3:0:0:
168,286,28078,1,2,0:0:0:0:
247,339,28438,1,2,0:1:0:0:
316,273,28797,2,0,P|330:288|340:307,2,43.5,2|2|2,0:0|3:0|3:0,0:0:0:0:
278,250,29336,6,0,P|245:226|224:180,1,87,0|0,3:0|3:0,0:0:0:0:
195,89,30054,2,0,P|162:112|111:118,1,87,0|0,3:0|3:0,0:0:0:0:
16,122,30773,2,0,P|28:160|18:210,1,87,0|0,3:0|3:0,0:0:0:0:
0,304,31491,1,2,0:3:0:0:
151,222,32210,6,0,P|201:232|231:260,1,87,0|0,3:0|3:0,0:0:0:0:
248,293,32749,2,0,P|283:319|325:326,1,87,0|0,3:0|3:0,0:0:0:0:
366,314,33288,2,0,P|388:311|410:313,1,43.5,0|0,3:0|3:0,0:0:0:0:
448,331,33647,2,0,L|456:373,2,43.5,2|2|2,3:2|3:0|3:0,0:0:0:0:
465,290,34186,2,2,B|485:233|441:220|465:161,1,130.5,2|0,3:1|0:0,0:1:0:0:
491,69,35085,5,0,3:0:0:0:
409,14,35444,1,0,3:0:0:0:
331,72,35803,2,0,P|327:116|305:155,1,87,0|0,3:0|3:0,0:0:0:0:
209,162,36521,1,0,3:0:0:0:
127,107,36881,1,0,3:0:0:0:
153,12,37240,1,0,3:0:0:0:
34,138,37779,5,0,0:0:0:0:
34,138,37959,2,0,P|56:201|34:274,1,130.5,0|0,3:0|0:0,0:0:0:0:
30,294,38677,2,0,P|51:347|124:353,1,130.5,2|0,3:2|0:0,0:0:0:0:
144,334,39396,1,0,0:0:0:0:
266,242,39935,6,0,P|317:261|338:324,1,87,2|0,0:2|0:0,0:0:0:0:
350,317,40473,2,0,P|382:345|424:349,1,87,0|0,0:0|3:0,0:0:0:0:
459,342,41012,2,0,B|482:335|489:312|489:312|461:276|469:222,1,130.5,0|0,0:0|0:0,0:0:0:0:
497,139,41911,1,0,3:0:0:0:
447,57,42270,2,0,L|419:23,2,43.5,2|2|2,0:0|0:3|0:0,0:0:0:0:
428,86,42809,6,0,P|388:104|345:106,1,87,2|2,0:0|0:0,0:0:0:0:
311,97,43348,2,0,L|283:63,1,43.5,2|2,0:0|0:0,0:0:0:0:
255,45,43707,6,0,P|224:76|184:92,1,87,2|0,3:0|0:0,0:0:0:0:
142,102,44246,2,0,P|171:117|201:212,1,130.5,2|0,3:0|0:0,0:0:0:0:
220,315,45144,2,0,P|258:295|286:262,1,87,2|0,3:0|0:0,0:0:0:0:
306,223,45683,2,0,P|331:257|369:279,1,87,2|0,3:0|0:0,0:0:0:0:
469,321,46402,6,0,P|468:299|462:278,1,43.5,0|0,3:0|3:0,0:0:0:0:
475,236,46761,2,0,P|480:215|489:196,1,43.5,0|0,3:0|3:0,0:0:0:0:
470,158,47120,2,0,P|465:114|445:76,1,87,0|0,3:0|3:0,0:0:0:0:
409,50,47659,2,0,P|389:43|372:31,1,43.5,0|2,3:0|3:0,0:0:0:0:
250,155,48558,6,0,P|311:134|376:140,1,130.5,2|2,3:2|3:0,0:0:0:0:
406,257,49456,6,0,P|368:237|319:228,1,87,6|2,3:2|3:0,0:0:0:0:
278,237,49994,1,2,3:0:0:0:
278,237,50174,2,0,P|240:260|198:267,1,87,2|2,0:0|3:0,0:0:0:0:
87,241,50893,2,0,P|66:237|43:238,2,43.5,2|0|2,3:0|0:0|3:0,0:0:0:0:
107,280,51432,1,2,3:0:0:0:
107,280,51612,2,0,P|123:320|154:349,1,87,0|0,3:0|0:0,0:0:0:0:
261,321,52330,6,0,P|277:282|276:229,1,87,4|0,0:3|3:0,0:0:0:0:
252,202,52869,6,0,P|236:163|198:126,1,87,4|0,0:3|3:0,0:0:0:0:
161,124,53408,6,0,P|169:83|200:40,1,87,4|0,0:3|3:0,0:0:0:0:
236,31,53947,6,0,P|271:8|323:0,1,87,4|0,0:3|3:0,0:0:0:0:
354,18,54485,5,4,0:3:0:0:
307,101,54845,1,4,0:3:0:0:
477,123,55384,6,0,P|441:145|389:154,1,87,2|0,3:0|3:0,0:0:0:0:
374,189,55923,2,0,P|354:198|338:212,1,43.5,2|0,3:2|0:0,0:0:0:0:
295,201,56282,2,0,P|273:203|251:201,1,43.5,2|0,3:0|0:0,0:0:0:0:
227,239,56641,2,0,P|208:249|191:263,1,43.5,2|0,3:0|3:0,0:0:0:0:
144,357,57180,2,0,P|90:291|102:207,1,174,2|0,3:2|0:0,0:0:0:0:
81,97,58258,6,0,P|68:79|52:64,2,43.5,0|0|0,3:0|3:0|3:0,0:0:0:0:
121,113,58797,2,0,P|142:110|163:104,1,43.5,2|0,3:2|3:0,0:0:0:0:
196,75,59156,2,0,P|216:69|238:66,1,43.5,0|0,3:0|3:0,0:0:0:0:
278,84,59516,1,2,3:2:0:0:
365,46,59875,1,2,3:2:0:0:
452,97,60234,1,2,3:2:0:0:
452,97,60414,2,0,L|452:142,1,43.5,2|2,3:0|3:0,3:0:0:0:
360,169,60953,6,0,P|361:212|382:250,1,87,2|2,3:2|3:0,0:0:0:0:
407,290,61491,2,0,P|390:329|358:358,1,87,2|0,3:2|3:0,0:0:0:0:
311,348,62030,1,2,3:2:0:0:
248,275,62390,2,0,L|270:237,2,43.5,2|0|2,3:0|0:0|3:0,0:0:0:0:
219,313,62929,1,2,3:0:0:0:
219,313,63109,2,0,P|175:310|136:326,1,87,0|0,3:0|0:0,0:0:0:0:
52,380,63827,6,0,P|39:339|45:287,1,87,4|0,0:3|3:0,0:0:0:0:
74,260,64366,6,0,P|94:221|126:192,1,87,4|0,0:3|3:0,0:0:0:0:
174,190,64905,6,0,P|203:221|242:240,1,87,4|0,0:3|3:0,0:0:0:0:
289,232,65444,6,0,P|331:234|379:215,1,87,4|0,0:3|3:0,0:0:0:0:
399,180,65982,5,4,0:3:0:0:
318,132,66341,1,4,0:3:0:0:
160,133,66881,5,0,3:0:0:0:
160,133,67060,2,0,L|203:137,1,43.5,0|0,3:0|3:0,0:0:0:0:
241,108,67420,2,0,L|283:98,1,43.5,2|0,3:2|3:0,0:0:0:0:
318,132,67779,2,0,P|341:168|351:210,1,87,0|0,3:0|3:0,0:0:0:0:
357,259,68318,1,0,3:0:0:0:
305,343,68677,2,0,B|290:279|267:271|232:290|225:309|241:333,1,130.5,2|0,3:2|0:0,0:0:0:0:
134,347,69575,6,0,P|96:328|74:287,1,87,0|0,1:0|3:0,3:0:0:0:
57,245,70114,2,0,P|62:148|82:115,1,130.5,2|0,1:2|0:0,0:0:0:0:
108,82,70833,2,0,B|129:56|155:44|155:44|185:76|215:78,1,130.5,0|0,1:0|3:0,3:0:0:0:
263,83,71551,2,0,B|293:85|327:60|327:60|351:76|367:105,1,130.5,2|0,1:2|0:0,3:0:0:0:
362,214,72450,6,0,P|357:257|338:295,1,87,0|0,1:0|3:0,3:0:0:0:
302,327,72988,2,0,P|249:349|172:329,1,130.5,2|0,1:2|0:0,3:0:0:0:
112,265,73887,5,2,3:2:0:0:
204,239,74246,1,2,3:2:0:0:
278,178,74605,1,2,3:2:0:0:
257,84,74964,1,2,3:2:0:0:
184,146,75324,1,0,3:0:0:0:
15,150,76042,5,2,0:0:0:0:
100,257,76581,6,0,L|107:302,2,43.5
117,216,77098,2,0,L|109:172,2,43.5
281,340,78216,6,0,P|324:352|368:350,1,87,2|0,3:1|3:0,0:0:0:0:
403,326,78754,2,0,P|433:295|453:256,1,87,0|0,3:0|0:0,3:0:0:0:
454,213,79293,1,0,3:0:0:0:
359,228,79653,2,0,P|335:195|319:139,1,87,2|0,3:2|3:0,0:0:0:0:
321,106,80192,1,2,3:2:0:0:
406,54,80551,6,0,L|447:42,2,43.5,0|2|2,3:0|3:0|0:3,0:0:0:0:
312,14,81269,2,0,L|271:2,1,43.5,0|2,3:0|3:0,0:0:0:0:
226,2,81629,1,2,0:3:0:0:
226,2,81808,2,0,P|223:47|204:85,1,87,2|0,0:3|0:0,3:0:0:0:
120,130,82527,6,0,P|150:165|174:176,1,43.5,0|0,3:0|3:0,3:0:0:0:
189,186,82886,2,0,P|236:177|257:161,1,43.5,0|0,3:0|3:0,3:0:0:0:
273,154,83246,2,0,P|293:195|314:211,1,43.5,0|0,3:0|3:0,3:0:0:0:
325,226,83606,2,0,P|372:230|397:220,1,43.5,0|0,3:0|3:0,3:0:0:0:
415,216,83965,6,0,P|469:181|494:121,2,130.5,2|2|2,3:0|0:0|3:0,0:0:0:0:
319,221,85402,2,0,B|282:214|225:260|269:263|219:306|171:303,1,174,2|0,3:0|1:0,3:0:0:0:
83,277,86480,1,4,0:3:0:0:
