osu file format v14

[General]
AudioFilename: audio.mp3
AudioLeadIn: 0
PreviewTime: 53110
Countdown: 0
SampleSet: Normal
StackLeniency: 0.7
Mode: 1
LetterboxInBreaks: 0
WidescreenStoryboard: 1

[Editor]
Bookmarks: 815,9542,18269,26996,35724,44451,61905,70633,79360
DistanceSpacing: 0.8
BeatDivisor: 3
GridSize: 32
TimelineZoom: 1.99

[Metadata]
Title:Guda Fuwa Everyday (TV Size)
TitleUnicode:ぐだふわエブリデー (TV Size)
Artist:Yuuki Aoi
ArtistUnicode:悠木碧
Creator:Tyistiana
Version:Oni
Source:スライム倒して300年、知らないうちにレベルMAXになってました
Tags:Slime Taoshite 300-nen, Shiranai Uchi ni Level Max ni Nattemashita I've Been Killing Slimes for 300 Years and Maxed Out My Level opening op anime japanese pop j-pop
BeatmapID:2957122
BeatmapSetID:1435050

[Difficulty]
HPDrainRate:5.5
CircleSize:5
OverallDifficulty:5
ApproachRate:8
SliderMultiplier:1.2
SliderTickRate:1

[Events]
//Background and Video events
0,0,"Novel 04.jpg",0,40
Video,-307,"opening.mp4"
//Break Periods
//Storyboard Layer 0 (Background)
//Storyboard Layer 1 (Fail)
//Storyboard Layer 2 (Pass)
//Storyboard Layer 3 (Foreground)
//Storyboard Layer 4 (Overlay)
//Storyboard Sound Samples

[TimingPoints]
-3548,272.727272727273,4,1,0,100,1,0
15997,-94.3396226415094,4,1,0,100,0,0
17179,-89.2857142857143,4,1,0,100,0,0
18270,-84.7457627118644,4,1,0,100,0,0
18452,-117.647058823529,4,1,0,100,0,0
24815,-111.111111111111,4,1,0,100,0,0
25088,-105.263157894737,4,1,0,100,0,0
25361,-100,4,1,0,100,0,0
25633,-98.5221674876847,4,1,0,100,0,0
25815,-97.5609756097561,4,1,0,100,0,0
25906,-97.0873786407767,4,1,0,100,0,0
26179,-95.6937799043062,4,1,0,100,0,0
26452,-94.3396226415094,4,1,0,100,0,0
26542,-93.8967136150235,4,1,0,100,0,0
26633,-93.4579439252336,4,1,0,100,0,0
26724,-93.0232558139535,4,1,0,100,0,0
26997,-91.743119266055,4,1,0,100,0,0
27270,-90.4977375565611,4,1,0,100,0,0
27361,-100,4,1,0,100,0,0
34815,-97.0873786407767,4,1,0,100,0,0
34997,-94.3396226415094,4,1,0,100,0,0
35179,-91.743119266055,4,1,0,100,0,0
35361,-89.2857142857143,4,1,0,100,0,0
35452,-88.1057268722467,4,1,0,100,0,0
35542,-86.9565217391304,4,1,0,100,0,0
35633,-85.8369098712446,4,1,0,100,0,0
35724,-84.7457627118644,4,1,0,100,0,0
35815,-100,4,1,0,100,0,0
37815,-85.8369098712446,4,1,0,100,0,0
37906,-85.8369098712446,4,1,0,100,0,0
37997,-100,4,1,0,100,0,0
39997,-85.8369098712446,4,1,0,100,0,0
40088,-85.8369098712446,4,1,0,100,0,0
40179,-100,4,1,0,100,0,0
41906,-100,4,1,0,100,0,0
41997,-99.009900990099,4,1,0,100,0,0
42179,-97.0873786407767,4,1,0,100,0,0
42452,-94.3396226415094,4,1,0,100,0,0
42542,-93.4579439252336,4,1,0,100,0,0
42724,-91.743119266055,4,1,0,100,0,0
42997,-89.2857142857143,4,1,0,100,0,0
43088,-88.4955752212389,4,1,0,100,0,0
43270,-86.9565217391304,4,1,0,100,0,0
43542,-86.2068965517241,4,1,0,100,0,0
43633,-85.4700854700855,4,1,0,100,0,0
44542,-117.647058823529,4,1,0,100,0,0
50633,-113.636363636364,4,1,0,100,0,0
50724,-109.89010989011,4,1,0,100,0,0
50815,-106.382978723404,4,1,0,100,0,0
50906,-103.092783505155,4,1,0,100,0,0
50997,-100,4,1,0,100,0,0
53179,-95.2380952380952,4,1,0,100,0,1
77179,-90.9090909090909,4,1,0,100,0,1
78179,-86.9565217391304,4,1,0,100,0,1
78452,-86.5800865800866,4,1,0,100,0,1
78542,-86.2068965517241,4,1,0,100,0,1
78633,-85.8369098712446,4,1,0,100,0,1
78724,-85.4700854700855,4,1,0,100,0,1
78815,-85.1063829787234,4,1,0,100,0,1
78906,-84.7457627118644,4,1,0,100,0,1
78997,-84.3881856540084,4,1,0,100,0,1
79088,-84.0336134453781,4,1,0,100,0,1
79179,-83.6820083682008,4,1,0,100,0,1
79270,-83.3333333333333,4,1,0,100,0,1
79361,-82.9875518672199,4,1,0,100,0,0
79452,-100,4,1,0,100,0,0
84179,-100,4,1,0,50,0,0
84815,-100,4,1,0,40,0,0
85361,-100,4,1,0,30,0,0
85906,-100,4,1,0,20,0,0
86452,-100,4,1,0,10,0,0

[HitObjects]
256,192,270,5,8,0:0:0:0:
256,192,452,1,0,0:0:0:0:
256,192,542,1,8,0:0:0:0:
256,192,724,1,4,0:0:0:0:
256,192,997,5,0,0:0:0:0:
256,192,1088,1,8,0:0:0:0:
256,192,1361,1,0,0:0:0:0:
256,192,1542,1,0,0:0:0:0:
256,192,1633,1,8,0:0:0:0:
256,192,1906,1,0,0:0:0:0:
256,192,2088,1,0,0:0:0:0:
256,192,2179,1,8,0:0:0:0:
256,192,2452,1,0,0:0:0:0:
256,192,2633,1,0,0:0:0:0:
256,192,2724,1,8,0:0:0:0:
256,192,2906,1,4,0:0:0:0:
256,192,3179,5,8,0:0:0:0:
256,192,3270,1,0,0:0:0:0:
256,192,3542,1,8,0:0:0:0:
256,192,3724,1,8,0:0:0:0:
256,192,3815,1,0,0:0:0:0:
256,192,4088,1,8,0:0:0:0:
256,192,4270,1,8,0:0:0:0:
256,192,4361,1,0,0:0:0:0:
256,192,4633,1,8,0:0:0:0:
256,192,4815,1,8,0:0:0:0:
256,192,4906,1,0,0:0:0:0:
256,192,5088,1,12,0:0:0:0:
256,192,5361,5,0,0:0:0:0:
256,192,5452,1,8,0:0:0:0:
256,192,5724,1,8,0:0:0:0:
256,192,5906,1,0,0:0:0:0:
256,192,5997,1,8,0:0:0:0:
256,192,6270,1,8,0:0:0:0:
256,192,6452,1,0,0:0:0:0:
256,192,6542,1,8,0:0:0:0:
256,192,6724,1,8,0:0:0:0:
256,192,6815,1,8,0:0:0:0:
256,192,6997,1,0,0:0:0:0:
256,192,7088,1,8,0:0:0:0:
256,192,7270,1,4,0:0:0:0:
256,192,7542,1,8,0:0:0:0:
256,192,7633,1,8,0:0:0:0:
256,192,7815,1,4,0:0:0:0:
256,192,8088,1,8,0:0:0:0:
256,192,8179,1,8,0:0:0:0:
256,192,8361,1,4,0:0:0:0:
256,192,8633,1,8,0:0:0:0:
256,192,8724,1,8,0:0:0:0:
256,192,8906,1,0,0:0:0:0:
256,192,8997,1,8,0:0:0:0:
256,192,9088,1,8,0:0:0:0:
256,192,9179,1,8,0:0:0:0:
256,192,9270,1,0,0:0:0:0:
256,192,9542,1,12,0:0:0:0:
256,192,9724,5,0,0:0:0:0:
256,192,9815,1,8,0:0:0:0:
256,192,9997,1,0,0:0:0:0:
256,192,10088,1,0,0:0:0:0:
256,192,10270,1,0,0:0:0:0:
256,192,10361,1,8,0:0:0:0:
256,192,10542,1,0,0:0:0:0:
256,192,10633,1,0,0:0:0:0:
256,192,10906,1,8,0:0:0:0:
256,192,11088,1,8,0:0:0:0:
256,192,11179,1,0,0:0:0:0:
256,192,11361,1,0,0:0:0:0:
256,192,11452,1,8,0:0:0:0:
256,192,11633,1,0,0:0:0:0:
256,192,11724,1,0,0:0:0:0:
256,192,11997,1,8,0:0:0:0:
256,192,12179,1,0,0:0:0:0:
256,192,12270,1,0,0:0:0:0:
256,192,12452,1,0,0:0:0:0:
256,192,12542,1,8,0:0:0:0:
256,192,12724,1,0,0:0:0:0:
256,192,12815,1,0,0:0:0:0:
256,192,13088,1,8,0:0:0:0:
256,192,13270,1,8,0:0:0:0:
256,192,13361,1,0,0:0:0:0:
256,192,13542,1,0,0:0:0:0:
256,192,13633,1,8,0:0:0:0:
256,192,13906,1,4,0:0:0:0:
256,192,14088,1,0,0:0:0:0:
256,192,14179,1,8,0:0:0:0:
256,192,14361,1,8,0:0:0:0:
256,192,14452,1,8,0:0:0:0:
256,192,14633,1,0,0:0:0:0:
256,192,14724,1,8,0:0:0:0:
256,192,14906,1,0,0:0:0:0:
256,192,14997,1,0,0:0:0:0:
256,192,15270,1,8,0:0:0:0:
256,192,15452,1,0,0:0:0:0:
256,192,15542,1,8,0:0:0:0:
256,192,15724,1,0,0:0:0:0:
256,192,15997,5,12,0:0:0:0:
256,192,16270,5,0,0:0:0:0:
256,192,16361,1,8,0:0:0:0:
256,192,16452,1,0,0:0:0:0:
256,192,16542,1,0,0:0:0:0:
256,192,16633,1,8,0:0:0:0:
256,192,16815,1,0,0:0:0:0:
256,192,16906,1,8,0:0:0:0:
256,192,17179,1,12,0:0:0:0:
256,192,17361,1,0,0:0:0:0:
256,192,17452,1,8,0:0:0:0:
256,192,17633,1,0,0:0:0:0:
256,192,17724,1,8,0:0:0:0:
256,192,17815,1,0,0:0:0:0:
256,192,17906,1,0,0:0:0:0:
256,192,17997,1,8,0:0:0:0:
256,192,18270,1,4,0:0:0:0:
256,192,18542,5,8,0:0:0:0:
256,192,18724,1,8,0:0:0:0:
256,192,18815,1,0,0:0:0:0:
256,192,18997,1,0,0:0:0:0:
256,192,19088,1,8,0:0:0:0:
256,192,19361,1,0,0:0:0:0:
256,192,19633,1,8,0:0:0:0:
256,192,19815,1,8,0:0:0:0:
256,192,19906,1,0,0:0:0:0:
256,192,20088,1,0,0:0:0:0:
256,192,20179,1,8,0:0:0:0:
256,192,20452,1,0,0:0:0:0:
256,192,20724,5,8,0:0:0:0:
256,192,20906,1,8,0:0:0:0:
256,192,20997,1,0,0:0:0:0:
256,192,21179,1,8,0:0:0:0:
256,192,21270,1,8,0:0:0:0:
256,192,21542,1,0,0:0:0:0:
256,192,21724,1,0,0:0:0:0:
256,192,21815,1,8,0:0:0:0:
256,192,21997,1,8,0:0:0:0:
256,192,22088,1,0,0:0:0:0:
256,192,22270,1,0,0:0:0:0:
256,192,22361,1,8,0:0:0:0:
256,192,22633,1,4,0:0:0:0:
256,192,22906,5,8,0:0:0:0:
256,192,23088,1,8,0:0:0:0:
256,192,23179,1,0,0:0:0:0:
256,192,23361,1,0,0:0:0:0:
256,192,23452,1,8,0:0:0:0:
256,192,23724,1,0,0:0:0:0:
256,192,23997,1,8,0:0:0:0:
256,192,24179,1,0,0:0:0:0:
256,192,24270,1,0,0:0:0:0:
256,192,24452,1,0,0:0:0:0:
256,192,24542,1,8,0:0:0:0:
256,192,24815,5,4,0:0:0:0:
256,192,25088,1,12,0:0:0:0:
256,192,25361,1,12,0:0:0:0:
256,192,25633,1,8,0:0:0:0:
256,192,25815,1,8,0:0:0:0:
256,192,25906,1,0,0:0:0:0:
256,192,26179,1,12,0:0:0:0:
256,192,26452,1,0,0:0:0:0:
256,192,26542,1,0,0:0:0:0:
256,192,26633,1,0,0:0:0:0:
256,192,26724,1,8,0:0:0:0:
256,192,26997,1,4,0:0:0:0:
256,192,27270,5,12,0:0:0:0:
256,192,27452,1,0,0:0:0:0:
256,192,27542,1,0,0:0:0:0:
256,192,27724,1,0,0:0:0:0:
256,192,27815,1,8,0:0:0:0:
256,192,28088,1,0,0:0:0:0:
256,192,28270,1,0,0:0:0:0:
256,192,28361,1,8,0:0:0:0:
256,192,28542,1,8,0:0:0:0:
256,192,28633,1,0,0:0:0:0:
256,192,28815,1,0,0:0:0:0:
256,192,28906,1,8,0:0:0:0:
256,192,29179,1,0,0:0:0:0:
256,192,29452,5,8,0:0:0:0:
256,192,29633,1,8,0:0:0:0:
256,192,29724,1,0,0:0:0:0:
256,192,29906,1,0,0:0:0:0:
256,192,29997,1,8,0:0:0:0:
256,192,30270,1,0,0:0:0:0:
256,192,30452,1,0,0:0:0:0:
256,192,30542,1,8,0:0:0:0:
256,192,30724,1,8,0:0:0:0:
256,192,30815,1,0,0:0:0:0:
256,192,30997,1,0,0:0:0:0:
256,192,31088,1,8,0:0:0:0:
256,192,31361,1,4,0:0:0:0:
256,192,31633,5,8,0:0:0:0:
256,192,31906,1,0,0:0:0:0:
256,192,32088,1,0,0:0:0:0:
256,192,32179,1,8,0:0:0:0:
256,192,32452,1,0,0:0:0:0:
256,192,32633,1,8,0:0:0:0:
256,192,32724,1,8,0:0:0:0:
256,192,32906,1,8,0:0:0:0:
256,192,32997,1,0,0:0:0:0:
256,192,33179,1,0,0:0:0:0:
256,192,33270,1,8,0:0:0:0:
256,192,33542,1,0,0:0:0:0:
256,192,33815,5,12,0:0:0:0:
256,192,34088,1,8,0:0:0:0:
256,192,34179,1,0,0:0:0:0:
256,192,34270,1,0,0:0:0:0:
256,192,34361,1,8,0:0:0:0:
256,192,34633,1,12,0:0:0:0:
256,192,34815,1,4,0:0:0:0:
256,192,34997,1,4,0:0:0:0:
256,192,35179,1,12,0:0:0:0:
256,192,35361,1,0,0:0:0:0:
256,192,35452,1,0,0:0:0:0:
256,192,35633,1,12,0:0:0:0:
256,192,35906,5,0,0:0:0:0:
256,192,35997,1,8,0:0:0:0:
256,192,36270,1,0,0:0:0:0:
256,192,36452,1,0,0:0:0:0:
256,192,36542,1,8,0:0:0:0:
256,192,36815,1,0,0:0:0:0:
256,192,36997,1,0,0:0:0:0:
256,192,37088,1,8,0:0:0:0:
256,192,37361,1,0,0:0:0:0:
256,192,37542,1,0,0:0:0:0:
256,192,37633,1,8,0:0:0:0:
256,192,37815,1,4,0:0:0:0:
256,192,38088,5,8,0:0:0:0:
256,192,38179,1,0,0:0:0:0:
256,192,38452,1,8,0:0:0:0:
256,192,38633,1,8,0:0:0:0:
256,192,38724,1,0,0:0:0:0:
256,192,38997,1,8,0:0:0:0:
256,192,39179,1,8,0:0:0:0:
256,192,39270,1,0,0:0:0:0:
256,192,39542,1,8,0:0:0:0:
256,192,39724,1,8,0:0:0:0:
256,192,39815,1,0,0:0:0:0:
256,192,39997,1,12,0:0:0:0:
256,192,40361,1,8,0:0:0:0:
256,192,40633,1,8,0:0:0:0:
256,192,40815,1,0,0:0:0:0:
256,192,40906,1,8,0:0:0:0:
256,192,41179,1,8,0:0:0:0:
256,192,41361,1,0,0:0:0:0:
256,192,41452,1,8,0:0:0:0:
256,192,41633,1,0,0:0:0:0:
256,192,41724,1,8,0:0:0:0:
256,192,41906,5,0,0:0:0:0:
256,192,41997,1,8,0:0:0:0:
256,192,42179,1,4,0:0:0:0:
256,192,42452,1,8,0:0:0:0:
256,192,42542,1,8,0:0:0:0:
256,192,42724,1,4,0:0:0:0:
256,192,42997,1,8,0:0:0:0:
256,192,43088,1,8,0:0:0:0:
256,192,43270,1,4,0:0:0:0:
256,192,43542,1,8,0:0:0:0:
256,192,43633,1,8,0:0:0:0:
256,192,43815,1,0,0:0:0:0:
256,192,43906,1,8,0:0:0:0:
256,192,44088,1,8,0:0:0:0:
256,192,44179,1,0,0:0:0:0:
256,192,44361,1,0,0:0:0:0:
256,192,44452,1,12,0:0:0:0:
256,192,44724,5,8,0:0:0:0:
256,192,44997,1,0,0:0:0:0:
256,192,45270,1,8,0:0:0:0:
256,192,45452,1,0,0:0:0:0:
256,192,45542,1,0,0:0:0:0:
256,192,45815,1,8,0:0:0:0:
256,192,45997,1,8,0:0:0:0:
256,192,46088,1,0,0:0:0:0:
256,192,46361,1,8,0:0:0:0:
256,192,46633,1,0,0:0:0:0:
256,192,46906,1,8,0:0:0:0:
256,192,47179,1,0,0:0:0:0:
256,192,47361,1,0,0:0:0:0:
256,192,47452,1,8,0:0:0:0:
256,192,47724,1,0,0:0:0:0:
256,192,47997,1,8,0:0:0:0:
256,192,48179,1,8,0:0:0:0:
256,192,48270,1,0,0:0:0:0:
256,192,48542,1,0,0:0:0:0:
256,192,48724,1,8,0:0:0:0:
256,192,48815,1,0,0:0:0:0:
256,192,49088,1,8,0:0:0:0:
256,192,49361,1,0,0:0:0:0:
256,192,49633,1,8,0:0:0:0:
256,192,49906,1,0,0:0:0:0:
256,192,50179,1,8,0:0:0:0:
256,192,50361,1,8,0:0:0:0:
256,192,50452,1,0,0:0:0:0:
256,192,50633,1,8,0:0:0:0:
256,192,50724,1,8,0:0:0:0:
256,192,50997,5,4,0:0:0:0:
256,192,51270,1,8,0:0:0:0:
256,192,51361,1,0,0:0:0:0:
256,192,51452,1,0,0:0:0:0:
256,192,51542,1,8,0:0:0:0:
256,192,51815,1,8,0:0:0:0:
256,192,51906,1,0,0:0:0:0:
256,192,51997,1,0,0:0:0:0:
256,192,52088,1,8,0:0:0:0:
256,192,52361,1,0,0:0:0:0:
256,192,52452,1,0,0:0:0:0:
256,192,52542,1,0,0:0:0:0:
256,192,52633,1,8,0:0:0:0:
256,192,53179,5,4,0:0:0:0:
256,192,53452,1,8,0:0:0:0:
256,192,53724,1,0,0:0:0:0:
256,192,53906,1,0,0:0:0:0:
256,192,53997,1,8,0:0:0:0:
256,192,54270,1,0,0:0:0:0:
256,192,54452,1,0,0:0:0:0:
256,192,54542,1,8,0:0:0:0:
256,192,54724,1,8,0:0:0:0:
256,192,54815,1,0,0:0:0:0:
256,192,54997,1,0,0:0:0:0:
256,192,55088,1,8,0:0:0:0:
256,192,55179,1,8,0:0:0:0:
256,192,55270,1,8,0:0:0:0:
256,192,55361,1,0,0:0:0:0:
256,192,55633,1,8,0:0:0:0:
256,192,55906,1,0,0:0:0:0:
256,192,56088,1,0,0:0:0:0:
256,192,56179,1,8,0:0:0:0:
256,192,56361,1,8,0:0:0:0:
256,192,56452,1,0,0:0:0:0:
256,192,56542,1,0,0:0:0:0:
256,192,56633,1,0,0:0:0:0:
256,192,56724,1,8,0:0:0:0:
256,192,56997,1,0,0:0:0:0:
256,192,57179,1,0,0:0:0:0:
256,192,57270,1,8,0:0:0:0:
256,192,57542,1,4,0:0:0:0:
256,192,57724,1,0,0:0:0:0:
256,192,57815,1,8,0:0:0:0:
256,192,57997,1,8,0:0:0:0:
256,192,58088,1,0,0:0:0:0:
256,192,58270,1,0,0:0:0:0:
256,192,58361,1,8,0:0:0:0:
256,192,58542,1,0,0:0:0:0:
256,192,58633,1,0,0:0:0:0:
256,192,58815,1,0,0:0:0:0:
256,192,58906,1,8,0:0:0:0:
256,192,59088,1,0,0:0:0:0:
256,192,59179,1,8,0:0:0:0:
256,192,59361,1,0,0:0:0:0:
256,192,59633,1,12,0:0:0:0:
256,192,59906,1,0,0:0:0:0:
256,192,59997,1,8,0:0:0:0:
256,192,60088,1,0,0:0:0:0:
256,192,60179,1,0,0:0:0:0:
256,192,60270,1,8,0:0:0:0:
256,192,60542,1,8,0:0:0:0:
256,192,60815,1,4,0:0:0:0:
256,192,60997,1,0,0:0:0:0:
256,192,61088,1,8,0:0:0:0:
256,192,61270,1,0,0:0:0:0:
256,192,61361,1,0,0:0:0:0:
256,192,61542,1,0,0:0:0:0:
256,192,61633,1,8,0:0:0:0:
256,192,61906,1,4,0:0:0:0:
256,192,62179,1,8,0:0:0:0:
256,192,62361,1,8,0:0:0:0:
256,192,62452,1,0,0:0:0:0:
256,192,62633,1,0,0:0:0:0:
256,192,62724,1,8,0:0:0:0:
256,192,62997,1,8,0:0:0:0:
256,192,63088,1,0,0:0:0:0:
256,192,63179,1,0,0:0:0:0:
256,192,63270,1,8,0:0:0:0:
256,192,63542,1,8,0:0:0:0:
256,192,63633,1,0,0:0:0:0:
256,192,63724,1,0,0:0:0:0:
256,192,63815,1,8,0:0:0:0:
256,192,64088,1,4,0:0:0:0:
256,192,64270,1,0,0:0:0:0:
256,192,64361,1,8,0:0:0:0:
256,192,64542,1,8,0:0:0:0:
256,192,64633,1,0,0:0:0:0:
256,192,64815,1,0,0:0:0:0:
256,192,64906,1,8,0:0:0:0:
256,192,65088,1,0,0:0:0:0:
256,192,65179,1,0,0:0:0:0:
256,192,65361,1,0,0:0:0:0:
256,192,65452,1,8,0:0:0:0:
256,192,65633,1,8,0:0:0:0:
256,192,65724,1,0,0:0:0:0:
256,192,65906,1,0,0:0:0:0:
256,192,65997,1,8,0:0:0:0:
256,192,66270,1,8,0:0:0:0:
256,192,66361,1,0,0:0:0:0:
256,192,66452,1,0,0:0:0:0:
256,192,66542,1,8,0:0:0:0:
256,192,66815,1,8,0:0:0:0:
256,192,66906,1,0,0:0:0:0:
256,192,66997,1,0,0:0:0:0:
256,192,67088,1,8,0:0:0:0:
256,192,67361,1,0,0:0:0:0:
256,192,67542,1,0,0:0:0:0:
256,192,67633,1,8,0:0:0:0:
256,192,67815,1,8,0:0:0:0:
256,192,67906,1,8,0:0:0:0:
256,192,68088,1,0,0:0:0:0:
256,192,68361,1,12,0:0:0:0:
256,192,68633,1,0,0:0:0:0:
256,192,68724,1,8,0:0:0:0:
256,192,68906,1,0,0:0:0:0:
256,192,68997,1,8,0:0:0:0:
256,192,69088,1,0,0:0:0:0:
256,192,69179,1,0,0:0:0:0:
256,192,69270,1,8,0:0:0:0:
256,192,69542,1,4,0:0:0:0:
256,192,69815,1,8,0:0:0:0:
256,192,69997,1,0,0:0:0:0:
256,192,70088,1,8,0:0:0:0:
256,192,70179,1,8,0:0:0:0:
256,192,70270,1,8,0:0:0:0:
256,192,70361,1,0,0:0:0:0:
256,192,70633,1,12,0:0:0:0:
256,192,70906,1,8,0:0:0:0:
256,192,71179,1,0,0:0:0:0:
256,192,71361,1,0,0:0:0:0:
256,192,71452,1,8,0:0:0:0:
256,192,71724,1,0,0:0:0:0:
256,192,71997,1,8,0:0:0:0:
256,192,72270,1,0,0:0:0:0:
256,192,72452,1,0,0:0:0:0:
256,192,72542,1,8,0:0:0:0:
256,192,72724,1,4,0:0:0:0:
256,192,72997,1,0,0:0:0:0:
256,192,73088,1,8,0:0:0:0:
256,192,73361,1,0,0:0:0:0:
256,192,73542,1,0,0:0:0:0:
256,192,73633,1,8,0:0:0:0:
256,192,73906,1,8,0:0:0:0:
256,192,74088,1,0,0:0:0:0:
256,192,74179,1,8,0:0:0:0:
256,192,74452,1,8,0:0:0:0:
256,192,74633,1,0,0:0:0:0:
256,192,74724,1,8,0:0:0:0:
256,192,74997,1,4,0:0:0:0:
256,192,75270,1,8,0:0:0:0:
256,192,75542,1,0,0:0:0:0:
256,192,75724,1,0,0:0:0:0:
256,192,75815,1,8,0:0:0:0:
256,192,75997,1,0,0:0:0:0:
256,192,76088,1,0,0:0:0:0:
256,192,76270,1,8,0:0:0:0:
256,192,76361,1,8,0:0:0:0:
256,192,76542,1,0,0:0:0:0:
256,192,76633,1,8,0:0:0:0:
256,192,76815,1,8,0:0:0:0:
256,192,76906,1,0,0:0:0:0:
256,192,77179,1,12,0:0:0:0:
256,192,77361,1,0,0:0:0:0:
256,192,77452,1,8,0:0:0:0:
256,192,77633,1,0,0:0:0:0:
256,192,77724,1,8,0:0:0:0:
256,192,77815,1,8,0:0:0:0:
256,192,77906,1,0,0:0:0:0:
256,192,78179,1,12,0:0:0:0:
256,192,78452,1,0,0:0:0:0:
256,192,78542,1,8,0:0:0:0:
256,192,78724,1,8,0:0:0:0:
256,192,78815,1,8,0:0:0:0:
256,192,78906,1,0,0:0:0:0:
256,192,78997,1,0,0:0:0:0:
256,192,79088,1,8,0:0:0:0:
256,192,79361,1,12,0:0:0:0:
256,192,79633,5,8,0:0:0:0:
256,192,79815,1,0,0:0:0:0:
256,192,79906,1,8,0:0:0:0:
256,192,80088,1,0,0:0:0:0:
256,192,80179,1,8,0:0:0:0:
256,192,80452,1,8,0:0:0:0:
256,192,80633,1,0,0:0:0:0:
256,192,80724,1,8,0:0:0:0:
256,192,80906,1,0,0:0:0:0:
256,192,80997,1,8,0:0:0:0:
256,192,81088,1,0,0:0:0:0:
256,192,81179,1,0,0:0:0:0:
256,192,81270,1,0,0:0:0:0:
256,192,81452,1,4,0:0:0:0:
256,192,81724,1,0,0:0:0:0:
256,192,81815,1,8,0:0:0:0:
256,192,81997,1,4,0:0:0:0:
256,192,82270,1,0,0:0:0:0:
256,192,82361,1,8,0:0:0:0:
256,192,82542,1,4,0:0:0:0:
256,192,82906,1,0,0:0:0:0:
256,192,83088,1,0,0:0:0:0:
256,192,83179,1,8,0:0:0:0:
256,192,83270,1,0,0:0:0:0:
256,192,83361,1,0,0:0:0:0:
256,192,83452,1,0,0:0:0:0:
256,192,83633,1,8,0:0:0:0:
256,192,84270,12,0,87815,0:0:0:0:
