osu file format v14

[General]
AudioFilename: audio.mp3
AudioLeadIn: 0
PreviewTime: 53110
Countdown: 0
SampleSet: Normal
StackLeniency: 0.7
Mode: 1
LetterboxInBreaks: 0
WidescreenStoryboard: 1

[Editor]
Bookmarks: 815,9542,18269,26996,35724,44451,61905,70633,79360
DistanceSpacing: 0.8
BeatDivisor: 3
GridSize: 32
TimelineZoom: 0.89

[Metadata]
Title:Guda Fuwa Everyday (TV Size)
TitleUnicode:ぐだふわエブリデー (TV Size)
Artist:Yuuki Aoi
ArtistUnicode:悠木碧
Creator:Tyistiana
Version:Kantan
Source:スライム倒して300年、知らないうちにレベルMAXになってました
Tags:Slime Taoshite 300-nen, Shiranai Uchi ni Level Max ni Nattemashita I've Been Killing Slimes for 300 Years and Maxed Out My Level opening op anime japanese pop j-pop
BeatmapID:2953022
BeatmapSetID:1435050

[Difficulty]
HPDrainRate:8
CircleSize:5
OverallDifficulty:3
ApproachRate:8
SliderMultiplier:1.2
SliderTickRate:1

[Events]
//Background and Video events
0,0,"Novel 04.jpg",0,40
Video,-307,"opening.mp4"
//Break Periods
//Storyboard Layer 0 (Background)
//Storyboard Layer 1 (Fail)
//Storyboard Layer 2 (Pass)
//Storyboard Layer 3 (Foreground)
//Storyboard Layer 4 (Overlay)
//Storyboard Sound Samples

[TimingPoints]
-3548,272.727272727273,4,1,0,100,1,0
724,-125,4,1,0,100,0,0
53179,-125,4,1,0,100,0,1
79361,-125,4,1,0,100,0,0
84179,-125,4,1,0,50,0,0
84815,-125,4,1,0,40,0,0
85361,-125,4,1,0,30,0,0
85906,-125,4,1,0,20,0,0
86452,-125,4,1,0,10,0,0

[HitObjects]
256,192,724,5,0,0:0:0:0:
256,192,2906,1,8,0:0:0:0:
256,192,5088,1,0,0:0:0:0:
256,192,5724,1,0,0:0:0:0:
256,192,6270,1,0,0:0:0:0:
256,192,7270,1,8,0:0:0:0:
256,192,7815,1,8,0:0:0:0:
256,192,8361,1,8,0:0:0:0:
256,192,9542,5,12,0:0:0:0:
256,192,10361,1,0,0:0:0:0:
256,192,10906,1,0,0:0:0:0:
256,192,11179,1,8,0:0:0:0:
256,192,11724,1,0,0:0:0:0:
256,192,12270,1,0,0:0:0:0:
256,192,12815,1,8,0:0:0:0:
256,192,13361,1,8,0:0:0:0:
256,192,13906,1,4,0:0:0:0:
256,192,14724,1,0,0:0:0:0:
256,192,15270,1,8,0:0:0:0:
256,192,15542,1,0,0:0:0:0:
256,192,15997,1,12,0:0:0:0:
256,192,16633,1,0,0:0:0:0:
256,192,16906,1,0,0:0:0:0:
256,192,17179,1,8,0:0:0:0:
256,192,17724,1,8,0:0:0:0:
256,192,18270,5,4,0:0:0:0:
256,192,19361,1,0,0:0:0:0:
256,192,20452,1,0,0:0:0:0:
256,192,21542,1,0,0:0:0:0:
256,192,22633,1,4,0:0:0:0:
256,192,23724,1,0,0:0:0:0:
256,192,24815,5,0,0:0:0:0:
256,192,25361,1,8,0:0:0:0:
256,192,25906,1,0,0:0:0:0:
256,192,26452,1,8,0:0:0:0:
256,192,26997,5,4,0:0:0:0:
256,192,27542,1,8,0:0:0:0:
256,192,28088,1,0,0:0:0:0:
256,192,28361,1,0,0:0:0:0:
256,192,28633,1,8,0:0:0:0:
256,192,29179,1,0,0:0:0:0:
256,192,29724,1,8,0:0:0:0:
256,192,30270,1,0,0:0:0:0:
256,192,31361,5,4,0:0:0:0:
256,192,31906,1,8,0:0:0:0:
256,192,32179,1,8,0:0:0:0:
256,192,32452,1,0,0:0:0:0:
256,192,32997,1,8,0:0:0:0:
256,192,33542,1,0,0:0:0:0:
256,192,34088,1,8,0:0:0:0:
256,192,34633,1,0,0:0:0:0:
256,192,35179,1,8,0:0:0:0:
256,192,35633,1,8,0:0:0:0:
256,192,37815,1,8,0:0:0:0:
256,192,39997,1,0,0:0:0:0:
256,192,40633,1,0,0:0:0:0:
256,192,41179,1,0,0:0:0:0:
256,192,42179,1,8,0:0:0:0:
256,192,42724,1,8,0:0:0:0:
256,192,43270,1,8,0:0:0:0:
256,192,44452,5,4,0:0:0:0:
256,192,45542,1,8,0:0:0:0:
256,192,46633,1,0,0:0:0:0:
256,192,47724,1,8,0:0:0:0:
256,192,48815,1,0,0:0:0:0:
256,192,49906,1,8,0:0:0:0:
256,192,50997,1,0,0:0:0:0:
256,192,51270,1,0,0:0:0:0:
256,192,51542,1,0,0:0:0:0:
256,192,51815,1,0,0:0:0:0:
256,192,52088,1,8,0:0:0:0:
256,192,53179,5,4,0:0:0:0:
256,192,53724,1,8,0:0:0:0:
256,192,54270,1,0,0:0:0:0:
256,192,54542,1,0,0:0:0:0:
256,192,54815,1,8,0:0:0:0:
256,192,55361,1,0,0:0:0:0:
256,192,55633,1,8,0:0:0:0:
256,192,55906,1,0,0:0:0:0:
256,192,56452,1,8,0:0:0:0:
256,192,56997,1,0,0:0:0:0:
256,192,57542,1,8,0:0:0:0:
256,192,58088,1,8,0:0:0:0:
256,192,58361,1,8,0:0:0:0:
256,192,58633,1,0,0:0:0:0:
256,192,59179,1,8,0:0:0:0:
256,192,59633,1,12,0:0:0:0:
256,192,60815,1,0,0:0:0:0:
256,192,61088,1,0,0:0:0:0:
256,192,61361,1,0,0:0:0:0:
256,192,61906,5,4,0:0:0:0:
256,192,62452,1,8,0:0:0:0:
256,192,62997,1,8,0:0:0:0:
256,192,63270,1,0,0:0:0:0:
256,192,63542,1,8,0:0:0:0:
256,192,63815,1,0,0:0:0:0:
256,192,64088,1,8,0:0:0:0:
256,192,64633,1,8,0:0:0:0:
256,192,65179,1,0,0:0:0:0:
256,192,66270,1,8,0:0:0:0:
256,192,66542,1,0,0:0:0:0:
256,192,66815,1,8,0:0:0:0:
256,192,67361,1,8,0:0:0:0:
256,192,67633,1,8,0:0:0:0:
256,192,67906,1,0,0:0:0:0:
256,192,68361,1,12,0:0:0:0:
256,192,68997,1,0,0:0:0:0:
256,192,69270,1,0,0:0:0:0:
256,192,69542,1,0,0:0:0:0:
256,192,70633,5,4,0:0:0:0:
256,192,71179,1,0,0:0:0:0:
256,192,71452,1,8,0:0:0:0:
256,192,71724,1,0,0:0:0:0:
256,192,72270,1,8,0:0:0:0:
256,192,72724,1,0,0:0:0:0:
256,192,73361,1,0,0:0:0:0:
256,192,73633,1,0,0:0:0:0:
256,192,73906,1,8,0:0:0:0:
256,192,74452,1,8,0:0:0:0:
256,192,74997,1,0,0:0:0:0:
256,192,75542,1,8,0:0:0:0:
256,192,76088,1,0,0:0:0:0:
256,192,76633,1,0,0:0:0:0:
256,192,76906,1,0,0:0:0:0:
256,192,77179,1,8,0:0:0:0:
256,192,77724,1,0,0:0:0:0:
256,192,78179,1,12,0:0:0:0:
256,192,79361,5,4,0:0:0:0:
256,192,79906,1,0,0:0:0:0:
256,192,80452,1,0,0:0:0:0:
256,192,81452,1,8,0:0:0:0:
256,192,81997,1,8,0:0:0:0:
256,192,82542,1,8,0:0:0:0:
256,192,83179,1,0,0:0:0:0:
256,192,84270,12,0,87815,0:0:0:0:
