osu file format v14

[General]
AudioFilename: audio.mp3
AudioLeadIn: 0
PreviewTime: 53179
Countdown: 0
SampleSet: Soft
StackLeniency: 0.7
Mode: 3
LetterboxInBreaks: 0
SpecialStyle: 0
WidescreenStoryboard: 1

[Editor]
Bookmarks: 7270,9542,18270,24815,26997,35724,42088,44452,50997,61906,70633,77179,79497
DistanceSpacing: 0.8
BeatDivisor: 3
GridSize: 32
TimelineZoom: 1.199999

[Metadata]
Title:Guda Fuwa Everyday (TV Size)
TitleUnicode:ぐだふわエブリデー (TV Size)
Artist:Yuuki Aoi
ArtistUnicode:悠木碧
Creator:Jawbraiker
Version:axel's Hard
Source:スライム倒して300年、知らないうちにレベルMAXになってました
Tags:Slime Taoshite 300-nen, Shiranai Uchi ni Level Max ni Nattemashita I've Been Killing Slimes for 300 Years and Maxed Out My Level opening op anime japanese pop j-pop deta5859 Kanon Matsubara Short version axelowo COCC-17860
BeatmapID:3361288
BeatmapSetID:1479296

[Difficulty]
HPDrainRate:7.5
CircleSize:4
OverallDifficulty:8
ApproachRate:5
SliderMultiplier:1.4
SliderTickRate:1

[Events]
//Background and Video events
0,0,"pKEcJnfZVdLiZsTZRVe3zHf58Dx.jpg",0,0
Video,-266,"Slime Taoshite 300 nen Shiranai Uchi ni Level Max ni Nattemashita Opening Gudafuwa Everyday (1) (1).mp4"
//Break Periods
//Storyboard Layer 0 (Background)
//Storyboard Layer 1 (Fail)
//Storyboard Layer 2 (Pass)
//Storyboard Layer 3 (Foreground)
//Storyboard Layer 4 (Overlay)
//Storyboard Sound Samples
Sample,80997,0,"Tom1.wav",50

[TimingPoints]
-3548,272.727272727273,4,2,1,60,1,0
18270,-100,4,2,1,50,0,0
26997,-100,4,2,1,55,0,0
44452,-100,4,2,1,45,0,0
50997,-100,4,2,1,50,0,0
53179,-100,4,2,1,65,0,1
79361,-100,4,2,1,55,0,0
83724,-100,4,2,1,35,0,0

[HitObjects]
448,192,270,5,0,0:0:0:0:
320,192,452,1,2,0:0:0:0:
64,192,542,1,8,0:0:0:0:
192,192,542,1,0,0:0:0:0:
64,192,724,1,2,0:0:0:0:
320,192,724,1,4,0:0:0:0:
448,192,724,1,0,0:0:0:0:
320,192,1088,1,8,0:0:0:0:
448,192,1088,1,0,0:0:0:0:
64,192,1361,1,2,0:0:0:0:
192,192,1542,1,2,0:0:0:0:
320,192,1633,1,8,0:0:0:0:
448,192,1633,1,0,0:0:0:0:
64,192,1815,1,2,0:0:0:0:
192,192,2088,1,2,0:0:0:0:
320,192,2179,1,8,0:0:0:0:
448,192,2179,1,0,0:0:0:0:
192,192,2633,1,2,0:0:0:0:
320,192,2724,1,8,0:0:0:0:
448,192,2724,1,0,0:0:0:0:
64,192,2906,1,2,0:0:0:0:
192,192,2906,1,4,0:0:0:0:
448,192,2906,1,0,0:0:0:0:
64,192,3270,1,8,0:0:0:0:
192,192,3270,1,0,0:0:0:0:
448,192,3542,1,2,0:0:0:0:
320,192,3724,1,2,0:0:0:0:
64,192,3815,1,8,0:0:0:0:
192,192,3815,1,0,0:0:0:0:
448,192,3997,1,2,0:0:0:0:
320,192,4270,1,2,0:0:0:0:
64,192,4361,1,8,0:0:0:0:
192,192,4361,1,0,0:0:0:0:
320,192,4815,1,2,0:0:0:0:
64,192,4906,1,8,0:0:0:0:
192,192,4906,1,0,0:0:0:0:
64,192,5088,1,2,0:0:0:0:
320,192,5088,1,4,0:0:0:0:
448,192,5088,1,0,0:0:0:0:
320,192,5452,1,8,0:0:0:0:
448,192,5452,1,0,0:0:0:0:
448,192,5633,1,2,0:0:0:0:
64,192,5724,1,8,0:0:0:0:
192,192,5724,1,0,0:0:0:0:
64,192,5906,1,2,0:0:0:0:
320,192,5997,1,8,0:0:0:0:
448,192,5997,1,0,0:0:0:0:
448,192,6179,1,2,0:0:0:0:
64,192,6270,1,8,0:0:0:0:
192,192,6270,1,0,0:0:0:0:
64,192,6452,1,2,0:0:0:0:
320,192,6542,1,8,0:0:0:0:
448,192,6542,1,4,0:0:0:0:
64,192,6724,1,2,0:0:0:0:
320,192,6815,1,8,0:0:0:0:
192,192,6906,1,0,0:0:0:50:Tom1.wav
320,192,6997,1,0,0:0:0:60:Tom2.wav
64,192,7088,1,8,0:0:0:0:
448,192,7088,1,0,0:0:0:0:
64,192,7270,128,2,7497:0:0:0:0:
320,192,7270,1,4,0:0:0:0:
448,192,7270,1,0,0:0:0:0:
192,192,7497,1,0,0:0:0:0:
320,192,7633,1,8,0:0:0:0:
448,192,7633,1,0,0:0:0:0:
64,192,7815,1,2,0:0:0:0:
192,192,7815,1,4,0:0:0:0:
448,192,7815,128,0,8042:0:0:0:0:
320,192,8042,1,0,0:0:0:0:
64,192,8179,1,8,0:0:0:0:
192,192,8179,1,0,0:0:0:0:
64,192,8361,128,2,8588:0:0:0:0:
320,192,8361,1,4,0:0:0:0:
448,192,8361,1,0,0:0:0:0:
192,192,8588,1,8,0:0:0:0:
448,192,8588,1,0,0:0:0:0:
320,192,8724,1,2,0:0:0:0:
192,192,8815,1,0,0:0:0:50:Tom1.wav
64,192,8906,1,0,0:0:0:60:Tom2.wav
448,192,8997,1,8,0:0:0:0:
192,192,9088,1,8,0:0:0:0:
448,192,9179,1,8,0:0:0:0:
64,192,9270,1,8,0:0:0:0:
320,192,9361,1,8,0:0:0:0:
64,192,9452,1,8,0:0:0:0:
192,192,9542,1,2,0:0:0:0:
320,192,9542,1,4,0:0:0:0:
448,192,9542,128,0,9815:0:0:0:0:
192,192,9815,1,8,0:0:0:0:
320,192,9815,1,0,0:0:0:0:
64,192,9997,128,0,10270:0:0:0:0:
192,192,10270,1,2,0:0:0:0:
320,192,10361,1,8,0:0:0:0:
448,192,10361,1,0,0:0:0:0:
64,192,10633,1,2,0:0:0:0:
192,192,10906,1,8,0:0:0:0:
448,192,10906,1,0,0:0:0:0:
64,192,11088,1,2,0:0:0:0:
320,192,11179,1,0,0:0:0:0:
192,192,11361,1,2,0:0:0:0:
320,192,11452,1,8,0:0:0:0:
448,192,11452,1,0,0:0:0:0:
64,192,11724,1,2,0:0:0:0:
192,192,11997,1,8,0:0:0:0:
320,192,11997,1,0,0:0:0:0:
448,192,12270,1,0,0:0:0:0:
320,192,12452,1,2,0:0:0:0:
64,192,12542,1,8,0:0:0:0:
192,192,12542,1,0,0:0:0:0:
448,192,12724,1,0,0:0:0:0:
192,192,12815,1,2,0:0:0:0:
320,192,13088,1,8,0:0:0:0:
448,192,13088,1,0,0:0:0:0:
64,192,13270,1,2,0:0:0:0:
320,192,13361,1,0,0:0:0:0:
192,192,13542,1,2,0:0:0:0:
320,192,13633,1,8,0:0:0:0:
448,192,13633,1,0,0:0:0:0:
64,192,13906,128,2,14179:0:0:0:0:
192,192,13906,1,4,0:0:0:0:
448,192,13906,1,0,0:0:0:0:
192,192,14179,1,8,0:0:0:0:
320,192,14179,1,0,0:0:0:0:
448,192,14361,128,0,14633:0:0:0:0:
320,192,14633,1,2,0:0:0:0:
64,192,14724,1,8,0:0:0:0:
192,192,14724,1,0,0:0:0:0:
64,192,14997,1,2,0:0:0:0:
320,192,14997,1,0,0:0:0:0:
192,192,15179,1,0,0:0:0:0:
320,192,15270,1,8,0:0:0:0:
448,192,15270,1,0,0:0:0:0:
64,192,15452,1,2,0:0:0:0:
192,192,15542,1,8,0:0:0:0:
320,192,15542,1,0,0:0:0:0:
448,192,15724,1,2,0:0:0:0:
64,192,15997,1,2,0:0:0:0:
320,192,15997,1,4,0:0:0:0:
448,192,15997,1,0,0:0:0:0:
64,192,16361,1,8,0:0:0:0:
192,192,16361,1,0,0:0:0:0:
64,192,16633,1,8,0:0:0:0:
192,192,16633,1,0,0:0:0:0:
320,192,16815,1,2,0:0:0:0:
64,192,16906,1,8,0:0:0:0:
448,192,16906,1,0,0:0:0:0:
64,192,17179,1,2,0:0:0:0:
192,192,17179,1,4,0:0:0:0:
448,192,17179,1,0,0:0:0:0:
320,192,17452,1,8,0:0:0:0:
448,192,17452,1,0,0:0:0:0:
192,192,17633,1,2,0:0:0:0:
448,192,17724,1,8,0:0:0:0:
320,192,17815,1,8,0:0:0:0:
64,192,17906,1,8,0:0:0:0:
448,192,17997,1,2,0:0:0:0:
192,192,18088,1,0,0:0:0:50:Tom1.wav
320,192,18179,1,0,0:0:0:60:Tom2.wav
64,192,18270,1,2,0:0:0:0:
192,192,18270,1,4,0:0:0:0:
448,192,18270,1,0,0:0:0:0:
192,192,18542,1,8,0:0:0:0:
320,192,18542,1,0,0:0:0:0:
64,192,18679,1,0,0:0:0:0:
320,192,18815,1,0,0:0:0:0:
64,192,18952,1,0,0:0:0:0:
192,192,19088,1,8,0:0:0:0:
320,192,19088,1,0,0:0:0:0:
64,192,19224,1,0,0:0:0:0:
448,192,19361,128,2,19565:0:0:0:0:
320,192,19565,1,0,0:0:0:0:
64,192,19633,1,8,0:0:0:0:
192,192,19633,1,0,0:0:0:0:
64,192,19838,128,0,20088:0:0:0:0:
448,192,20088,1,2,0:0:0:0:
192,192,20179,128,8,20452:0:0:0:0:
320,192,20179,1,0,0:0:0:0:
64,192,20452,1,2,0:0:0:0:
192,192,20724,1,8,0:0:0:0:
320,192,20724,1,0,0:0:0:0:
448,192,20861,1,0,0:0:0:0:
192,192,20997,1,0,0:0:0:0:
448,192,21133,1,0,0:0:0:0:
192,192,21270,1,8,0:0:0:0:
320,192,21270,1,0,0:0:0:0:
448,192,21406,1,0,0:0:0:0:
64,192,21542,128,2,21747:0:0:0:0:
192,192,21747,1,0,0:0:0:0:
320,192,21815,1,8,0:0:0:0:
448,192,21815,1,0,0:0:0:0:
448,192,22020,128,0,22224:0:0:0:0:
192,192,22224,1,0,0:0:0:0:
64,192,22361,1,8,0:0:0:0:
448,192,22361,1,0,0:0:0:0:
320,192,22497,1,0,0:0:0:0:
64,192,22633,1,2,0:0:0:0:
192,192,22633,1,4,0:0:0:0:
448,192,22633,1,0,0:0:0:0:
64,192,22906,1,8,0:0:0:0:
192,192,22906,1,0,0:0:0:0:
320,192,23042,1,0,0:0:0:0:
320,192,23315,1,0,0:0:0:0:
64,192,23452,1,8,0:0:0:0:
192,192,23452,1,0,0:0:0:0:
448,192,23724,128,2,23929:0:0:0:0:
320,192,23929,1,0,0:0:0:0:
64,192,23997,1,8,0:0:0:0:
192,192,23997,1,0,0:0:0:0:
64,192,24202,128,0,24452:0:0:0:0:
320,192,24452,1,8,0:0:0:0:
192,192,24542,1,2,0:0:0:0:
448,192,24542,1,4,0:0:0:0:
64,192,24815,1,2,0:0:0:0:
192,192,24815,1,4,0:0:0:0:
320,192,24815,1,0,0:0:0:0:
320,192,25088,1,8,0:0:0:0:
448,192,25088,1,0,0:0:0:0:
320,192,25361,1,8,0:0:0:0:
448,192,25361,1,0,0:0:0:0:
192,192,25542,1,2,0:0:0:0:
64,192,25633,1,8,0:0:0:0:
448,192,25633,1,0,0:0:0:0:
192,192,25906,1,2,0:0:0:0:
192,192,26179,1,8,0:0:0:0:
448,192,26179,1,0,0:0:0:0:
320,192,26361,1,2,0:0:0:0:
64,192,26452,1,8,0:0:0:0:
192,192,26542,1,8,0:0:0:0:
448,192,26633,1,0,0:0:0:50:Tom1.wav
64,192,26724,1,8,0:0:0:50:Tom1.wav
320,192,26815,1,0,0:0:0:50:Tom2.wav
192,192,26906,1,0,0:0:0:60:Tom3.wav
64,192,26997,1,2,0:0:0:0:
320,192,26997,1,4,0:0:0:0:
448,192,26997,1,0,0:0:0:0:
192,192,27270,1,8,0:0:0:0:
320,192,27270,1,4,0:0:0:0:
64,192,27406,1,0,0:0:0:0:
320,192,27542,1,0,0:0:0:0:
64,192,27679,1,0,0:0:0:0:
192,192,27815,1,8,0:0:0:0:
320,192,27815,1,0,0:0:0:0:
448,192,27952,1,0,0:0:0:0:
192,192,28088,128,2,28292:0:0:0:0:
320,192,28292,1,0,0:0:0:0:
64,192,28361,1,8,0:0:0:0:
448,192,28361,1,0,0:0:0:0:
320,192,28565,128,0,28815:0:0:0:0:
192,192,28815,1,2,0:0:0:0:
64,192,28906,1,8,0:0:0:0:
448,192,28906,128,0,29179:0:0:0:0:
320,192,29179,1,2,0:0:0:0:
64,192,29452,1,8,0:0:0:0:
192,192,29452,1,0,0:0:0:0:
448,192,29724,1,0,0:0:0:0:
192,192,29906,1,2,0:0:0:0:
320,192,29997,1,8,0:0:0:0:
448,192,29997,1,0,0:0:0:0:
64,192,30270,128,2,30542:0:0:0:0:
192,192,30542,1,8,0:0:0:0:
448,192,30542,1,0,0:0:0:0:
320,192,30679,128,0,30997:0:0:0:0:
448,192,30997,1,2,0:0:0:0:
64,192,31088,1,8,0:0:0:0:
192,192,31088,128,0,31361:0:0:0:0:
64,192,31361,1,2,0:0:0:0:
320,192,31361,1,4,0:0:0:0:
448,192,31361,1,0,0:0:0:0:
192,192,31633,1,8,0:0:0:0:
320,192,31633,1,0,0:0:0:0:
448,192,31906,1,0,0:0:0:0:
320,192,32088,1,2,0:0:0:0:
64,192,32179,1,8,0:0:0:0:
192,192,32179,1,0,0:0:0:0:
192,192,32452,128,2,32656:0:0:0:0:
320,192,32656,1,0,0:0:0:0:
64,192,32724,1,8,0:0:0:0:
448,192,32724,1,0,0:0:0:0:
320,192,32929,128,0,33179:0:0:0:0:
448,192,33179,1,2,0:0:0:0:
64,192,33270,128,8,33542:0:0:0:0:
192,192,33270,1,0,0:0:0:0:
320,192,33542,1,2,0:0:0:0:
192,192,33815,1,8,0:0:0:0:
320,192,33815,1,4,0:0:0:0:
448,192,33815,1,0,0:0:0:0:
64,192,34088,1,8,0:0:0:0:
192,192,34088,1,0,0:0:0:0:
448,192,34179,1,8,0:0:0:0:
192,192,34270,1,0,0:0:0:50:Tom1.wav
320,192,34361,1,0,0:0:0:50:Tom1.wav
192,192,34452,1,0,0:0:0:60:Tom2.wav
320,192,34542,1,0,0:0:0:60:Tom2.wav
448,192,34633,128,2,34815:0:0:0:0:
64,192,34815,128,0,34997:0:0:0:60:Tom3.wav
320,192,34997,128,0,35179:0:0:0:60:Tom3.wav
64,192,35179,1,8,0:0:0:0:
192,192,35179,1,4,0:0:0:0:
320,192,35361,1,2,0:0:0:0:
192,192,35452,1,8,0:0:0:0:
448,192,35452,1,0,0:0:0:0:
64,192,35633,1,2,0:0:0:0:
320,192,35633,1,0,0:0:0:0:
192,192,35906,1,2,0:0:0:0:
448,192,35997,1,8,0:0:0:0:
192,192,36179,1,0,0:0:0:50:Tom2.wav
320,192,36270,1,0,0:0:0:50:Tom2.wav
64,192,36361,1,0,0:0:0:50:Tom2.wav
192,192,36452,1,0,0:0:0:50:Tom2.wav
320,192,36542,1,8,0:0:0:0:
448,192,36542,1,0,0:0:0:0:
320,192,36724,1,0,0:0:0:50:Tom2.wav
64,192,36815,1,2,0:0:0:0:
448,192,36997,1,0,0:0:0:50:Tom2.wav
64,192,37088,1,8,0:0:0:0:
320,192,37270,1,0,0:0:0:50:Tom2.wav
192,192,37361,1,0,0:0:0:50:Tom2.wav
448,192,37452,1,0,0:0:0:50:Tom2.wav
320,192,37542,1,0,0:0:0:50:Tom2.wav
64,192,37633,1,8,0:0:0:0:
192,192,37633,1,0,0:0:0:0:
64,192,37815,1,2,0:0:0:0:
320,192,37815,1,4,0:0:0:0:
448,192,37815,1,0,0:0:0:0:
320,192,38088,1,2,0:0:0:0:
64,192,38179,1,8,0:0:0:0:
448,192,38179,1,0,0:0:0:50:Tom2.wav
192,192,38361,1,0,0:0:0:50:Tom2.wav
320,192,38452,1,0,0:0:0:50:Tom2.wav
64,192,38542,1,0,0:0:0:50:Tom2.wav
192,192,38633,1,0,0:0:0:50:Tom2.wav
320,192,38724,1,8,0:0:0:0:
448,192,38724,1,0,0:0:0:0:
192,192,38906,1,0,0:0:0:50:Tom2.wav
448,192,38997,1,2,0:0:0:0:
64,192,39179,1,2,0:0:0:0:
448,192,39270,1,8,0:0:0:0:
320,192,39452,1,0,0:0:0:50:Tom2.wav
192,192,39542,1,0,0:0:0:50:Tom2.wav
448,192,39633,1,0,0:0:0:50:Tom2.wav
320,192,39724,1,0,0:0:0:50:Tom2.wav
192,192,39815,1,0,0:0:0:50:Tom2.wav
64,192,39997,1,2,0:0:0:0:
320,192,39997,1,4,0:0:0:0:
448,192,39997,1,0,0:0:0:0:
320,192,40361,1,8,0:0:0:0:
448,192,40361,1,0,0:0:0:0:
448,192,40542,1,2,0:0:0:0:
64,192,40633,1,8,0:0:0:0:
192,192,40633,1,0,0:0:0:0:
64,192,40815,1,2,0:0:0:0:
320,192,40906,1,8,0:0:0:0:
448,192,40906,1,0,0:0:0:0:
448,192,41088,1,2,0:0:0:0:
64,192,41179,1,8,0:0:0:0:
192,192,41179,1,0,0:0:0:0:
64,192,41361,1,2,0:0:0:0:
320,192,41452,1,8,0:0:0:0:
448,192,41452,1,4,0:0:0:0:
64,192,41633,1,2,0:0:0:0:
320,192,41724,1,8,0:0:0:0:
192,192,41815,1,0,0:0:0:50:Tom1.wav
320,192,41906,1,0,0:0:0:60:Tom2.wav
64,192,41997,1,8,0:0:0:0:
448,192,41997,1,0,0:0:0:0:
64,192,42179,128,2,42406:0:0:0:0:
320,192,42179,1,4,0:0:0:0:
448,192,42179,1,0,0:0:0:0:
192,192,42406,1,0,0:0:0:0:
320,192,42542,1,8,0:0:0:0:
448,192,42542,1,0,0:0:0:0:
64,192,42724,1,2,0:0:0:0:
192,192,42724,1,4,0:0:0:0:
448,192,42724,128,0,42952:0:0:0:0:
320,192,42952,1,0,0:0:0:0:
64,192,43088,1,8,0:0:0:0:
192,192,43088,1,0,0:0:0:0:
64,192,43270,128,2,43497:0:0:0:0:
320,192,43270,1,4,0:0:0:0:
448,192,43270,1,0,0:0:0:0:
192,192,43497,1,0,0:0:0:0:
320,192,43633,1,2,0:0:0:0:
192,192,43724,1,0,0:0:0:0:
64,192,43815,1,0,0:0:0:60:Tom2.wav
448,192,43906,1,8,0:0:0:0:
192,192,43997,1,8,0:0:0:0:
448,192,44088,1,8,0:0:0:0:
64,192,44179,1,8,0:0:0:0:
320,192,44270,1,8,0:0:0:0:
64,192,44361,1,8,0:0:0:0:
320,192,44452,1,2,0:0:0:0:
448,192,44452,128,4,44724:0:0:0:0:
192,192,44724,128,0,44997:0:0:0:0:
320,192,44997,128,0,45270:0:0:0:0:
64,192,45270,1,0,0:0:0:0:
448,192,45452,1,0,0:0:0:0:
64,192,45542,128,0,45815:0:0:0:0:
320,192,45815,1,0,0:0:0:0:
192,192,45997,1,0,0:0:0:0:
448,192,46088,128,0,46361:0:0:0:0:
192,192,46361,1,0,0:0:0:0:
320,192,46542,1,2,0:0:0:0:
64,192,46633,128,2,46906:0:0:0:0:
320,192,46906,128,0,47179:0:0:0:0:
192,192,47179,128,0,47452:0:0:0:0:
64,192,47452,1,0,0:0:0:0:
448,192,47633,1,0,0:0:0:0:
64,192,47724,128,2,47997:0:0:0:0:
192,192,47997,1,0,0:0:0:0:
320,192,48179,1,8,0:0:0:0:
448,192,48270,128,0,48542:0:0:0:0:
320,192,48542,1,2,0:0:0:0:
192,192,48724,1,0,0:0:0:60:Tom2.wav
64,192,48815,1,2,0:0:0:0:
320,192,48815,128,4,49088:0:0:0:0:
448,192,49088,1,0,0:0:0:0:
192,192,49270,1,0,0:0:0:0:
64,192,49361,128,0,49815:0:0:0:0:
448,192,49633,1,0,0:0:0:0:
192,192,49815,1,0,0:0:0:0:
448,192,49906,128,0,50179:0:0:0:0:
192,192,50179,1,0,0:0:0:0:
64,192,50361,1,0,0:0:0:0:
320,192,50452,1,2,0:0:0:0:
64,192,50633,1,8,0:0:0:0:
192,192,50633,1,0,0:0:0:0:
448,192,50724,1,8,0:0:0:0:
320,192,50815,1,0,0:0:0:50:Tom1.wav
192,192,50906,1,0,0:0:0:60:Tom2.wav
64,192,50997,1,2,0:0:0:0:
320,192,50997,1,4,0:0:0:0:
448,192,50997,1,0,0:0:0:0:
64,192,51270,1,8,0:0:0:0:
448,192,51270,1,2,0:0:0:0:
192,192,51361,1,8,0:0:0:0:
320,192,51452,1,0,0:0:0:0:
64,192,51542,1,10,0:0:0:0:
320,192,51633,1,8,0:0:0:0:
192,192,51724,1,0,0:0:0:0:
448,192,51815,1,2,0:0:0:0:
320,192,51906,1,0,0:0:0:60:Tom2.wav
192,192,51997,1,0,0:0:0:60:Tom2.wav
64,192,52088,1,2,0:0:0:0:
448,192,52088,1,4,0:0:0:0:
192,192,52270,1,0,0:0:0:0:
320,192,52452,1,0,0:0:0:0:
192,192,52542,1,0,0:0:0:0:
64,192,52633,1,8,0:0:0:0:
448,192,52633,1,0,0:0:0:60:Tom3.wav
64,192,52815,1,8,0:0:0:0:
448,192,52815,1,0,0:0:0:0:
64,192,53179,1,2,0:0:0:0:
320,192,53179,1,4,0:0:0:0:
448,192,53179,1,0,0:0:0:0:
320,192,53452,1,8,0:0:0:0:
448,192,53452,1,0,0:0:0:0:
64,192,53724,128,0,54270:0:0:0:0:
448,192,53906,1,2,0:0:0:0:
192,192,53997,1,8,0:0:0:0:
320,192,54270,1,2,0:0:0:0:
448,192,54270,128,0,54542:0:0:0:0:
64,192,54542,1,8,0:0:0:0:
320,192,54542,128,0,54724:0:0:0:0:
192,192,54724,1,2,0:0:0:0:
64,192,54815,128,0,54997:0:0:0:0:
448,192,54997,1,2,0:0:0:0:
192,192,55088,1,8,0:0:0:0:
320,192,55088,1,0,0:0:0:0:
448,192,55270,128,0,55633:0:0:0:0:
64,192,55361,1,2,0:0:0:0:
192,192,55633,128,8,55906:0:0:0:0:
320,192,55633,1,0,0:0:0:0:
64,192,55906,128,0,56088:0:0:0:0:
320,192,56088,128,2,56315:0:0:0:0:
448,192,56179,1,8,0:0:0:0:
192,192,56315,128,0,56724:0:0:0:0:
64,192,56452,1,2,0:0:0:0:
320,192,56724,1,8,0:0:0:0:
448,192,56724,1,0,0:0:0:0:
192,192,56906,1,2,0:0:0:0:
64,192,56997,128,0,57179:0:0:0:0:
320,192,57179,1,2,0:0:0:0:
192,192,57270,128,8,57542:0:0:0:0:
448,192,57270,1,0,0:0:0:0:
64,192,57542,1,2,0:0:0:0:
320,192,57542,1,4,0:0:0:0:
448,192,57542,128,0,57815:0:0:0:0:
192,192,57815,1,8,0:0:0:0:
320,192,57815,128,0,57997:0:0:0:0:
448,192,57997,1,0,0:0:0:0:
64,192,58088,128,0,58270:0:0:0:0:
320,192,58270,1,2,0:0:0:0:
192,192,58361,1,8,0:0:0:0:
448,192,58361,1,0,0:0:0:0:
320,192,58452,128,0,58633:0:0:0:0:
64,192,58633,128,2,58815:0:0:0:0:
192,192,58815,1,0,0:0:0:0:
320,192,58906,1,8,0:0:0:0:
448,192,58906,128,4,59088:0:0:0:0:
64,192,59088,1,2,0:0:0:0:
192,192,59179,128,8,59361:0:0:0:0:
320,192,59179,1,0,0:0:0:0:
320,192,59361,128,2,59542:0:0:0:0:
64,192,59633,128,2,60452:0:0:0:0:
320,192,59633,1,4,0:0:0:0:
448,192,59633,1,0,0:0:0:0:
320,192,59997,1,8,0:0:0:0:
448,192,59997,1,0,0:0:0:0:
320,192,60270,1,8,0:0:0:0:
448,192,60270,1,0,0:0:0:0:
192,192,60452,1,2,0:0:0:0:
64,192,60542,1,8,0:0:0:0:
448,192,60542,1,0,0:0:0:0:
64,192,60815,1,2,0:0:0:0:
192,192,60815,1,4,0:0:0:0:
320,192,60815,1,0,0:0:0:0:
192,192,61088,1,8,0:0:0:0:
448,192,61088,1,0,0:0:0:0:
320,192,61270,1,2,0:0:0:0:
64,192,61361,1,8,0:0:0:0:
320,192,61452,1,8,0:0:0:0:
192,192,61542,1,0,0:0:0:0:
64,192,61633,1,2,0:0:0:0:
320,192,61633,1,4,0:0:0:0:
448,192,61633,1,0,0:0:0:0:
64,192,61906,1,2,0:0:0:0:
192,192,61906,1,4,0:0:0:0:
448,192,61906,1,0,0:0:0:0:
64,192,62179,128,8,62452:0:0:0:0:
320,192,62179,1,0,0:0:0:0:
320,192,62452,128,0,62633:0:0:0:0:
192,192,62633,1,2,0:0:0:0:
64,192,62724,128,8,62997:0:0:0:0:
448,192,62724,1,0,0:0:0:0:
320,192,62997,1,2,0:0:0:0:
448,192,62997,128,0,63270:0:0:0:0:
64,192,63270,1,8,0:0:0:0:
192,192,63270,128,0,63452:0:0:0:0:
320,192,63452,1,2,0:0:0:0:
448,192,63542,128,0,63724:0:0:0:0:
64,192,63724,1,2,0:0:0:0:
192,192,63815,128,8,64088:0:0:0:0:
320,192,63815,1,0,0:0:0:0:
320,192,64088,1,2,0:0:0:0:
448,192,64088,128,0,64361:0:0:0:0:
64,192,64361,128,8,64542:0:0:0:0:
192,192,64361,1,0,0:0:0:0:
320,192,64542,1,0,0:0:0:0:
192,192,64633,128,0,64815:0:0:0:0:
320,192,64815,1,2,0:0:0:0:
64,192,64906,1,8,0:0:0:0:
448,192,64906,1,0,0:0:0:0:
64,192,65088,128,0,65633:0:0:0:0:
320,192,65179,1,2,0:0:0:0:
448,192,65452,1,8,0:0:0:0:
192,192,65633,1,2,0:0:0:0:
192,192,65906,1,2,0:0:0:0:
320,192,65997,1,8,0:0:0:0:
448,192,65997,1,0,0:0:0:0:
64,192,66270,1,2,0:0:0:0:
320,192,66270,128,4,66542:0:0:0:0:
448,192,66270,1,0,0:0:0:0:
192,192,66542,1,8,0:0:0:0:
448,192,66542,128,0,66815:0:0:0:0:
192,192,66815,128,0,67088:0:0:0:0:
64,192,67088,128,8,67361:0:0:0:0:
320,192,67088,1,0,0:0:0:0:
320,192,67361,128,2,67633:0:0:0:0:
448,192,67361,1,0,0:0:0:0:
64,192,67633,1,8,0:0:0:0:
192,192,67633,1,4,0:0:0:0:
448,192,67815,1,2,0:0:0:0:
192,192,67906,1,8,0:0:0:0:
320,192,67906,1,0,0:0:0:0:
64,192,68088,1,2,0:0:0:0:
64,192,68361,1,2,0:0:0:0:
192,192,68361,1,4,0:0:0:0:
448,192,68361,128,0,68724:0:0:0:0:
64,192,68724,1,8,0:0:0:0:
192,192,68724,128,0,68997:0:0:0:0:
320,192,68997,128,8,69179:0:0:0:0:
448,192,68997,1,0,0:0:0:0:
192,192,69179,1,2,0:0:0:0:
64,192,69270,128,8,69542:0:0:0:0:
448,192,69270,1,0,0:0:0:0:
192,192,69542,1,2,0:0:0:0:
320,192,69542,1,4,0:0:0:0:
448,192,69542,1,0,0:0:0:0:
64,192,69815,1,8,0:0:0:0:
192,192,69815,1,0,0:0:0:0:
448,192,69997,1,2,0:0:0:0:
64,192,70088,1,8,0:0:0:0:
192,192,70179,1,8,0:0:0:0:
448,192,70270,1,8,0:0:0:0:
64,192,70361,1,2,0:0:0:0:
320,192,70452,1,0,0:0:0:50:Tom1.wav
192,192,70542,1,0,0:0:0:60:Tom2.wav
64,192,70633,1,2,0:0:0:0:
320,192,70633,1,4,0:0:0:0:
448,192,70633,1,0,0:0:0:0:
192,192,70906,1,8,0:0:0:0:
448,192,70906,1,0,0:0:0:0:
64,192,71179,1,0,0:0:0:0:
448,192,71361,1,2,0:0:0:0:
192,192,71452,1,8,0:0:0:0:
320,192,71452,1,0,0:0:0:0:
192,192,71724,1,2,0:0:0:0:
64,192,71997,1,8,0:0:0:0:
320,192,71997,1,0,0:0:0:0:
192,192,72270,1,2,0:0:0:0:
320,192,72270,128,0,72452:0:0:0:0:
448,192,72452,1,2,0:0:0:0:
64,192,72542,1,8,0:0:0:0:
192,192,72542,1,0,0:0:0:0:
64,192,72724,128,2,72997:0:0:0:0:
320,192,72724,1,4,0:0:0:0:
448,192,72724,1,0,0:0:0:0:
192,192,72997,1,2,0:0:0:0:
320,192,73088,1,8,0:0:0:0:
448,192,73088,1,0,0:0:0:0:
448,192,73361,1,0,0:0:0:0:
64,192,73542,1,2,0:0:0:0:
192,192,73633,1,8,0:0:0:0:
320,192,73633,1,0,0:0:0:0:
320,192,73906,128,2,74179:0:0:0:0:
448,192,73906,1,0,0:0:0:0:
64,192,74179,1,8,0:0:0:0:
448,192,74179,128,0,74361:0:0:0:0:
192,192,74361,1,2,0:0:0:0:
64,192,74452,128,0,74633:0:0:0:0:
448,192,74633,1,2,0:0:0:0:
192,192,74724,1,8,0:0:0:0:
320,192,74724,1,0,0:0:0:0:
64,192,74997,1,2,0:0:0:0:
320,192,74997,1,4,0:0:0:0:
448,192,74997,128,0,75270:0:0:0:0:
64,192,75270,1,8,0:0:0:0:
192,192,75270,1,0,0:0:0:0:
448,192,75542,1,0,0:0:0:0:
64,192,75724,1,2,0:0:0:0:
192,192,75815,1,8,0:0:0:0:
320,192,75815,1,0,0:0:0:0:
192,192,76088,1,2,0:0:0:0:
64,192,76361,1,8,0:0:0:0:
448,192,76361,1,4,0:0:0:0:
320,192,76542,1,2,0:0:0:0:
64,192,76633,128,8,76815:0:0:0:0:
192,192,76633,1,0,0:0:0:0:
448,192,76815,1,8,0:0:0:0:
192,192,76906,1,8,0:0:0:0:
320,192,76906,1,0,0:0:0:0:
64,192,77179,1,2,0:0:0:0:
320,192,77179,1,4,0:0:0:0:
448,192,77179,128,0,77452:0:0:0:0:
64,192,77452,1,8,0:0:0:0:
192,192,77452,1,0,0:0:0:0:
192,192,77724,128,8,77906:0:0:0:0:
448,192,77724,1,0,0:0:0:0:
320,192,77906,1,2,0:0:0:0:
64,192,78179,1,2,0:0:0:0:
320,192,78179,128,4,78452:0:0:0:0:
448,192,78179,1,0,0:0:0:0:
448,192,78452,1,2,0:0:0:0:
64,192,78542,1,8,0:0:0:0:
320,192,78633,1,8,0:0:0:0:
192,192,78724,1,8,0:0:0:0:
448,192,78815,1,8,0:0:0:0:
64,192,78906,1,8,0:0:0:0:
320,192,78997,1,8,0:0:0:0:
192,192,79088,1,8,0:0:0:0:
448,192,79179,1,8,0:0:0:0:
64,192,79270,1,8,0:0:0:0:
192,192,79361,1,2,0:0:0:0:
320,192,79361,1,4,0:0:0:0:
448,192,79361,1,0,0:0:0:0:
320,192,79633,1,8,0:0:0:0:
448,192,79633,1,0,0:0:0:0:
448,192,79815,1,2,0:0:0:0:
64,192,79906,1,8,0:0:0:0:
192,192,79906,1,0,0:0:0:0:
64,192,80088,1,2,0:0:0:0:
320,192,80179,1,8,0:0:0:0:
448,192,80179,1,0,0:0:0:0:
448,192,80361,1,2,0:0:0:0:
64,192,80452,1,8,0:0:0:0:
192,192,80452,1,0,0:0:0:0:
64,192,80633,1,2,0:0:0:0:
320,192,80724,1,8,0:0:0:0:
448,192,80724,1,4,0:0:0:0:
64,192,80906,1,2,0:0:0:0:
192,192,80997,1,8,0:0:0:0:
448,192,81088,1,0,0:0:0:60:Tom2.wav
320,192,81179,1,0,0:0:0:60:Tom3.wav
64,192,81270,1,8,0:0:0:0:
192,192,81270,1,0,0:0:0:0:
64,192,81452,1,2,0:0:0:0:
448,192,81452,128,4,81633:0:0:0:0:
192,192,81724,1,0,0:0:0:0:
64,192,81815,1,8,0:0:0:0:
320,192,81815,1,0,0:0:0:0:
64,192,81997,128,2,82179:0:0:0:0:
448,192,81997,1,4,0:0:0:0:
320,192,82270,1,2,0:0:0:0:
192,192,82361,1,8,0:0:0:0:
448,192,82361,1,0,0:0:0:0:
64,192,82542,1,2,0:0:0:0:
448,192,82542,128,4,82724:0:0:0:0:
64,192,82815,1,2,0:0:0:0:
192,192,82906,1,0,0:0:0:50:Tom1.wav
320,192,82997,1,0,0:0:0:60:Tom2.wav
448,192,83088,1,0,0:0:0:60:Tom3.wav
64,192,83179,1,8,0:0:0:0:
192,192,83179,1,0,0:0:0:0:
320,192,83361,1,8,0:0:0:0:
448,192,83361,1,0,0:0:0:0:
64,192,83452,1,8,0:0:0:0:
192,192,83452,1,0,0:0:0:0:
320,192,83633,1,8,0:0:0:0:
448,192,83633,1,0,0:0:0:0:
320,192,84179,1,0,0:0:0:0:
192,192,84270,1,0,0:0:0:0:
64,192,84361,128,0,88361:0:0:0:0:
