osu file format v14

[General]
AudioFilename: Cupid Review - Yuuki Aoi.mp3
AudioLeadIn: 0
PreviewTime: 55046
Countdown: 0
SampleSet: Soft
StackLeniency: 0.7
Mode: 0
LetterboxInBreaks: 0
WidescreenStoryboard: 0

[Editor]
DistanceSpacing: 1.3
BeatDivisor: 4
GridSize: 8
TimelineZoom: 2.899999

[Metadata]
Title:Cupid Review
TitleUnicode:クピドゥレビュー
Artist:Yuuki Aoi
ArtistUnicode:悠木碧
Creator:walaowey
Version:Insane
Source:彼女がフラグをおられたら
Tags:gaworare anime Kyle Y Flag wo Oraretara [Sc4v4ng3r]
BeatmapID:611245
BeatmapSetID:268467

[Difficulty]
HPDrainRate:6
CircleSize:4
OverallDifficulty:7.5
ApproachRate:8
SliderMultiplier:1.8
SliderTickRate:2

[Events]
//Background and Video events
Video,0,"gaworare.flv"
0,0,"gaworare.png",0,0
//Break Periods
//Storyboard Layer 0 (Background)
//Storyboard Layer 1 (Fail)
//Storyboard Layer 2 (Pass)
//Storyboard Layer 3 (Foreground)
//Storyboard Sound Samples

[TimingPoints]
3476,437.956204379562,4,2,1,60,1,0
24497,-133.333333333333,4,2,1,50,0,0
25811,-133.333333333333,4,2,2,50,0,0
26030,-133.333333333333,4,2,1,50,0,0
38512,-100,4,2,1,60,0,0
56030,-100,4,2,1,70,0,0
56359,-100,4,2,1,10,0,0
56468,-100,4,2,1,80,0,1
76614,-100,4,2,1,50,0,0
84059,-100,4,2,1,60,0,0
87453,-100,4,2,1,5,0,0

[HitObjects]
94,170,3475,6,0,L|179:125,1,90,6|0,0:0|0:0,0:0:0:0:
213,294,3913,2,0,L|168:209,1,90,8|0,0:0|0:0,0:0:0:0:
338,176,4351,2,0,L|258:218,1,90,2|0,0:0|0:0,0:0:0:0:
216,51,4789,2,0,L|261:136,1,90,8|0,0:0|0:0,0:0:0:0:
180,263,5227,6,0,L|183:159,1,90,2|0,0:0|0:0,0:0:0:0:
338,176,5665,1,8,0:0:0:0:
260,307,5884,1,0,0:0:0:0:
260,307,5994,1,0,0:0:0:0:
260,307,6103,2,0,P|228:340|150:353,1,90,2|0,0:0|0:0,0:0:0:0:
101,209,6541,2,0,L|96:145,2,45,8|0|0,0:0|0:0|0:0,0:0:0:0:
258,218,6979,6,0,P|270:170|257:122,1,90,2|0,0:0|0:0,0:0:0:0:
180,263,7417,1,8,0:0:0:0:
260,307,7636,1,0,0:0:0:0:
183,170,7855,2,0,L|83:106,1,90,2|0,0:0|0:0,0:0:0:0:
99,302,8293,2,0,L|194:255,1,90,8|0,0:0|0:0,0:0:0:0:
200,253,8621,1,0,0:0:0:0:
220,243,8731,6,0,P|256:203|261:140,1,90,2|0,0:0|0:0,0:0:0:0:
101,209,9169,2,0,L|20:249,1,90,8|0,0:0|0:0,0:0:0:0:
107,121,9607,2,0,L|208:187,1,90,2|0,0:0|0:0,0:0:0:0:
29,155,10045,2,0,L|35:34,1,90,8|0,0:0|0:0,0:0:0:0:
258,130,10484,6,0,P|268:175|246:229,1,90,2|0,0:0|0:0,0:0:0:0:
99,302,10921,1,8,0:0:0:0:
182,170,11140,1,0,0:0:0:0:
260,307,11359,2,0,P|233:337|168:355,1,90,2|0,0:0|0:0,0:0:0:0:
258,218,11797,1,8,0:0:0:0:
336,261,12016,1,0,0:0:0:0:
180,263,12235,6,0,P|169:207|195:155,1,90,2|0,0:0|0:0,0:0:0:0:
335,85,12673,1,8,0:0:0:0:
412,216,12892,1,0,0:0:0:0:
258,130,13111,2,0,L|182:80,1,90,2|0,0:0|0:0,0:0:0:0:
101,209,13549,1,8,0:0:0:0:
182,170,13768,1,0,0:0:0:0:
33,65,13987,6,0,L|27:176,1,90,2|0,0:0|0:0,0:0:0:0:
175,260,14424,1,8,0:0:0:0:
107,121,14644,1,0,0:0:0:0:
99,302,14863,2,0,P|126:332|198:344,1,90,2|0,0:0|0:0,0:0:0:0:
258,218,15301,1,8,0:0:0:0:
258,218,15411,1,0,0:0:0:0:
258,218,15520,1,0,0:0:0:0:
107,121,15739,5,2,0:0:0:0:
175,260,15958,1,0,0:0:0:0:
338,176,16176,2,0,L|417:134,1,90,8|0,0:0|0:0,0:0:0:0:
410,315,16615,1,2,0:0:0:0:
258,218,16834,1,0,0:0:0:0:
414,227,17053,1,8,0:0:0:0:
336,266,17272,1,0,0:0:0:0:
341,86,17490,6,0,P|375:53|439:46,1,90,2|0,0:0|0:0,0:0:0:0:
438,45,17819,1,0,0:0:0:0:
459,52,17929,2,0,P|491:80|510:131,1,90,8|0,0:0|0:0,0:0:0:0:
486,276,18367,1,2,0:0:0:0:
336,266,18586,1,0,0:0:0:0:
417,134,18805,1,8,0:0:0:0:
414,227,19024,1,0,0:0:0:0:
258,130,19243,6,0,L|181:78,1,90,2|0,0:0|0:0,0:0:0:0:
101,209,19680,2,0,L|181:169,1,90,8|0,0:0|0:0,0:0:0:0:
33,65,20119,1,2,0:0:0:0:
20,248,20338,1,0,0:0:0:0:
107,121,20556,1,8,0:0:0:0:
27,157,20775,1,0,0:0:0:0:
175,260,20994,6,0,P|230:246|265:204,1,90,2|0,0:0|0:0,0:0:0:0:
261,42,21432,1,8,0:0:0:0:
181,169,21651,1,0,0:0:0:0:
341,86,21870,1,2,0:0:0:0:
183,79,22089,1,0,0:0:0:0:
336,266,22308,1,12,0:0:0:0:
417,134,22527,1,0,0:0:0:0:
417,134,22637,1,0,0:0:0:0:
417,134,22746,6,0,P|430:81|410:28,1,90,2|0,0:0|0:0,0:0:0:0:
261,42,23184,2,0,L|163:89,1,90,8|0,0:0|0:0,0:0:0:0:
338,176,23621,2,0,L|417:134,1,90,2|0,0:0|0:0,0:0:0:0:
258,130,24059,2,0,P|247:169|262:226,1,90,8|0,0:0|0:0,0:0:0:0:
416,221,24497,6,0,P|463:208|493:182,1,67.5000025749208,6|0,0:0|0:0,0:0:0:0:
417,134,24935,2,0,P|370:147|340:173,1,67.5000025749208
323,240,25373,2,0,B|308:286|374:299|336:360,2,101.250003862381,2|0|0,0:0|0:0|0:0,0:0:0:0:
417,134,26250,6,0,P|454:189|462:262,1,135.000005149842,2|2,0:0|0:0,0:0:0:0:
387,300,26906,1,0,0:0:0:0:
323,240,27125,2,0,L|277:169,1,67.5000025749208
198,193,27563,2,0,L|244:264,1,67.5000025749208,2|0,0:0|0:0,0:0:0:0:
371,166,28001,6,0,L|325:96,1,67.5000025749208,2|0,0:0|0:0,0:0:0:0:
249,126,28439,2,0,L|286:183,1,67.5000025749208,2|0,0:0|0:0,0:0:0:0:
415,239,28878,2,0,P|450:198|456:169,1,67.5000025749208,2|0,0:0|0:0,0:0:0:0:
461,98,29316,2,0,L|461:26,1,67.5000025749208,2|0,0:0|0:0,0:0:0:0:
305,42,29754,6,0,P|273:51|245:77,1,67.5000025749208,2|0,0:0|0:0,0:0:0:0:
304,208,30192,1,2,0:0:0:0:
312,120,30411,1,0,0:0:0:0:
232,156,30629,2,0,L|163:188,1,67.5000025749208,2|0,0:0|0:0,0:0:0:0:
94,304,31067,1,2,0:0:0:0:
94,304,31505,6,0,L|149:361,1,67.5000025749208,2|0,0:0|0:0,0:0:0:0:
181,274,31943,2,0,L|248:314,1,67.5000025749208,2|0,0:0|0:0,0:0:0:0:
259,223,32381,2,0,L|335:244,1,67.5000025749208,2|0,0:0|0:0,0:0:0:0:
316,153,32819,2,0,L|395:154,1,67.5000025749208,2|0,0:0|0:0,0:0:0:0:
310,31,33257,6,0,P|272:36|229:67,1,67.5000025749208,2|0,0:0|0:0,0:0:0:0:
215,132,33695,1,2,0:0:0:0:
302,117,33914,1,0,0:0:0:0:
162,64,34133,1,2,0:3:0:0:
93,118,34352,1,2,0:3:0:0:
146,187,34571,1,2,0:3:0:0:
215,132,34790,1,0,0:0:0:0:
80,34,35008,6,0,P|43:49|18:79,1,67.5000025749208,2|2,0:0|0:3,0:0:0:0:
93,118,35446,2,0,P|61:143|45:178,1,67.5000025749208,2|2,0:0|0:3,0:0:0:0:
131,196,35884,2,0,P|107:227|101:266,1,67.5000025749208,2|2,0:0|0:3,0:0:0:0:
102,274,36213,1,2,0:3:0:0:
111,292,36323,1,2,0:0:0:0:
278,244,36542,1,0,0:0:0:0:
219,176,36761,5,2,0:0:0:0:
191,263,36979,1,0,0:0:0:0:
365,230,37198,2,0,L|409:222,4,33.7500012874604
331,72,37856,5,0,0:0:0:0:
219,176,38074,1,2,0:0:0:0:
219,176,38513,5,2,0:0:0:0:
331,72,38732,1,0,0:0:0:0:
158,112,38951,1,8,0:0:0:0:
309,154,39170,1,0,0:0:0:0:
187,25,39389,1,2,0:0:0:0:
132,196,39607,1,0,0:0:0:0:
245,89,39827,2,0,L|144:115,1,90,8|0,0:0|0:0,0:0:0:0:
105,284,40265,5,2,0:0:0:0:
219,176,40484,1,0,0:0:0:0:
44,214,40702,1,8,0:0:0:0:
195,262,40921,1,0,0:0:0:0:
157,111,41140,2,0,P|110:111|67:135,1,90,2|0,0:0|0:0,0:0:0:0:
60,149,41469,1,0,0:0:0:0:
52,169,41578,1,8,0:0:0:0:
105,284,41797,2,0,L|151:345,1,45
171,348,42016,6,0,P|219:347|269:308,1,90,2|0,0:0|0:0,0:0:0:0:
219,176,42454,2,0,L|189:280,1,90,8|0,0:0|0:0,0:0:0:0:
341,304,42892,2,0,L|371:205,1,90,2|0,0:0|0:0,0:0:0:0:
363,195,43221,1,0,0:0:0:0:
355,173,43330,1,8,0:0:0:0:
245,89,43549,1,0,0:0:0:0:
254,326,43768,5,2,0:0:0:0:
428,281,43987,1,0,0:0:0:0:
278,244,44206,1,0,0:0:0:0:
341,304,44425,1,0,0:0:0:0:
303,155,44644,1,0,0:0:0:0:
190,263,44863,2,0,L|299:239,1,90,0|8,0:0|0:0,0:0:0:0:
368,219,45301,1,0,0:0:0:0:
244,87,45520,5,2,0:0:0:0:
132,196,45739,1,0,0:0:0:0:
303,155,45958,1,8,0:0:0:0:
157,111,46177,1,0,0:0:0:0:
277,243,46396,2,0,L|368:328,1,90,2|0,0:0|0:0,0:0:0:0:
190,263,46833,2,0,L|225:160,1,90,8|0,0:0|0:0,0:0:0:0:
392,132,47272,6,0,L|367:222,1,90,2|0,0:0|0:0,0:0:0:0:
244,87,47709,1,8,0:0:0:0:
418,47,47929,1,0,0:0:0:0:
303,155,48147,2,0,P|261:174|201:165,1,90,2|0,0:0|0:0,0:0:0:0:
197,161,48476,1,0,0:0:0:0:
179,146,48586,2,0,L|148:59,1,90,8|0,0:0|0:0,0:0:0:0:
330,71,49023,6,0,P|387:136|361:218,1,180,6|8,0:0|0:0,0:0:0:0:
190,263,49681,1,0,0:0:0:0:
303,155,49900,2,0,P|400:140|448:219,1,180,2|8,0:0|0:0,0:0:0:0:
336,304,50556,1,0,0:0:0:0:
214,172,50775,6,0,L|248:72,1,90
277,243,51213,1,8,0:0:0:0:
132,196,51432,1,0,0:0:0:0:
303,155,51651,1,2,0:0:0:0:
254,326,51870,1,0,0:0:0:0:
157,111,52089,2,0,L|182:19,1,90,8|0,0:0|0:0,0:0:0:0:
392,132,52527,5,2,0:0:0:0:
277,243,52746,1,0,0:0:0:0:
330,71,52965,1,8,0:0:0:0:
476,114,53184,1,0,0:0:0:0:
303,155,53403,2,0,L|212:172,1,90,2|0,0:0|0:0,0:0:0:0:
336,304,53840,1,8,0:0:0:0:
330,71,54059,1,2,0:0:0:0:
327,317,54498,5,2,0:0:0:0:
244,87,54717,1,4,0:0:0:0:
244,87,55154,5,0,0:0:0:0:
214,171,55373,1,0,0:0:0:0:
303,155,55593,2,0,P|330:108|332:71,1,90
157,111,56031,6,0,P|131:173|168:240,1,135,2|0,0:0|0:0,0:0:0:0:
232,249,56469,6,0,L|352:249,1,90,12|0,0:0|0:0,0:0:0:0:
392,132,56907,1,2,0:0:0:0:
303,155,57125,1,0,0:0:0:0:
460,192,57345,1,8,0:0:0:0:
330,71,57563,6,0,P|255:84|217:180,1,180
367,218,58221,1,8,0:0:0:0:
476,114,58440,1,0,0:0:0:0:
303,155,58659,2,0,L|212:173,1,90,2|0,0:0|0:0,0:0:0:0:
344,298,59097,1,8,0:0:0:0:
367,218,59316,1,0,0:0:0:0:
190,263,59534,6,0,L|102:288,1,90,2|0,0:0|0:0,0:0:0:0:
61,139,59973,1,8,0:0:0:0:
209,177,60192,1,0,0:0:0:0:
38,224,60411,1,2,0:0:0:0:
145,119,60629,1,0,0:0:0:0:
279,238,60848,2,0,P|279:286|252:332,1,90,8|0,0:0|0:0,0:0:0:0:
209,177,61286,5,2,0:0:0:0:
360,221,61505,1,0,0:0:0:0:
189,264,61724,2,0,L|208:176,1,90,8|0,0:0|0:0,0:0:0:0:
385,138,62162,1,2,0:0:0:0:
332,310,62381,1,0,0:0:0:0:
299,159,62600,1,8,0:0:0:0:
360,221,62819,1,0,0:0:0:0:
189,264,63038,6,0,P|125:204|143:115,1,180,6|8,0:0|0:0,0:0:0:0:
208,176,63694,1,0,0:0:0:0:
119,333,63914,2,0,L|10:333,1,90,2|0,0:0|0:0,0:0:0:0:
55,138,64352,1,8,0:0:0:0:
189,264,64570,1,0,0:0:0:0:
38,224,64790,6,0,L|143:197,1,90,2|0,0:0|0:0,0:0:0:0:
300,156,65227,1,8,0:0:0:0:
254,330,65447,1,0,0:0:0:0:
208,176,65665,2,0,P|210:125|250:76,1,90,2|0,0:0|0:0,0:0:0:0:
385,138,66103,2,0,P|383:189|343:238,1,90,8|0,0:0|0:0,0:0:0:0:
189,264,66542,6,0,P|124:206|139:119,1,180,2|8,0:0|0:0,0:0:0:0:
234,90,67199,1,0,0:0:0:0:
360,221,67418,1,2,0:0:0:0:
208,176,67637,1,0,0:0:0:0:
321,73,67856,2,0,L|443:53,1,90,8|0,0:0|0:0,0:0:0:0:
360,221,68293,6,0,L|271:235,1,90,2|0,0:0|0:0,0:0:0:0:
234,90,68732,1,8,0:0:0:0:
297,154,68951,1,0,0:0:0:0:
183,255,69169,2,0,L|214:170,1,90,2|0,0:0|0:0,0:0:0:0:
330,309,69607,2,0,P|292:327|223:317,1,90,8|0,0:0|0:0,0:0:0:0:
126,183,70046,6,0,P|159:99|246:86,1,180,2|8,0:0|0:0,0:0:0:0:
271,238,70702,2,0,L|213:169,1,90,0|2,0:0|0:0,0:0:0:0:
321,73,71140,1,0,0:0:0:0:
445,202,71359,2,0,L|413:306,1,90,8|0,0:0|0:0,0:0:0:0:
240,321,71797,6,0,P|200:292|183:248,1,90,2|0,0:0|0:0,0:0:0:0:
234,90,72235,1,8,0:0:0:0:
271,238,72454,1,0,0:0:0:0:
145,105,72673,2,0,P|154:49|183:15,1,90,2|0,0:0|0:0,0:0:0:0:
297,154,73111,1,8,0:0:0:0:
213,169,73330,1,0,0:0:0:0:
321,73,73549,6,0,P|363:102|382:153,1,90,2|0,0:0|0:0,0:0:0:0:
271,236,73986,2,0,P|275:185|309:143,1,90,8|0,0:0|0:0,0:0:0:0:
445,202,74424,2,0,P|398:223|345:214,1,90,2|0,0:0|0:0,0:0:0:0:
465,114,74863,1,8,0:0:0:0:
504,261,75082,1,0,0:0:0:0:
379,136,75301,6,0,L|299:58,1,90,2|0,0:0|0:0,0:0:0:0:
275,248,75738,2,0,L|355:326,1,90,8|0,0:0|0:0,0:0:0:0:
443,198,76176,2,0,L|363:120,1,90,2|0,0:0|0:0,0:0:0:0:
210,175,76615,1,8,0:0:0:0:
210,175,77053,6,0,P|182:218|181:273,1,90,2|0,0:0|0:0,0:0:0:0:
292,154,77490,2,0,L|220:80,1,90,8|0,0:0|0:0,0:0:0:0:
51,123,77928,2,0,L|123:197,1,90,2|0,0:0|0:0,0:0:0:0:
275,248,78367,2,0,P|323:245|366:215,1,90,8|0,0:0|0:0,0:0:0:0:
146,105,78805,5,2,0:0:0:0:
177,255,79023,1,0,0:0:0:0:
234,87,79243,2,0,B|144:105,1,90,8|0,0:0|0:0,0:0:0:0:
237,322,79681,2,0,L|349:302,1,90,2|0,0:0|0:0,0:0:0:0:
297,155,80118,2,0,L|258:261,1,90,8|0,0:0|0:0,0:0:0:0:
499,277,80556,5,2,0:0:0:0:
355,224,80775,1,0,0:0:0:0:
473,359,80994,1,8,0:0:0:0:
438,210,81213,1,0,0:0:0:0:
237,322,81432,2,0,L|351:362,1,90,2|0,0:0|0:0,0:0:0:0:
355,224,81870,1,8,0:0:0:0:
211,170,82089,1,0,0:0:0:0:
211,170,82199,1,0,0:0:0:0:
211,170,82308,6,0,P|160:166|123:182,1,90,2|0,0:0|0:0,0:0:0:0:
177,255,82746,1,0,0:0:0:0:
266,239,82965,1,0,0:0:0:0:
155,96,83184,1,10,0:0:0:0:
91,264,83403,1,0,0:0:0:0:
91,264,83513,1,0,0:0:0:0:
91,264,83622,1,8,0:0:0:0:
237,322,83841,1,0,0:0:0:0:
124,180,84059,6,0,L|48:84,1,90,6|0,0:0|0:0,0:0:0:0:
243,76,84497,2,0,L|326:163,1,90,8|0,0:0|0:0,0:0:0:0:
177,255,84936,2,0,P|132:271|68:253,1,90,2|0,0:0|0:0,0:0:0:0:
211,170,85374,1,8,0:0:0:0:
211,170,85483,1,0,0:0:0:0:
211,170,85593,1,0,0:0:0:0:
237,322,85811,6,0,L|143:344,1,90,2|0,0:0|0:0,0:0:0:0:
124,180,86250,2,0,P|131:134|162:97,1,90,8|0,0:0|0:0,0:0:0:0:
178,92,86578,1,0,0:0:0:0:
200,87,86688,2,0,L|307:87,1,90,2|0,0:0|0:0,0:0:0:0:
416,174,87126,1,8,0:0:0:0:
177,255,87345,1,4,0:0:0:0:
256,192,87454,12,0,89097,0:0:0:0:
