osu file format v14

[General]
AudioFilename: audio.mp3
AudioLeadIn: 0
PreviewTime: 591
Countdown: 1
SampleSet: Soft
StackLeniency: 0.7
Mode: 3
LetterboxInBreaks: 0
SpecialStyle: 0
WidescreenStoryboard: 0

[Editor]
Bookmarks: -53
DistanceSpacing: 1.3
BeatDivisor: 4
GridSize: 4
TimelineZoom: 2.4

[Metadata]
Title:Violet Snow
TitleUnicode:Violet Snow
Artist:Yuuki Aira
ArtistUnicode:結城アイラ
Creator:chuuwon
Version:feelings?
Source:ヴァイオレット・エヴァーガーデン
Tags:Violet Evergarden Anime Japanese Ayyri eiri-
BeatmapID:1917855
BeatmapSetID:918411

[Difficulty]
HPDrainRate:6
CircleSize:4
OverallDifficulty:8
ApproachRate:5
SliderMultiplier:1.7
SliderTickRate:1

[Events]
//Background and Video events
0,0,"800950.png",0,0
//Break Periods
//Storyboard Layer 0 (Background)
//Storyboard Layer 1 (Fail)
//Storyboard Layer 2 (Pass)
//Storyboard Layer 3 (Foreground)
//Storyboard Layer 4 (Overlay)
//Storyboard Sound Samples

[TimingPoints]
753,645.161290322581,4,2,1,80,1,0
15591,701.582067562353,4,2,1,80,1,0
16292,626.363645853995,4,2,1,80,1,0
18171,645.161290322581,4,2,1,80,1,0
22687,693.160813308688,4,2,1,80,1,0
24073,764.331210191083,4,2,1,80,1,0
24455,962.093515489706,4,2,1,80,1,0
24695,731.707317073171,4,2,1,80,1,0
24877,882.352941176471,4,2,1,80,1,0
25595,1229.81060916619,4,2,1,80,1,0
26209,1518.98734177215,4,2,1,80,1,0
26588,2000,4,2,1,80,1,0
27088,750,4,2,1,80,1,0

[HitObjects]
64,192,753,5,2,0:0:0:0:
448,192,753,1,6,0:0:0:0:
192,192,1075,1,0,0:0:0:0:
448,192,1398,1,0,0:0:0:0:
64,192,1720,1,0,0:0:0:0:
448,192,2043,128,0,3333:0:0:0:0:
192,192,2043,1,0,0:0:0:0:
192,192,3333,1,2,0:0:0:0:
64,192,3333,1,6,0:0:0:0:
320,192,3656,1,0,0:0:0:0:
64,192,3978,1,0,0:0:0:0:
320,192,4301,1,0,0:0:0:0:
448,192,4623,1,6,0:0:0:0:
64,192,4623,128,2,4946:0:0:0:0:
320,192,4946,128,0,5269:0:0:0:0:
448,192,5269,1,6,0:0:0:0:
64,192,5269,1,2,0:0:0:0:
64,192,5591,1,0,0:0:0:0:
448,192,5914,128,2,6882:0:0:0:0:
320,192,5914,1,0,0:0:0:0:
64,192,6882,128,0,7204:0:0:0:0:
192,192,7204,128,0,7527:0:0:0:0:
320,192,7527,128,0,7849:0:0:0:0:
64,192,7849,1,2,0:0:0:0:
448,192,7849,1,2,0:0:0:0:
192,192,7849,128,0,8172:0:0:0:0:
64,192,8172,128,0,8494:0:0:0:0:
448,192,8494,1,6,0:0:0:0:
320,192,8494,1,0,0:0:0:0:
192,192,8817,1,0,0:0:0:0:
320,192,9140,1,0,0:0:0:0:
64,192,9462,128,0,9623:0:0:0:0:
448,192,9623,128,0,9785:0:0:0:0:
192,192,9785,128,2,10430:0:0:0:0:
448,192,10430,1,0,0:0:0:0:
64,192,10753,128,0,10914:0:0:0:0:
320,192,10914,128,0,11075:0:0:0:0:
448,192,11075,1,6,0:0:0:0:
192,192,11075,1,2,0:0:0:0:
320,192,11398,1,0,0:0:0:0:
192,192,11720,1,2,0:0:0:0:
64,192,11720,1,0,0:0:0:0:
64,192,12043,1,2,0:0:0:0:
320,192,12043,128,2,12688:0:0:0:0:
448,192,12043,1,0,0:0:0:0:
64,192,12688,1,0,0:0:0:0:
192,192,13011,1,0,0:0:0:0:
320,192,13333,1,0,0:0:0:0:
448,192,13656,128,4,14301:0:0:0:0:
192,192,13656,1,2,0:0:0:0:
64,192,13656,1,0,0:0:0:0:
320,192,13978,1,0,0:0:0:0:
64,192,14301,1,0,0:0:0:0:
448,192,14623,1,0,0:0:0:0:
320,192,14623,128,0,14785:0:0:0:0:
64,192,14785,128,0,14946:0:0:0:0:
192,192,14946,1,2,0:0:0:0:
448,192,14946,128,6,15591:0:0:0:0:
64,192,15269,1,0,0:0:0:0:
192,192,15591,128,2,15941:0:0:0:0:
448,192,15941,128,0,16292:0:0:0:0:
64,192,16292,1,6,0:0:0:0:
192,192,16292,1,0,0:0:0:0:
192,192,16605,1,0,0:0:0:0:
448,192,16918,1,0,0:0:0:0:
192,192,17231,128,0,17388:0:0:0:0:
448,192,17388,128,0,17544:0:0:0:0:
320,192,17544,1,6,0:0:0:0:
64,192,17544,128,2,18171:0:0:0:0:
448,192,17857,1,0,0:0:0:0:
320,192,18171,128,6,18493:0:0:0:0:
192,192,18171,1,0,0:0:0:0:
448,192,18493,1,0,0:0:0:0:
64,192,18493,128,0,18654:0:0:0:0:
192,192,18654,1,0,0:0:0:0:
320,192,18654,128,0,18816:0:0:0:0:
448,192,18816,1,6,0:0:0:0:
64,192,18816,128,2,19138:0:0:0:0:
320,192,19138,1,0,0:0:0:0:
64,192,19461,1,2,0:0:0:0:
448,192,19461,128,0,20106:0:0:0:0:
320,192,19783,1,0,0:0:0:0:
192,192,20106,1,0,0:0:0:0:
64,192,20106,128,6,20751:0:0:0:0:
448,192,20429,1,0,0:0:0:0:
320,192,20751,128,0,21396:0:0:0:0:
192,192,21074,1,0,0:0:0:0:
448,192,21396,1,2,0:0:0:0:
64,192,21396,128,0,21719:0:0:0:0:
192,192,21719,128,2,22041:0:0:0:0:
448,192,22041,128,2,22364:0:0:0:0:
64,192,22364,1,0,0:0:0:0:
448,192,22687,1,6,0:0:0:0:
64,192,22687,128,2,23033:0:0:0:0:
192,192,23033,128,0,23380:0:0:0:0:
448,192,23380,128,2,24073:0:0:0:0:
64,192,24073,1,0,0:0:0:0:
192,192,24455,1,0,0:0:0:0:
448,192,24695,1,0,0:0:0:0:
64,192,24695,128,0,24877:0:0:0:0:
320,192,24877,128,0,25097:0:0:0:0:
448,192,25097,128,0,25318:0:0:0:0:
64,192,25097,1,0,0:0:0:0:
64,192,25318,128,0,25595:0:0:0:0:
320,192,25595,128,0,25902:0:0:0:0:
64,192,25902,128,0,26209:0:0:0:0:
448,192,26209,128,0,26588:0:0:0:0:
192,192,26588,1,0,0:0:0:0:
448,192,27088,1,2,0:0:0:0:
64,192,27134,1,2,0:0:0:0:
320,192,27181,128,6,31588:0:0:0:0:
