osu file format v14

[General]
AudioFilename: audio.ogg
AudioLeadIn: 0
PreviewTime: 738
Countdown: 0
SampleSet: Normal
StackLeniency: 0.3
Mode: 1
LetterboxInBreaks: 0
WidescreenStoryboard: 1

[Editor]
Bookmarks: 5914
DistanceSpacing: 1.5
BeatDivisor: 8
GridSize: 32
TimelineZoom: 1.550003

[Metadata]
Title:Violet Snow (Short Ver.)
TitleUnicode:Violet Snow (Short Ver.)
Artist:Yuuki Aira
ArtistUnicode:結城アイラ
Creator:k a t a g i r i
Version:Emotions..
Source:ヴァイオレット・エヴァーガーデン
Tags:classical piano english OST Violet Evergarden kyoto animation 京都アニメーション kyoani 京アニ Original Soundtrack sound track cut ver version edit ed ending episode 13 ep13 female vocalist vocals automemories evan call laca-9574 albionshallah randelman4ik katagiri k_a_t_a_g_i_r_i
BeatmapID:3845465
BeatmapSetID:1869070

[Difficulty]
HPDrainRate:10
CircleSize:7
OverallDifficulty:2.5
ApproachRate:10
SliderMultiplier:1.4
SliderTickRate:1

[Events]
//Background and Video events
0,0,"bg.jpg",0,-60
//Break Periods
//Storyboard Layer 0 (Background)
//Storyboard Layer 1 (Fail)
//Storyboard Layer 2 (Pass)
//Storyboard Layer 3 (Foreground)
//Storyboard Layer 4 (Overlay)
//Storyboard Sound Samples

[TimingPoints]
746,650.406504065041,4,1,0,35,1,0
746,-92.25,4,1,0,35,0,0
3347,612.244897959184,4,1,0,35,1,0
3347,-98,4,1,0,35,0,0
3959,652.173913043478,4,1,0,35,1,8
3959,-92,4,1,0,35,0,8
4611,647.598488936859,4,1,0,35,1,8
4611,-92.65,4,1,0,35,0,8
5906,644.738397395257,4,1,0,35,1,0
5906,-93.061,4,1,0,35,0,0
15584,681.818181818182,4,1,0,35,1,8
15584,-88,4,1,0,35,0,8
16270,639.720229019842,4,1,0,50,1,0
16270,-93.791,4,1,0,50,0,0
16909,638.297872340426,4,1,0,50,1,8
16909,-93.9999999999999,4,1,0,50,0,8
17547,606.060606060606,4,1,0,50,1,8
17547,-99,4,1,0,50,0,8
18177,645.161290322581,4,1,0,50,1,8
18177,-93,4,1,0,50,0,8
18822,652.883569096844,4,1,0,50,1,0
18822,-91.9000000000001,4,1,0,50,0,0
21433,652.883569096844,4,1,0,50,1,8
21433,-91.9000000000001,4,1,0,50,0,8
21436,620.15503875969,4,1,0,50,1,0
21436,-96.75,4,1,0,50,0,0
22693,693.161290322581,4,1,0,50,1,8
22693,-86.5599404318689,4,1,0,50,0,8
24066,764.331210191083,4,1,0,40,1,0
24066,-78.5,4,1,0,40,0,0
24461,962.1,4,1,0,40,1,8
24461,-62.363579669473,4,1,0,40,0,8
24701,731.707317073171,4,1,0,40,1,8
24701,-82,4,1,0,40,0,8
24883,882.352941176471,4,1,0,40,1,8
24883,-68,4,1,0,40,0,8
25324,1111.11111111111,4,1,0,40,1,8
25324,-54.0000000000001,4,1,0,40,0,8
25601,1229.80000000001,4,1,0,40,1,8
25601,-48.7884208814437,4,1,0,40,0,8
26215,1518.98734177215,4,1,0,40,1,8
26215,-39.5000000000001,4,1,0,40,0,8
26594,2068.96551724138,4,1,0,40,1,8
26594,-29,4,1,0,40,0,8
27194,666.666666666667,4,1,0,40,1,0
27194,-90,4,1,0,40,0,0
27487,-90.0900900900901,4,1,0,20,0,0
27820,-90.0900900900901,4,1,0,17,0,0
28154,-90.0900900900901,4,1,0,14,0,0
28487,-90.0900900900901,4,1,0,11,0,0
28820,-90.0900900900901,4,1,0,8,0,0
29154,-90.0900900900901,4,1,0,5,0,0

[Colours]
Combo1 : 117,0,0
Combo2 : 255,255,89
Combo3 : 23,139,255
Combo4 : 21,255,80

[HitObjects]
160,192,746,5,0,0:0:0:0:
352,192,1071,1,8,0:0:0:0:
352,192,1396,1,8,0:0:0:0:
352,192,1721,1,8,0:0:0:0:
160,192,2046,1,0,0:0:0:0:
160,192,3347,1,8,0:0:0:0:
352,192,3653,1,8,0:0:0:0:
352,192,3959,1,0,0:0:0:0:
352,192,4285,1,0,0:0:0:0:
160,192,4611,1,8,0:0:0:0:
352,192,5258,1,8,0:0:0:0:
160,192,5906,1,0,0:0:0:0:
160,192,6873,1,0,0:0:0:0:
352,192,7195,1,8,0:0:0:0:
352,192,7517,1,8,0:0:0:0:
160,192,7840,1,0,0:0:0:0:
352,192,8162,1,8,0:0:0:0:
160,192,8484,1,0,0:0:0:0:
352,192,9129,1,8,0:0:0:0:
160,192,9452,1,0,0:0:0:0:
352,192,9613,1,8,0:0:0:0:
160,192,9774,1,0,0:0:0:0:
352,192,10419,1,8,0:0:0:0:
351,195,10741,1,8,0:0:0:0:
160,192,11063,1,0,0:0:0:0:
352,192,11386,1,8,0:0:0:0:
160,192,11547,1,0,0:0:0:0:
352,192,11708,1,8,0:0:0:0:
160,192,12031,1,0,0:0:0:0:
352,192,12675,1,8,0:0:0:0:
160,192,12998,1,0,0:0:0:0:
352,192,13320,1,0,0:0:0:0:
352,192,13642,1,8,0:0:0:0:
160,192,13965,1,0,0:0:0:0:
352,192,14287,1,8,0:0:0:0:
352,192,14609,1,8,0:0:0:0:
352,192,14771,1,8,0:0:0:0:
160,192,14932,1,0,0:0:0:0:
160,192,15254,1,0,0:0:0:0:
352,192,15584,1,8,0:0:0:0:
160,192,16270,1,0,0:0:0:0:
160,192,16589,1,0,0:0:0:0:
352,192,16909,1,8,0:0:0:0:
352,192,17228,1,0,0:0:0:0:
352,192,17387,1,0,0:0:0:0:
352,192,17547,1,8,0:0:0:0:
160,192,17850,1,0,0:0:0:0:
352,192,18177,1,8,0:0:0:0:
352,192,18822,1,8,0:0:0:0:
160,192,19148,1,0,0:0:0:0:
352,192,19474,1,8,0:0:0:0:
256,192,19801,1,8,0:0:0:0:
352,192,20127,1,0,0:0:0:0:
256,192,20290,1,0,0:0:0:0:
160,192,20454,1,8,0:0:0:0:
160,192,20780,1,0,0:0:0:0:
160,192,21436,1,0,0:0:0:0:
352,192,21746,1,8,0:0:0:0:
352,192,22056,1,8,0:0:0:0:
352,192,22366,1,8,0:0:0:0:
160,192,22693,1,0,0:0:0:0:
160,192,23039,1,0,0:0:0:0:
352,192,23386,1,8,0:0:0:0:
160,192,24066,1,0,0:0:0:0:
160,192,24461,1,0,0:0:0:0:
160,192,24701,1,0,0:0:0:0:
160,192,24883,1,0,0:0:0:0:
352,192,25103,1,8,0:0:0:0:
352,192,25324,1,8,0:0:0:0:
352,192,25601,1,0,0:0:0:0:
352,192,25908,1,0,0:0:0:0:
352,192,26215,1,8,0:0:0:0:
352,192,26594,1,8,0:0:0:0:
352,192,27194,1,8,0:0:0:0:
256,192,27527,12,0,31194,0:0:0:0:
