osu file format v14

[General]
AudioFilename: audio.ogg
AudioLeadIn: 0
PreviewTime: 738
Countdown: 0
SampleSet: Soft
StackLeniency: 0.3
Mode: 3
LetterboxInBreaks: 0
SpecialStyle: 0
WidescreenStoryboard: 1

[Editor]
Bookmarks: 5914
DistanceSpacing: 1.5
BeatDivisor: 2
GridSize: 32
TimelineZoom: 0.7999998

[Metadata]
Title:Violet Snow (Short Ver.)
TitleUnicode:Violet Snow (Short Ver.)
Artist:Yuuki Aira
ArtistUnicode:結城アイラ
Creator:K a t a g i r i
Version:Hard
Source:ヴァイオレット・エヴァーガーデン
Tags:classical piano english OST Violet Evergarden kyoto animation 京都アニメーション kyoani 京アニ Original Soundtrack sound track cut version edited ed ending episode 13 ep13 female vocalist vocals Automemories Evan Call LACA-9574 ML-ysg randelman4ik katagiri k_a_t_a_g_i_r_i
BeatmapID:3741821
BeatmapSetID:1800516

[Difficulty]
HPDrainRate:7.5
CircleSize:4
OverallDifficulty:7.5
ApproachRate:8
SliderMultiplier:1.4
SliderTickRate:1

[Events]
//Background and Video events
0,0,"bg.jpg",0,0
//Break Periods
//Storyboard Layer 0 (Background)
//Storyboard Layer 1 (Fail)
//Storyboard Layer 2 (Pass)
//Storyboard Layer 3 (Foreground)
//Storyboard Layer 4 (Overlay)
//Storyboard Sound Samples

[TimingPoints]
738,645.161290322581,4,2,1,35,1,0
4608,-100,4,2,1,40,0,0
5254,-100,4,2,1,45,0,0
15576,701.582352941175,4,2,1,50,1,8
15576,-91.9580268817205,4,2,1,50,0,0
16277,626.36129032258,4,2,1,50,1,0
16277,-103.001462365591,4,2,1,50,0,0
18156,645.161290322581,4,2,1,50,1,0
18156,-100,4,2,1,50,0,0
22672,693.161290322581,4,2,1,50,1,0
22672,-93.0752043010753,4,2,1,50,0,0
24058,764.331210191083,4,2,1,40,1,0
24058,-84.4086021505377,4,2,1,40,0,0
24440,962.1,4,2,1,40,1,8
24440,-67.0576129032258,4,2,1,40,0,0
24680,731.707317073171,4,2,1,40,1,8
24680,-88.1720430107527,4,2,1,40,0,0
24862,882.352941176471,4,2,1,40,1,8
24862,-73.1182795698925,4,2,1,40,0,0
25082,-73.1182795698925,4,2,1,40,0,0
25303,1111.11111111111,4,2,1,40,1,8
25303,-58.0645161290323,4,2,1,40,0,0
25580,1229.80000000001,4,2,1,40,1,0
25580,-52.4606677419355,4,2,1,40,0,0
25887,-52.4606677419355,4,2,1,40,0,0
26194,1518.98734177215,4,2,1,40,1,8
26194,-42.4731182795699,4,2,1,40,0,0
26573,2000,4,2,1,40,1,8
26573,-32.258064516129,4,2,1,40,0,0
27073,375,4,2,1,40,1,0
27073,-172.043010752688,4,2,1,40,0,0
27260,-172.043010752688,4,2,1,20,0,0
27823,-172.043010752688,4,2,1,17,0,0
28198,-172.043010752688,4,2,1,14,0,0
28573,-172.043010752688,4,2,1,11,0,0
28948,-172.043010752688,4,2,1,8,0,0
29323,-172.043010752688,4,2,1,5,0,0

[HitObjects]
64,192,738,5,0,0:0:0:60:
448,192,738,1,0,0:0:0:60:
192,192,1060,1,0,0:0:0:60:
320,192,1383,1,0,0:0:0:60:
448,192,1705,1,0,0:0:0:60:
192,192,2028,1,0,0:0:0:60:
64,192,2028,1,0,0:0:0:0:
192,192,3318,1,0,0:0:0:60:
320,192,3318,1,0,0:0:0:0:
448,192,3641,1,0,0:0:0:60:
64,192,3963,1,0,0:0:0:60:
320,192,4286,1,0,0:0:0:60:
192,192,4608,1,0,0:0:0:60:
448,192,4608,1,0,0:0:0:0:
320,192,4931,128,0,5254:0:0:0:60:
64,192,5254,1,0,0:0:0:60:
192,192,5254,128,0,5576:0:0:0:60:
448,192,5576,128,0,5899:0:0:0:60:
320,192,5899,1,0,0:0:0:60:
64,192,5899,128,0,6302:0:0:0:0:
192,192,6302,128,0,6867:0:0:0:0:
448,192,6867,1,0,0:0:0:60:
64,192,7189,1,0,0:0:0:60:
320,192,7512,128,0,7834:0:0:0:60:
448,192,7512,1,0,0:0:0:60:
64,192,7834,128,0,8157:0:0:0:60:
192,192,7834,1,0,0:0:0:60:
320,192,8157,1,0,0:0:0:60:
448,192,8157,128,0,8479:0:0:0:60:
64,192,8479,1,0,0:0:0:60:
192,192,8479,128,0,9125:0:0:0:60:
320,192,9125,1,0,0:0:0:60:
448,192,9447,128,0,9608:0:0:0:60:
64,192,9608,128,0,9770:0:0:0:0:
192,192,9770,1,0,0:0:0:60:
320,192,9770,128,0,10092:0:0:0:60:
448,192,10415,1,0,0:0:0:60:
64,192,10738,1,0,0:0:0:60:
192,192,10899,1,0,0:0:0:0:
320,192,11060,128,0,11383:0:0:0:60:
448,192,11060,1,0,0:0:0:60:
64,192,11383,1,0,0:0:0:60:
192,192,11544,128,0,11867:0:0:0:0:
448,192,11705,1,0,0:0:0:60:
64,192,12028,1,0,0:0:0:60:
320,192,12028,1,0,0:0:0:0:
448,192,12673,128,0,12996:0:0:0:60:
64,192,12996,128,0,13318:0:0:0:60:
320,192,13318,128,0,13641:0:0:0:60:
64,192,13641,1,0,0:0:0:60:
192,192,13641,128,0,14286:0:0:0:60:
448,192,13963,1,0,0:0:0:60:
64,192,14286,1,0,0:0:0:60:
320,192,14608,1,0,0:0:0:60:
448,192,14608,128,0,14931:0:0:0:0:
64,192,14931,128,0,15254:0:0:0:60:
192,192,14931,1,0,0:0:0:60:
448,192,15254,1,0,0:0:0:60:
320,192,15576,1,0,0:0:0:60:
192,192,15926,128,0,16277:0:0:0:0:
64,192,16277,1,0,0:0:0:60:
448,192,16277,128,0,16590:0:0:0:60:
320,192,16590,1,0,0:0:0:70:
192,192,16903,1,0,0:0:0:60:
64,192,17216,128,0,17529:0:0:0:60:
448,192,17216,1,0,0:0:0:60:
192,192,17529,1,0,0:0:0:60:
320,192,17529,128,0,17842:0:0:0:60:
64,192,17842,1,0,0:0:0:60:
320,192,18156,1,0,0:0:0:60:
448,192,18156,1,0,0:0:0:60:
192,192,18156,1,0,0:0:0:0:
448,192,18478,128,0,18801:0:0:0:60:
64,192,18801,128,0,19123:0:0:0:60:
192,192,18801,1,0,0:0:0:60:
320,192,19123,128,0,19446:0:0:0:60:
64,192,19446,1,0,0:0:0:60:
192,192,19446,128,0,19768:0:0:0:60:
448,192,19768,128,0,19930:0:0:0:60:
64,192,20091,128,0,20575:0:0:0:60:
320,192,20091,1,0,0:0:0:60:
192,192,20414,1,0,0:0:0:60:
320,192,20736,128,0,21381:0:0:0:60:
448,192,20736,1,0,0:0:0:60:
64,192,21059,1,0,0:0:0:40:
192,192,21381,1,0,0:0:0:60:
448,192,21381,128,0,21704:0:0:0:60:
64,192,21704,1,0,0:0:0:60:
320,192,22026,1,0,0:0:0:60:
192,192,22349,1,0,0:0:0:60:
64,192,22672,1,0,0:0:0:60:
448,192,22672,128,0,23018:0:0:0:60:
192,192,23018,128,0,23365:0:0:0:60:
64,192,23365,128,0,23885:0:0:0:60:
320,192,23365,1,0,0:0:0:0:
320,192,24058,128,0,24440:0:0:0:40:
448,192,24058,1,0,0:0:0:40:
64,192,24440,1,0,0:0:0:40:
192,192,24440,128,0,25580:0:0:0:0:
448,192,24680,1,0,0:0:0:40:
64,192,24862,1,0,0:0:0:40:
320,192,25082,1,0,0:0:0:40:
448,192,25303,1,0,0:0:0:40:
64,192,25580,1,0,0:0:0:40:
320,192,25887,1,0,0:0:0:40:
192,192,26194,1,0,0:0:0:40:
448,192,26573,1,0,0:0:0:40:
320,192,27073,128,0,29323:0:0:0:40:
192,192,27166,128,0,30823:0:0:0:40:
