osu file format v14

[General]
AudioFilename: audio.mp3
AudioLeadIn: 0
PreviewTime: 753
Countdown: 0
SampleSet: Soft
StackLeniency: 0.3
Mode: 0
LetterboxInBreaks: 0
WidescreenStoryboard: 0

[Editor]
DistanceSpacing: 1.5
BeatDivisor: 4
GridSize: 4
TimelineZoom: 1.7

[Metadata]
Title:Violet Snow
TitleUnicode:Violet Snow
Artist:Yuuki Aira
ArtistUnicode:結城アイラ
Creator:-Mikan
Version:Amor
Source:ヴァイオレット・エヴァーガーデン
Tags:OST Violet Evergarden kyoto animation 京都アニメーション kyoani 京アニ Original Soundtrack Netflix cut ver edit
BeatmapID:1530240
BeatmapSetID:724279

[Difficulty]
HPDrainRate:5
CircleSize:4.2
OverallDifficulty:6
ApproachRate:8
SliderMultiplier:1
SliderTickRate:1

[Events]
//Background and Video events
0,0,"1488188818493.png",0,0
Video,0,"Violet Evergarden CM (convert-video-online.com).flv"
//Break Periods
//Storyboard Layer 0 (Background)
//Storyboard Layer 1 (Fail)
//Storyboard Layer 2 (Pass)
//Storyboard Layer 3 (Foreground)
//Storyboard Sound Samples

[TimingPoints]
753,645.161290322581,4,2,1,50,1,0
3172,-100,4,2,1,5,0,0
3333,-100,4,2,1,50,0,0
15591,701.582352941175,4,2,1,65,1,0
15941,-100,4,2,1,40,0,0
16292,626.36129032258,4,2,1,60,1,0
18171,645.161290322581,4,2,1,70,1,0
18171,-66.6666666666667,4,2,1,70,0,0
18493,-66.6666666666667,4,2,1,40,0,0
18816,-100,4,2,1,60,0,0
19138,-100,4,2,1,50,0,0
19461,-133.333333333333,4,2,1,55,0,0
19783,-133.333333333333,4,2,1,30,0,0
20106,-100,4,2,1,50,0,0
20429,-100,4,2,1,50,0,0
21074,-100,4,2,1,30,0,0
21396,-100,4,2,1,60,0,0
22687,693.161290322581,4,2,1,70,1,0
23033,-100,4,2,1,55,0,0
23380,-133.333333333333,4,2,1,40,0,0
23900,-100,4,2,1,5,0,0
24073,764.331210191083,4,2,1,65,1,0
24455,962.1,4,2,1,35,1,0
24695,731.707317073171,4,2,1,55,1,0
24877,882.352941176471,4,2,1,45,1,0
25318,1111.11111111111,4,2,1,35,1,0
25595,1229.80000000001,4,2,1,60,1,0
25902,-100,4,2,1,35,0,0
26209,1518.98734177215,4,2,1,65,1,0
26588,2000,4,2,1,51,1,0
27088,375,4,2,1,40,1,0
27275,-100,4,2,1,35,0,0
27791,-100,4,2,1,30,0,0
28306,-100,4,2,1,25,0,0
28775,-100,4,2,1,20,0,0
29713,-100,4,2,1,15,0,0
30172,-100,4,2,1,10,0,0
30744,-100,4,2,1,5,0,0

[Colours]
Combo1 : 117,0,0
Combo2 : 255,255,89
Combo3 : 23,139,255
Combo4 : 21,255,80

[HitObjects]
90,85,753,5,4,0:0:0:0:
34,185,1075,1,0,0:0:0:0:
90,263,1398,1,0,0:0:0:0:
31,322,1720,1,0,0:0:0:0:
87,371,2043,2,0,L|263:368,1,175,2|0,0:0|0:0,0:0:0:0:
277,361,3333,5,4,0:0:0:0:
335,265,3656,1,0,0:0:0:0:
285,191,3978,1,0,0:0:0:0:
344,132,4301,1,0,0:0:0:0:
284,86,4623,2,0,L|176:78,1,100,4|2,0:0|0:0,0:0:0:0:
144,25,5914,6,0,P|156:73|128:169,1,150,4|0,0:0|0:0,0:0:0:0:
70,229,7204,1,2,0:0:0:0:
92,310,7527,1,0,0:0:0:0:
179,335,7849,2,0,L|238:328,1,50,2|0,0:2|0:0,0:0:0:0:
320,325,8494,6,0,P|316:256|320:216,1,100,4|2,0:0|0:0,0:0:0:0:
424,156,9462,1,2,0:0:0:0:
408,165,9623,1,0,0:0:0:0:
392,176,9785,2,0,P|389:126|394:76,1,100,4|2,0:0|0:0,0:0:0:0:
495,81,10753,6,0,L|466:93,1,25,2|0,0:0|0:0,0:0:0:0:
318,58,11075,2,0,P|333:28|361:10,1,50,2|0,0:0|0:0,0:0:0:0:
394,76,11720,1,2,0:0:0:0:
327,135,12043,2,0,P|279:132|242:91,1,100,4|2,0:0|0:0,0:0:0:0:
156,55,13011,5,2,0:0:0:0:
107,121,13333,1,0,0:0:0:0:
148,238,13656,6,0,L|156:189,1,50,4|0,0:0|0:0,0:0:0:0:
224,247,14301,2,0,L|232:297,1,50,2|0,0:0|0:0,0:0:0:0:
303,214,14946,5,4,0:0:0:0:
238,160,15269,1,0,0:0:0:0:
156,189,15591,1,4,0:0:0:0:
256,64,15941,5,0,0:0:0:0:
156,189,16292,5,4,0:0:0:0:
238,160,16605,1,0,0:0:0:0:
303,214,16918,1,2,0:0:0:0:
228,272,17231,2,0,P|224:254|224:242,1,25,2|0,0:0|0:0,0:0:0:0:
337,132,17544,5,4,0:0:0:0:
386,213,17857,1,0,0:0:0:0:
346,297,18171,2,0,P|313:271|295:227,1,75.0000028610231,4|0,0:0|0:0,0:0:0:0:
435,292,18816,5,4,0:0:0:0:
364,376,19138,1,2,0:0:0:0:
251,354,19461,2,0,P|235:337|228:320,1,37.5000014305115,4|2,0:0|0:0,0:0:0:0:
116,180,20106,5,4,0:0:0:0:
133,266,20429,1,0,0:0:0:0:
149,354,20751,1,2,0:0:0:0:
215,239,21074,5,0,0:0:0:0:
66,316,21396,5,4,0:0:0:0:
86,222,21719,1,0,0:0:0:0:
103,128,22041,1,2,0:0:0:0:
122,40,22364,1,0,0:0:0:0:
197,100,22687,6,0,P|232:103|252:92,1,50,2|0,0:0|0:0,0:0:0:0:
308,44,23380,2,0,P|334:36|362:39,1,56.2500021457673,2|0,0:0|0:0,0:0:0:0:
498,49,24073,6,0,L|508:-11,1,50,4|2,0:0|0:0,0:0:0:0:
430,85,24695,5,2,0:0:0:0:
430,85,24877,2,0,L|435:117,1,25,2|2,0:0|0:0,0:0:0:0:
445,190,25318,1,0,0:0:0:0:
387,280,25595,5,4,0:0:0:0:
281,243,25902,1,0,0:0:0:0:
343,158,26209,5,4,0:0:0:0:
408,352,26588,1,2,0:0:0:0:
114,220,27088,6,0,L|128:234,2,12.5,2|2|4,0:0|0:0|0:0,0:0:0:0:
256,192,27275,12,0,31588,0:0:0:0:
