osu file format v14

[General]
AudioFilename: audio.mp3
AudioLeadIn: 0
PreviewTime: 62469
Countdown: 0
SampleSet: Soft
StackLeniency: 0.5
Mode: 0
LetterboxInBreaks: 0
WidescreenStoryboard: 0

[Editor]
DistanceSpacing: 0.5
BeatDivisor: 4
GridSize: 4
TimelineZoom: 1

[Metadata]
Title:Miageru Ano Sora de
TitleUnicode:見上げるあの空で
Artist:Yuuki Aira
ArtistUnicode:結城アイラ
Creator:Anze
Version:sola
Source:sola
Tags:ending 畑亜貴 Hata Aki 黒須克彦 Kurosu Katsuhiko 大久保薫 Ookubo Kaoru
BeatmapID:1005877
BeatmapSetID:470460

[Difficulty]
HPDrainRate:6
CircleSize:4
OverallDifficulty:6
ApproachRate:7
SliderMultiplier:1.4
SliderTickRate:1

[Events]
//Background and Video events
0,0,"skyy.jpg",0,0
//Break Periods
//Storyboard Layer 0 (Background)
//Storyboard Layer 1 (Fail)
//Storyboard Layer 2 (Pass)
//Storyboard Layer 3 (Foreground)
//Storyboard Sound Samples

[TimingPoints]
411,588.235294117647,4,2,1,50,1,0
9822,-100,4,2,2,50,0,0
19234,-135.135135135135,4,2,1,50,0,0
19822,-135.135135135135,4,2,1,45,0,0
20410,-135.135135135135,4,2,1,40,0,0
20999,-135.135135135135,4,2,1,35,0,0
21587,-100,4,2,2,40,0,0
21881,-100,4,2,1,50,0,0
40410,-100,4,2,2,50,0,0
40705,-100,4,2,1,50,0,0
49822,-100,4,2,2,50,0,0
50410,-100,4,2,1,50,0,0
62763,-100,4,2,99,50,0,0
63940,-100,4,2,1,65,0,1
81587,-100,4,2,99,65,0,1
82469,-100,4,2,99,65,0,0
82763,-100,4,2,1,65,0,1
96293,-100,4,2,99,65,0,1
96881,-100,4,2,1,65,0,1
100410,-100,4,2,99,45,0,1
101587,-100,4,2,1,45,0,0
102175,-100,4,2,1,40,0,0
102763,-100,4,2,1,35,0,0
103352,-100,4,2,1,30,0,0
103940,-100,4,2,1,25,0,0

[Colours]
Combo1 : 160,230,235
Combo2 : 83,169,255
Combo3 : 190,218,245
Combo4 : 22,114,205

[HitObjects]
46,54,9234,6,0,L|54:134,1,70
68,206,9822,6,0,B|147:187|123:243|203:227,1,140,4|2,0:0|0:0,0:0:0:0:
272,157,10705,1,0,0:0:0:0:
350,216,10999,2,0,L|342:296,1,70
266,346,11587,1,2,0:0:0:0:
178,301,11881,1,0,0:0:0:0:
87,338,12175,6,0,P|47:285|75:199,1,140,0|2,0:0|0:0,0:0:0:0:
131,149,13058,2,0,L|138:56,1,70
49,33,13646,1,0,0:0:0:0:
49,33,13793,1,0,0:0:0:0:
49,33,13940,1,2,0:0:0:0:
97,118,14234,1,0,0:0:0:0:
185,75,14528,6,0,P|251:62|306:102,1,140,0|2,0:0|0:0,0:0:0:0:
404,111,15410,1,0,0:0:0:0:
439,202,15705,1,0,0:0:0:0:
362,263,15999,2,0,L|357:332,2,70,0|2|0,0:0|0:0|0:0,0:0:0:0:
433,196,16881,5,0,0:0:0:0:
372,118,17175,2,0,L|368:84,2,35,0|0|2,0:0|0:0|0:0,0:0:0:0:
280,152,17763,1,0,0:0:0:0:
220,73,18058,1,0,0:0:0:0:
131,114,18352,1,0,0:0:0:0:
131,114,18499,1,0,0:0:0:0:
131,114,18646,2,0,L|126:183,1,70,2|0,0:0|0:0,0:0:0:0:
71,309,19234,6,0,B|125:318|161:278|161:278|189:342|274:387|377:327|354:198|264:205|245:277,1,414.400010117188,0|4,0:0|0:0,0:0:0:0:
443,315,21881,6,0,L|449:243,1,70,0|2,0:0|0:0,0:0:0:0:
416,92,22469,1,0,0:0:0:0:
400,86,22616,2,0,P|369:134|392:195,1,105
303,242,23352,2,0,L|233:235,1,70,2|0,0:0|0:0,0:0:0:0:
167,164,23940,5,0,0:0:0:0:
270,114,24234,1,0,0:0:0:0:
270,114,24381,1,0,0:0:0:0:
270,114,24528,1,2,0:0:0:0:
179,59,24822,2,0,L|82:68,1,70
88,67,25263,1,0,0:0:0:0:
68,167,25558,1,0,0:0:0:0:
68,167,25705,1,2,0:0:0:0:
170,197,25999,1,0,0:0:0:0:
170,197,26146,1,0,0:0:0:0:
170,197,26293,6,0,L|175:273,1,70
76,326,26881,2,0,L|71:256,1,70,2|0,0:0|0:0,0:0:0:0:
51,160,27469,2,0,B|130:141|106:197|186:181,1,140,0|2,0:0|0:0,0:0:0:0:
271,135,28352,1,0,0:0:0:0:
347,223,28646,6,0,L|342:292,2,70,0|0|2,0:0|0:0|0:0,0:0:0:0:
451,181,29528,1,0,0:0:0:0:
447,171,29675,1,0,0:0:0:0:
444,162,29822,2,0,L|455:121,3,35
436,104,30410,2,0,L|401:93,3,35,2|0|0|0,0:0|0:0|0:0|0:0,0:0:0:0:
370,105,30999,5,0,0:0:0:0:
244,57,31293,2,0,L|154:51,1,70,0|2,0:0|0:0,0:0:0:0:
75,119,31881,1,0,0:0:0:0:
59,127,32028,2,0,P|65:184|121:218,1,105
197,208,32763,2,0,L|191:277,1,70,2|0,0:0|0:0,0:0:0:0:
265,342,33352,5,0,0:0:0:0:
350,294,33646,1,0,0:0:0:0:
350,294,33793,1,0,0:0:0:0:
350,294,33940,1,2,0:0:0:0:
292,215,34234,2,0,L|286:145,1,70
284,124,34675,1,0,0:0:0:0:
359,63,34969,1,0,0:0:0:0:
359,63,35116,1,2,0:0:0:0:
426,156,35410,1,0,0:0:0:0:
426,156,35558,1,0,0:0:0:0:
426,156,35705,6,0,P|432:191|422:231,1,70
319,262,36293,2,0,P|312:226|322:186,1,70,2|0,0:0|0:0,0:0:0:0:
432,319,36881,2,0,B|353:300|377:356|297:340,1,140,0|2,0:0|0:0,0:0:0:0:
135,228,38058,5,0,0:0:0:0:
53,282,38352,2,0,L|45:355,2,70,0|2|0,0:0|0:0|0:0,0:0:0:0:
112,204,39234,1,0,0:0:0:0:
48,129,39528,2,0,L|45:107,4,17.5,0|0|0|0|2,0:0|0:0|0:0|0:0|0:0,0:0:0:0:
155,102,40116,1,0,0:0:0:0:
155,102,40263,1,0,0:0:0:0:
155,102,40410,6,0,P|189:113|233:100,1,70,4|0,0:0|0:0,0:0:0:0:
322,55,40999,2,0,P|354:43|388:49,1,70,2|0,0:0|0:0,0:0:0:0:
401,60,41440,1,0,0:0:0:0:
405,76,41587,2,0,L|399:151,1,70,8|0,0:1|0:0,0:0:0:0:
475,209,42175,1,2,0:0:0:0:
342,264,42616,5,0,0:0:0:0:
323,273,42763,2,0,P|348:324|412:337,1,105
463,300,43352,2,0,L|471:230,1,70,2|0,0:0|0:0,0:0:0:0:
483,134,43940,1,8,0:1:0:0:
334,88,44234,1,0,0:0:0:0:
372,170,44528,1,2,0:0:0:0:
434,68,44822,1,0,0:0:0:0:
470,153,45116,6,0,B|489:232|433:208|449:288,1,140,0|2,0:0|0:0,0:0:0:0:
366,334,45999,2,0,P|308:310|236:357,1,140
158,297,46881,1,2,0:0:0:0:
68,336,47175,1,0,0:0:0:0:
68,336,47322,1,0,0:0:0:0:
68,336,47469,5,0,0:0:0:0:
37,229,47763,2,0,L|48:168,2,35,0|0|2,0:0|0:0|0:0,0:0:0:0:
170,171,48352,1,0,0:0:0:0:
108,95,48646,2,0,P|73:94|40:105,1,70,8|0,0:1|0:0,0:0:0:0:
203,45,49234,2,0,P|237:44|270:55,1,70,2|0,0:0|0:0,0:0:0:0:
285,75,49675,1,0,0:0:0:0:
290,98,49822,6,0,P|357:87|413:125,1,140,4|2,0:0|0:0,0:0:0:0:
361,209,50705,1,0,0:0:0:0:
436,271,50999,2,0,P|436:305|425:338,1,70,8|0,0:1|0:0,0:0:0:0:
329,316,51587,2,0,L|195:334,1,105,2|0,0:0|0:0,0:0:0:0:
205,344,52175,6,0,L|100:331,2,105,0|2|0,0:0|0:0|0:0,0:0:0:0:
285,282,53352,1,8,0:1:0:0:
227,212,53646,1,0,0:0:0:0:
227,212,53793,1,0,0:0:0:0:
227,212,53940,2,0,P|191:216|170:240,1,70,2|0,0:0|0:0,0:0:0:0:
86,285,54528,6,0,P|80:233|100:182,2,105,0|2|0,0:0|0:0|0:0,0:0:0:0:
201,338,55705,1,8,0:1:0:0:
170,241,55999,1,0,0:0:0:0:
111,308,56293,1,2,0:0:0:0:
260,249,56587,1,0,0:0:0:0:
159,161,56881,6,0,L|52:173,1,105
30,176,57469,1,2,0:0:0:0:
119,262,57763,1,0,0:0:0:0:
119,262,57910,1,0,0:0:0:0:
119,262,58058,2,0,P|154:257|186:269,1,70,8|0,0:0|0:0,0:0:0:0:
205,288,58499,1,0,0:0:0:0:
229,289,58646,1,8,0:0:0:0:
253,291,58793,1,0,3:0:0:0:
277,293,58940,1,0,3:0:0:0:
428,330,59234,6,0,L|417:282,3,35,6|0|0|0,0:0|0:0|0:0|0:0,0:0:0:0:
393,256,59822,2,0,L|404:208,3,35,6|0|0|0,0:0|0:0|0:0|0:0,0:0:0:0:
453,157,60410,2,0,P|422:115|371:105,2,105,6|2|2,0:0|0:0|0:0,0:0:0:0:
400,264,61587,6,0,B|343:277|288:253|250:192|304:152|366:182|341:237,1,210,4|0,0:0|0:0,0:0:0:0:
226,316,62763,5,4,0:0:0:0:
199,156,63058,1,2,1:2:0:0:
199,156,63205,1,2,1:2:0:0:
199,156,63352,1,2,1:2:0:0:
67,225,63646,2,0,L|73:265,1,35,2|0,1:2|0:0,0:0:0:0:
85,336,63940,6,0,B|164:355|140:299|220:315,1,140,4|8,0:0|0:0,0:0:0:0:
318,287,64822,1,0,0:0:0:0:
338,279,64969,2,0,L|426:287,1,70
430,271,65410,2,0,L|499:277,1,70,0|8,0:0|0:0,0:0:0:0:
358,335,65999,1,0,0:0:0:0:
358,335,66146,1,0,0:0:0:0:
358,335,66293,5,0,0:0:0:0:
270,295,66587,1,0,0:0:0:0:
346,235,66881,1,8,0:0:0:0:
262,183,67175,1,0,0:0:0:0:
262,183,67322,1,0,0:0:0:0:
262,183,67469,2,0,L|254:99,1,70
358,51,68058,2,0,L|364:120,1,70,8|0,0:0|0:0,0:0:0:0:
367,141,68499,1,0,0:0:0:0:
371,161,68646,6,0,P|403:172|438:171,1,70
482,85,69234,1,8,0:0:0:0:
454,188,69528,1,0,0:0:0:0:
463,207,69675,2,0,L|456:276,1,70
453,302,70116,1,0,0:0:0:0:
342,343,70410,2,0,P|299:331|285:282,1,70,8|0,0:0|0:0,0:0:0:0:
283,284,70852,1,0,0:0:0:0:
268,260,70999,6,0,P|191:249|139:291,1,140,4|8,0:0|0:0,0:0:0:0:
100,184,71881,2,0,P|37:230|30:297,1,140,4|0,0:0|0:0,0:0:0:0:
91,361,72763,1,8,0:0:0:0:
138,276,73058,1,0,0:0:0:0:
138,276,73205,1,0,0:0:0:0:
138,276,73352,6,0,B|217:257|193:313|273:297,1,140,4|8,0:0|0:0,0:0:0:0:
361,335,74234,1,0,0:0:0:0:
381,329,74381,2,0,P|407:296|400:249,1,70
388,246,74822,1,0,0:0:0:0:
458,178,75116,2,0,L|467:84,1,70,8|0,0:0|0:0,0:0:0:0:
400,48,75705,5,0,0:0:0:0:
400,48,75852,1,0,0:0:0:0:
400,48,75999,1,0,0:0:0:0:
318,103,76293,2,0,P|285:129|238:122,1,70,8|0,0:0|0:0,0:0:0:0:
236,116,76734,2,0,L|166:109,1,70
142,120,77175,1,0,0:0:0:0:
80,54,77469,2,0,L|45:59,2,35,8|0|0,0:0|0:0|0:0,0:0:0:0:
155,152,78058,5,4,0:0:0:0:
155,152,78205,1,0,0:0:0:0:
155,152,78352,2,0,L|147:248,1,70,0|8,0:0|0:0,0:0:0:0:
146,248,78793,1,0,0:0:0:0:
64,313,79087,2,0,P|38:280|45:233,1,70
44,228,79528,1,0,0:0:0:0:
15,134,79822,1,8,0:0:0:0:
89,70,80116,1,0,0:0:0:0:
89,70,80263,1,0,0:0:0:0:
89,70,80410,6,0,L|132:59,3,35,4|0|0|0,0:0|0:0|0:0|0:0,0:0:0:0:
151,75,80999,2,0,L|184:83,3,35,4|0|0|0,0:0|0:0|0:0|0:0,0:0:0:0:
212,69,81587,1,4,1:2:0:0:
273,171,81881,1,2,1:2:0:0:
273,171,82028,1,2,1:2:0:0:
273,171,82175,1,2,1:2:0:0:
361,90,82469,2,0,L|401:96,1,35,2|0,1:2|0:0,0:0:0:0:
477,74,82763,6,0,B|496:153|440:129|456:209,1,140,4|8,0:0|0:0,0:0:0:0:
483,302,83646,1,0,0:0:0:0:
463,309,83793,2,0,P|414:302|388:271,1,70
388,266,84234,1,0,0:0:0:0:
308,323,84528,2,0,L|239:319,1,70,8|0,0:0|0:0,0:0:0:0:
239,319,84969,1,0,0:0:0:0:
239,319,85116,5,0,0:0:0:0:
147,352,85410,1,0,0:0:0:0:
72,288,85704,1,8,0:0:0:0:
112,198,85999,1,0,0:0:0:0:
112,198,86146,1,0,0:0:0:0:
112,198,86293,2,0,L|116:128,1,70
27,54,86881,2,0,L|22:123,1,70,8|0,0:0|0:0,0:0:0:0:
55,217,87469,5,0,0:0:0:0:
138,165,87763,2,0,P|178:161|223:182,1,70,0|8,0:0|0:0,0:0:0:0:
240,262,88352,1,0,0:0:0:0:
257,274,88499,2,0,L|326:279,1,70
356,279,88940,1,0,0:0:0:0:
442,234,89234,1,8,0:0:0:0:
351,194,89528,1,0,0:0:0:0:
351,194,89675,1,0,0:0:0:0:
351,194,89822,6,0,P|340:117|382:65,1,140,4|8,0:0|0:0,0:0:0:0:
451,149,90705,2,0,P|464:215|427:273,1,140,4|0,0:0|0:0,0:0:0:0:
357,342,91587,1,8,0:0:0:0:
266,304,91881,1,0,0:0:0:0:
266,304,92028,1,0,0:0:0:0:
266,304,92175,6,0,B|187:285|211:341|131:325,1,140,4|8,0:0|0:0,0:0:0:0:
45,281,93058,1,0,0:0:0:0:
116,214,93352,1,0,0:0:0:0:
118,193,93499,1,0,0:0:0:0:
120,172,93646,1,0,0:0:0:0:
55,98,93940,2,0,P|104:57|142:70,1,105,8|0,0:0|0:0,0:0:0:0:
156,84,94528,6,0,L|228:77,1,70
336,42,95116,2,0,L|329:111,1,70,8|0,0:0|0:0,0:0:0:0:
326,138,95557,2,0,P|342:168|373:183,1,70
398,173,95998,1,0,0:0:0:0:
471,239,96293,2,0,L|466:288,3,35,4|2|2|2,1:2|1:2|1:2|1:2,0:0:0:0:
451,297,96881,6,0,P|388:325|333:274,1,140,4|8,0:0|0:0,0:0:0:0:
256,229,97763,1,0,0:0:0:0:
176,285,98058,2,0,P|122:324|61:296,1,140,4|8,0:0|0:0,0:0:0:0:
110,211,98940,1,0,0:0:0:0:
110,211,99087,1,0,0:0:0:0:
110,211,99234,6,0,B|77:136|137:150|107:74,2,140,4|8|4,0:0|0:0|0:0,0:0:0:0:
135,223,100558,1,2,1:2:0:0:
162,220,100705,1,2,1:2:0:0:
189,217,100852,1,2,1:2:0:0:
216,214,100999,1,2,1:2:0:0:
300,263,101293,2,0,L|367:273,2,35,2|2|4,1:2|1:2|0:0,0:0:0:0:
256,192,101734,12,0,103940,0:0:0:0:
