osu file format v14

[General]
AudioFilename: audio.mp3
AudioLeadIn: 0
PreviewTime: 170733
Countdown: 0
SampleSet: Soft
StackLeniency: 0.7
Mode: 0
LetterboxInBreaks: 0
WidescreenStoryboard: 0

[Editor]
Bookmarks: 135066
DistanceSpacing: 1.2
BeatDivisor: 4
GridSize: 4
TimelineZoom: 2.1

[Metadata]
Title:Orange
TitleUnicode:オレンジ
Artist:YuukaNeko
ArtistUnicode:佑可猫
Creator:kanor
Version:Normal
Source:
Tags:初音ミク トーマ がっちゃん がっちゃん アザレアの心臓 touma heart of azalea no shinzou 猫大可 Lobelia
BeatmapID:1412542
BeatmapSetID:639749

[Difficulty]
HPDrainRate:4
CircleSize:3.2
OverallDifficulty:4
ApproachRate:5
SliderMultiplier:1.6
SliderTickRate:1

[Events]
//Background and Video events
0,0,"BG.jpg",0,0
//Break Periods
2,100066,106866
//Storyboard Layer 0 (Background)
//Storyboard Layer 1 (Fail)
//Storyboard Layer 2 (Pass)
//Storyboard Layer 3 (Foreground)
//Storyboard Sound Samples

[TimingPoints]
1400,666.666666666667,4,2,2,20,1,0
10400,-100,4,2,2,30,0,1
11233,-100,4,2,1,30,0,0
12066,-100,4,2,1,30,0,0
16400,-100,4,2,1,30,0,0
17400,-100,4,2,1,30,0,0
81400,-100,4,2,1,40,0,1
98400,-100,4,2,1,40,0,0
108066,-100,4,2,1,30,0,0
110733,-100,4,2,1,40,0,0
112733,-100,4,2,1,40,0,0
150900,-100,4,2,1,10,0,0
151066,-100,4,2,1,30,0,0
151233,-100,4,2,1,10,0,0
151400,-100,4,2,1,30,0,0
151566,-100,4,2,1,10,0,0
151733,-100,4,2,1,30,0,0
151900,-100,4,2,1,10,0,0
152066,-100,4,2,1,30,0,0
153400,-100,4,2,1,40,0,1
170733,-100,4,2,1,40,0,0
172066,-100,4,2,1,40,0,1
190066,-100,4,2,1,40,0,0
190733,-100,4,2,1,40,0,0
209066,-100,4,2,1,40,0,0
214066,-100,4,2,1,30,0,0
214733,-100,4,2,1,40,0,1
229733,-100,4,2,1,30,0,0
230733,-100,4,2,2,30,0,0

[Colours]
Combo1 : 192,64,192
Combo2 : 255,64,64
Combo3 : 255,128,64
Combo4 : 255,255,96
Combo5 : 96,255,64
Combo6 : 0,128,255

[HitObjects]
37,156,1400,6,0,P|117:168|182:122,1,160,4|2,0:3|0:0,0:0:0:0:
220,38,2400,1,0,0:0:0:0:
272,118,2733,2,0,L|262:203,2,80,2|2|2,0:0|0:0|0:0,0:0:0:0:
321,35,3733,1,0,0:0:0:0:
363,121,4066,6,0,B|348:248|348:248|308:288,1,160,2|2,0:0|0:0,0:0:0:0:
232,284,5066,1,0,0:0:0:0:
155,226,5400,2,0,P|149:179|164:140,2,80,2|2|2,0:0|0:0|0:0,0:0:0:0:
132,319,6400,1,2,0:0:0:0:
57,259,6733,6,0,P|63:212|48:173,1,80,4|0,0:3|0:0,0:0:0:0:
53,85,7400,2,0,P|55:35|74:2,1,80,2|0,0:0|0:0,0:0:0:0:
159,43,8066,2,0,P|209:56|283:33,1,120,2|0,0:0|0:0,0:0:0:0:
320,27,8733,2,0,L|321:119,1,80,2|0,0:0|0:0,0:0:0:0:
410,142,9400,6,0,L|411:50,2,80,2|2|2,0:0|0:0|0:0,0:0:0:0:
332,199,10400,2,0,B|276:210|276:210|230:167|170:187,1,160,2|0,0:0|0:0,0:0:0:0:
86,167,11400,2,0,L|12:158,2,40,8|8|0,0:0|0:0|0:0,0:0:0:0:
26,242,12066,6,0,L|123:254,2,80,2|0|8,0:3|0:0|0:0,0:0:0:0:
68,328,13066,2,0,L|133:336,1,40,0|0,0:0|0:0,0:0:0:0:
155,328,13400,2,0,L|252:340,2,80,0|0|8,0:0|0:0|0:0,0:0:0:0:
218,255,14400,2,0,L|283:263,1,40,0|0,0:0|0:0,0:0:0:0:
305,255,14733,6,0,L|402:267,1,80,0|0,0:0|0:0,0:0:0:0:
477,241,15400,2,0,L|463:307,2,40,8|8|0,0:0|0:0|0:0,0:0:0:0:
480,145,16066,1,0,0:0:0:0:
449,53,16400,2,0,B|397:17|319:41|319:41|362:72,1,160,4|0,0:0|0:0,0:0:0:0:
362,97,17233,1,0,0:0:0:0:
380,141,17400,6,0,L|269:136,1,80,2|0,0:3|0:0,0:0:0:0:
259,111,17900,1,2,0:0:0:0:
259,111,18066,2,0,L|148:106,1,80,10|0,0:0|0:0,0:0:0:0:
137,20,18733,2,0,L|216:23,2,80,2|2|10,0:0|0:0|0:0,0:0:0:0:
66,85,19733,2,0,L|47:152,1,40,2|2,0:0|0:0,0:0:0:0:
48,171,20066,6,0,L|50:284,1,80,2|0,0:0|0:0,0:0:0:0:
84,283,20566,1,2,0:0:0:0:
84,283,20733,2,0,L|86:396,1,80,10|0,0:0|0:0,0:0:0:0:
172,321,21400,2,0,L|170:241,2,80,2|2|10,0:0|0:0|0:0,0:0:0:0:
263,291,22400,2,0,L|323:296,1,40,0|0,0:0|0:0,0:0:0:0:
346,313,22733,6,0,P|382:319|448:298,1,80,6|0,0:0|0:0,0:0:0:0:
467,289,23233,1,2,0:0:0:0:
467,289,23400,2,0,P|473:253|452:187,1,80,10|0,0:0|0:0,0:0:0:0:
440,117,24066,2,0,P|434:81|455:15,2,80,2|2|10,0:0|0:0|0:0,0:0:0:0:
368,181,25066,2,0,L|303:175,1,40,2|2,0:0|0:0,0:0:0:0:
284,156,25400,6,0,P|278:120|299:54,2,80,2|10|10,0:0|0:0|0:0,0:0:0:0:
197,197,26400,2,0,P|181:114|206:23,1,160,14|2,0:0|0:0,0:0:0:0:
102,25,27400,2,0,L|81:97,1,40,10|2,0:0|0:0,0:0:0:0:
55,96,27733,2,0,L|34:168,1,40,10|0,0:0|0:0,0:0:0:0:
30,180,28066,6,0,P|22:227|28:258,1,80,2|0,0:3|0:0,0:0:0:0:
42,304,28566,1,2,0:0:0:0:
42,304,28733,2,0,P|81:298|120:305,1,80,10|0,0:0|0:0,0:0:0:0:
209,341,29400,2,0,P|248:346|287:339,2,80,2|2|10,0:0|0:0|0:0,0:0:0:0:
192,246,30400,2,0,L|200:180,1,40,2|2,0:0|0:0,0:0:0:0:
205,159,30733,6,0,P|253:151|283:157,1,80,2|0,0:0|0:0,0:0:0:0:
329,171,31233,1,2,0:0:0:0:
329,171,31400,2,0,P|323:210|330:249,1,80,10|0,0:0|0:0,0:0:0:0:
413,297,32067,2,0,P|418:336|411:375,2,80,2|2|10,0:0|0:0|0:0,0:0:0:0:
421,201,33066,2,0,L|433:132,1,40,0|0,0:0|0:0,0:0:0:0:
443,115,33400,6,0,P|452:61|433:21,1,80,6|0,0:0|0:0,0:0:0:0:
398,21,33900,1,2,0:0:0:0:
398,21,34066,2,0,L|286:22,1,80,10|0,0:0|0:0,0:0:0:0:
272,38,34566,1,2,0:0:0:0:
239,73,34733,2,0,P|229:126|249:167,1,80,2|0,0:0|0:0,0:0:0:0:
253,195,35233,1,2,0:0:0:0:
253,195,35400,2,0,P|262:248|243:289,1,80,10|2,0:0|0:0,0:0:0:0:
166,233,36066,6,0,P|112:223|72:243,1,80,6|0,0:0|0:0,0:0:0:0:
42,240,36566,1,2,0:0:0:0:
42,240,36733,2,0,L|56:150,1,80,10|0,0:0|0:0,0:0:0:0:
20,70,37400,2,0,P|58:61|96:71,1,80,2|2,0:0|0:0,0:0:0:0:
187,40,38066,2,0,L|259:35,2,40,8|0|0,0:0|0:0|0:0,0:0:0:0:
172,134,38733,6,0,B|287:127|287:127|323:100,1,160,2|8,0:3|0:0,0:0:0:0:
402,47,39733,1,0,0:0:0:0:
407,142,40066,2,0,L|338:212,2,80,2|2|10,0:0|0:0|0:0,0:0:0:0:
490,93,41066,1,2,0:0:0:0:
483,188,41400,6,0,B|425:252|425:252|458:239|500:266,1,160,0|8,0:0|0:0,0:0:0:0:
445,345,42400,1,0,0:0:0:0:
354,314,42733,2,0,L|257:312,1,80,2|2,0:0|0:0,0:0:0:0:
183,343,43400,2,0,L|86:341,1,80,10|2,0:0|0:0,0:0:0:0:
37,271,44066,6,0,B|69:251|69:251|207:254,1,160,0|8,0:0|0:0,0:0:0:0:
267,194,45066,1,0,0:0:0:0:
176,160,45400,2,0,L|68:157,1,80,2|2,0:0|0:0,0:0:0:0:
70,65,46066,2,0,L|149:67,1,80,10|2,0:0|0:0,0:0:0:0:
244,47,46733,6,0,P|291:41|343:54,1,80,2|0,0:0|0:0,0:0:0:0:
415,70,47400,1,10,0:0:0:0:
481,138,47733,1,0,0:0:0:0:
497,232,48066,2,0,L|482:348,1,80,2|2,0:0|0:0,0:0:0:0:
408,255,48733,2,2,L|398:302,2,40,10|2|2,0:0|0:0|0:0,0:0:0:0:
384,161,49400,6,0,P|306:183|231:152,1,160,2|8,0:3|0:0,0:0:0:0:
149,110,50400,1,0,0:0:0:0:
231,61,50733,2,0,L|324:63,2,80,2|2|10,0:0|0:0|0:0,0:0:0:0:
145,16,51733,1,2,0:0:0:0:
70,76,52066,6,0,P|62:118|86:173,1,80,0|0,0:0|0:0,0:0:0:0:
83,248,52733,2,0,P|123:233|159:185,1,80,8|0,0:0|0:0,0:0:0:0:
228,152,53400,2,0,P|195:124|135:117,2,80,2|2|10,0:0|0:0|0:0,0:0:0:0:
222,248,54400,1,2,0:0:0:0:
270,330,54733,6,0,P|356:359|445:328,1,160,0|8,0:0|0:0,0:0:0:0:
472,262,55733,1,0,0:0:0:0:
493,168,56066,2,0,L|508:82,1,80,2|2,0:0|0:0,0:0:0:0:
414,116,56733,2,0,L|398:30,1,80,10|2,0:0|0:0,0:0:0:0:
303,38,57400,6,0,L|226:81,1,80,2|0,0:0|0:0,0:0:0:0:
288,156,58066,2,0,L|201:170,1,80,10|0,0:0|0:0,0:0:0:0:
226,264,58733,2,0,L|139:248,1,80,2|2,0:0|0:0,0:0:0:0:
53,269,59400,2,0,L|13:261,2,40,10|10|2,0:0|0:0|0:0,0:0:0:0:
0,340,60066,6,0,L|86:356,1,80,12|12,0:0|0:0,0:0:0:0:
78,354,61400,2,0,P|121:346|167:354,1,80,12|12,0:0|0:0,0:0:0:0:
156,350,62733,6,0,L|238:365,1,80,12|12,0:0|0:0,0:0:0:0:
234,364,64066,2,0,P|277:356|323:364,1,80,12|12,0:0|0:0,0:0:0:0:
391,305,64733,2,0,L|383:265,2,40
478,264,65400,6,0,L|467:155,1,80,12|12,0:0|0:0,0:0:0:0:
469,184,66733,2,0,P|429:188|390:180,1,80,12|12,0:0|0:0,0:0:0:0:
383,84,67400,2,0,L|430:89,2,40
301,133,68066,6,0,L|189:140,1,80,4|0,0:0|0:0,0:0:0:0:
176,119,68566,1,0,0:0:0:0:
176,119,68733,2,0,L|64:112,1,80,8|0,0:0|0:0,0:0:0:0:
78,202,69400,2,0,L|190:209,1,80,0|0,0:0|0:0,0:0:0:0:
200,229,69900,1,0,0:0:0:0:
227,268,70066,2,0,L|216:338,2,40,8|8|0,0:0|0:0|0:0,0:0:0:0:
295,335,70733,6,0,L|409:337,1,80,12|12,0:0|0:0,0:0:0:0:
374,336,72066,2,0,P|378:296|370:257,1,80,12|12,0:0|0:0,0:0:0:0:
370,257,73400,6,0,L|484:259,1,80,12|12,0:0|0:0,0:0:0:0:
449,258,74733,2,0,P|453:218|445:179,1,80,12|12,0:0|0:0,0:0:0:0:
434,83,75400,2,0,L|505:87,2,40,8|8|0,0:0|0:0|0:0,0:0:0:0:
357,140,76066,6,0,L|260:134,1,80,4|0,0:0|0:0,0:0:0:0:
233,115,76566,1,0,0:0:0:0:
233,115,76733,2,0,P|231:65|246:15,1,80,8|0,0:0|0:0,0:0:0:0:
142,53,77400,2,0,P|144:103|129:153,1,80,0|0,0:0|0:0,0:0:0:0:
113,173,77900,1,0,0:0:0:0:
76,203,78066,2,0,L|26:191,2,40,8|0|8,0:0|0:0|0:0,0:0:0:0:
132,280,78733,6,0,L|106:385,3,80,2|2|2|2,0:3|0:3|0:3|0:3,0:0:0:0:
214,331,81400,6,0,P|260:323|321:343,1,80,4|0,0:0|0:0,0:0:0:0:
336,347,81900,1,0,0:0:0:0:
336,347,82066,2,0,P|382:355|443:335,1,80,8|0,0:0|0:0,0:0:0:0:
471,271,82733,2,0,L|481:223,2,40,0|0|0,0:0|0:0|0:0,0:0:0:0:
397,208,83400,2,0,L|416:108,1,80,8|0,0:0|0:0,0:0:0:0:
481,63,84066,6,0,P|428:36|396:39,1,80,0|0,0:0|0:0,0:0:0:0:
360,39,84566,1,0,0:0:0:0:
360,39,84733,2,0,P|320:43|287:65,1,80,8|0,0:0|0:0,0:0:0:0:
197,98,85400,2,0,L|102:84,1,80,0|0,0:0|0:0,0:0:0:0:
21,89,86066,2,0,L|33:32,2,40,8|8|0,0:0|0:0|0:0,0:0:0:0:
63,175,86733,6,0,L|158:189,1,80,4|0,0:0|0:0,0:0:0:0:
179,217,87233,1,0,0:0:0:0:
179,217,87400,2,0,P|183:263|169:301,1,80,8|0,0:0|0:0,0:0:0:0:
266,274,88066,2,0,P|254:312|259:351,1,80,0|0,0:0|0:0,0:0:0:0:
348,315,88733,2,0,L|405:302,1,40,8|0,0:0|0:0,0:0:0:0:
356,268,89066,2,0,L|413:255,1,40,0|0,0:0|0:0,0:0:0:0:
366,220,89400,6,0,L|466:192,2,80,0|0|8,0:0|0:0|0:0,0:0:0:0:
290,160,90400,2,0,P|251:96|278:18,1,160,12|0,0:0|0:0,0:0:0:0:
347,84,91400,2,0,L|411:95,2,40,8|8|0,0:0|0:0|0:0,0:0:0:0:
253,105,92066,6,0,L|153:120,1,80,4|0,0:0|0:0,0:0:0:0:
125,121,92566,1,0,0:0:0:0:
125,121,92733,2,0,P|128:77|118:37,1,80,8|0,0:0|0:0,0:0:0:0:
36,89,93400,2,0,P|32:132|43:173,1,80,0|0,0:0|0:0,0:0:0:0:
59,261,94066,2,0,L|53:365,1,80,8|0,0:0|0:0,0:0:0:0:
148,322,94733,6,0,L|154:218,1,80,0|0,0:0|0:0,0:0:0:0:
160,194,95233,1,0,0:0:0:0:
195,161,95400,2,0,L|260:175,1,40,8|0,0:0|0:0,0:0:0:0:
275,144,95733,2,0,L|331:179,1,40,0|8,0:0|0:0,0:0:0:0:
353,182,96066,2,0,L|348:261,1,80,0|0,0:0|0:0,0:0:0:0:
354,309,96566,1,0,0:0:0:0:
354,309,96733,2,0,P|397:320|457:300,1,80,8|0,0:0|0:0,0:0:0:0:
467,224,97400,6,0,L|471:144,1,80,4|0,0:0|0:0,0:0:0:0:
438,54,98066,2,0,L|495:62,2,40,8|8|0,0:0|0:0|0:0,0:0:0:0:
375,126,98733,1,0,0:0:0:0:
331,40,99066,1,4,0:0:0:0:
260,105,99400,1,0,0:0:0:0:
228,14,99733,1,0,0:0:0:0:
256,192,108066,12,4,110733,0:0:0:0:
260,105,112733,6,0,L|250:178,2,40,0|0|0,0:0|0:0|0:0,0:0:0:0:
221,76,113233,1,0,0:0:0:0:
177,55,113400,6,0,P|91:36|31:82,1,160,4|8,0:0|0:0,0:0:0:0:
23,169,114400,1,0,0:0:0:0:
113,200,114733,2,0,L|115:120,2,80,2|2|10,0:0|0:0|0:0,0:0:0:0:
42,265,115733,1,2,0:0:0:0:
132,298,116066,6,0,P|206:288|281:342,1,160,0|8,0:0|0:0,0:0:0:0:
368,352,117066,1,0,0:0:0:0:
459,323,117400,2,0,L|477:237,1,80,2|2,0:0|0:0,0:0:0:0:
379,253,118066,2,0,L|361:167,1,80,10|2,0:0|0:0,0:0:0:0:
456,154,118733,6,0,L|474:68,1,80,2|0,0:0|0:0,0:0:0:0:
388,28,119400,1,10,0:0:0:0:
292,34,119733,1,0,0:0:0:0:
216,92,120066,2,0,P|172:97|125:87,1,80,2|2,0:0|0:0,0:0:0:0:
50,49,120733,2,0,L|38:-3,2,40,10|10|2,0:0|0:0|0:0,0:0:0:0:
56,144,121400,6,0,L|38:314,1,160,2|8,0:3|0:0,0:0:0:0:
112,365,122400,1,0,0:0:0:0:
136,272,122733,2,0,L|144:184,2,80,2|2|10,0:0|0:0|0:0,0:0:0:0:
205,338,123733,1,2,0:0:0:0:
234,246,124066,6,0,L|252:76,1,160,0|8,0:0|0:0,0:0:0:0:
325,25,125066,1,0,0:0:0:0:
339,119,125399,2,0,L|331:207,1,80,2|2,0:0|0:0,0:0:0:0:
426,180,126066,2,0,L|418:259,1,80,10|2,0:0|0:0,0:0:0:0:
486,328,126733,6,0,P|407:314|327:332,1,160,0|8,0:0|0:0,0:0:0:0:
262,262,127733,1,0,0:0:0:0:
240,355,128066,2,0,L|151:352,2,80,2|2|10,0:0|0:0|0:0,0:0:0:0:
330,330,129066,1,2,0:0:0:0:
262,262,129400,6,0,L|173:259,1,80,2|0,0:0|0:0,0:0:0:0:
90,288,130066,2,0,P|72:247|72:205,1,80,10|0,0:0|0:0,0:0:0:0:
69,116,130733,2,0,P|73:72|94:35,1,80,2|2,0:0|0:0,0:0:0:0:
164,101,131400,2,2,L|229:95,2,40,10|10|2,0:0|0:0|0:0,0:0:0:0:
213,183,132066,6,0,L|330:176,2,80,2|0|10,0:3|0:0|0:0,0:0:0:0:
138,244,133066,2,0,L|153:288,1,40,0|0,0:0|0:0,0:0:0:0:
186,315,133400,2,0,L|303:308,1,80,2|2,0:0|0:0,0:0:0:0:
356,341,134066,2,0,L|473:334,1,80,10|0,0:0|0:0,0:0:0:0:
495,261,134733,6,0,P|503:214|491:166,2,80,2|0|10,0:0|0:0|0:0,0:0:0:0:
408,219,135733,2,0,L|355:228,1,40,0|0,0:0|0:0,0:0:0:0:
320,219,136066,2,0,L|267:228,2,40,2|0|2,0:0|0:0|0:0,0:0:0:0:
260,143,136733,2,0,L|339:132,1,80,10|10,0:0|0:0,0:0:0:0:
280,56,137400,6,0,L|359:45,2,80,6|0|10,0:0|0:0|0:0,0:0:0:0:
188,86,138400,2,0,L|124:80,1,40,0|0,0:0|0:0,0:0:0:0:
100,75,138733,2,0,L|20:64,1,80,2|2,0:0|0:0,0:0:0:0:
57,153,139400,2,0,L|17:148,2,40,10|8|2,0:0|0:0|0:0,0:0:0:0:
144,191,140066,6,0,L|129:298,1,80,6|0,0:0|0:0,0:0:0:0:
122,317,140566,1,0,0:0:0:0:
122,317,140733,2,0,P|165:310|223:324,1,80,10|0,0:0|0:0,0:0:0:0:
286,358,141400,2,0,L|301:251,1,80,2|2,0:0|0:0,0:0:0:0:
306,232,141900,1,0,0:0:0:0:
286,188,142066,2,0,L|246:169,2,40,10|8|2,0:0|0:0|0:0,0:0:0:0:
368,137,142733,6,0,L|471:127,2,80,2|0|10,0:3|0:0|0:0,0:0:0:0:
283,90,143733,2,0,L|293:38,1,40,0|0,0:0|0:0,0:0:0:0:
254,18,144066,2,0,L|174:25,1,80,2|2,0:0|0:0,0:0:0:0:
122,106,144733,2,0,P|78:97|35:112,1,80,10|0,0:0|0:0,0:0:0:0:
27,151,145233,1,0,0:0:0:0:
27,151,145400,6,0,L|22:269,1,80,2|0,0:0|0:0,0:0:0:0:
116,208,146066,2,0,L|112:287,1,80,10|0,0:0|0:0,0:0:0:0:
94,332,146566,1,0,0:0:0:0:
94,332,146733,2,0,L|33:329,2,40,2|0|2,0:0|0:0|0:0,0:0:0:0:
187,355,147400,2,0,L|248:358,2,40,10|0|2,0:0|0:0|0:0,0:0:0:0:
224,266,148066,6,0,P|276:276|308:314,1,80,6|0,0:0|0:0,0:0:0:0:
378,341,148733,2,0,P|388:289|426:257,1,80,10|0,0:0|0:0,0:0:0:0:
477,206,149400,2,0,L|423:193,2,40,10|0|0,0:0|0:0|0:0,0:0:0:0:
486,110,150066,2,0,L|432:97,1,40,10|2,0:0|0:0,0:0:0:0:
400,112,150400,2,0,L|346:125,1,40,0|0,0:0|0:0,0:0:0:0:
335,162,150733,6,0,L|228:136,3,80,2|2|2|2,0:3|0:3|0:3|0:3,0:0:0:0:
298,53,153400,6,0,P|252:61|191:41,1,80,4|0,0:0|0:0,0:0:0:0:
176,37,153900,1,0,0:0:0:0:
176,37,154066,2,0,P|130:29|69:49,1,80,8|0,0:0|0:0,0:0:0:0:
41,113,154733,2,0,L|31:161,2,40,0|0|0,0:0|0:0|0:0,0:0:0:0:
115,176,155400,2,0,L|96:276,1,80,8|0,0:0|0:0,0:0:0:0:
31,321,156066,6,0,P|83:347|116:345,1,80,0|0,0:0|0:0,0:0:0:0:
152,345,156566,1,0,0:0:0:0:
152,345,156733,2,0,P|191:340|224:318,1,80,8|0,0:0|0:0,0:0:0:0:
315,286,157400,2,0,L|410:300,1,80,0|0,0:0|0:0,0:0:0:0:
491,295,158066,2,0,L|479:352,2,40,8|8|0,0:0|0:0|0:0,0:0:0:0:
449,209,158733,6,0,L|354:195,1,80,4|0,0:0|0:0,0:0:0:0:
333,167,159233,1,0,0:0:0:0:
333,167,159400,2,0,P|329:121|343:83,1,80,8|0,0:0|0:0,0:0:0:0:
246,110,160066,2,0,P|257:71|252:32,1,80,0|0,0:0|0:0,0:0:0:0:
164,69,160733,2,0,L|107:82,1,40,8|0,0:0|0:0,0:0:0:0:
156,116,161066,2,0,L|99:129,1,40,0|0,0:0|0:0,0:0:0:0:
146,164,161400,6,0,L|46:192,2,80,0|0|8,0:0|0:0|0:0,0:0:0:0:
222,224,162400,2,0,P|261:288|234:366,1,160,12|0,0:0|0:0,0:0:0:0:
165,300,163400,2,0,L|101:289,2,40,8|8|0,0:0|0:0|0:0,0:0:0:0:
259,279,164066,6,0,L|359:264,1,80,4|0,0:0|0:0,0:0:0:0:
387,263,164566,1,0,0:0:0:0:
387,263,164733,2,0,P|383:306|394:347,1,80,8|0,0:0|0:0,0:0:0:0:
476,295,165400,2,0,P|479:251|469:211,1,80,0|0,0:0|0:0,0:0:0:0:
453,123,166066,2,0,L|459:19,1,80,8|0,0:0|0:0,0:0:0:0:
364,62,166733,6,0,L|358:166,1,80,0|0,0:0|0:0,0:0:0:0:
352,190,167233,1,0,0:0:0:0:
317,223,167400,2,0,L|252:209,1,40,8|0,0:0|0:0,0:0:0:0:
237,240,167733,2,0,L|180:204,1,40,0|8,0:0|0:0,0:0:0:0:
159,202,168066,2,0,L|163:122,1,80,0|0,0:0|0:0,0:0:0:0:
158,75,168566,1,0,0:0:0:0:
158,75,168733,2,0,P|115:64|55:84,1,80,8|0,0:0|0:0,0:0:0:0:
45,160,169400,6,0,L|40:239,1,80,4|0,0:0|0:0,0:0:0:0:
37,335,170066,2,0,L|76:340,1,40,8|8,0:0|0:0,0:0:0:0:
121,321,170400,2,0,L|160:326,2,40,8|8|4,0:0|0:0|0:0,0:0:0:0:
158,75,172066,6,0,L|145:171,1,80,4|0,0:3|0:0,0:0:0:0:
214,223,172733,2,0,P|256:231|313:210,1,80,10|0,0:0|0:0,0:0:0:0:
334,200,173233,1,0,0:0:0:0:
334,200,173400,2,0,P|376:192|433:213,2,80,10|2|10,0:0|0:0|0:0,0:0:0:0:
374,287,174400,1,2,0:0:0:0:
451,342,174733,6,0,L|464:250,1,80,14|0,0:0|0:3,0:0:0:0:
487,169,175400,2,0,L|500:77,1,80,10|0,0:0|0:0,0:0:0:0:
473,48,175900,1,0,0:0:0:0:
473,48,176066,2,0,P|428:40|384:53,1,80,10|2,0:0|0:0,0:0:0:0:
323,111,176733,2,0,L|257:104,1,40,10|0,0:0|0:0,0:0:0:0:
248,73,177066,2,0,L|182:80,1,40,2|2,0:0|0:0,0:0:0:0:
162,61,177400,6,0,L|154:173,1,80,4|0,0:3|0:0,0:0:0:0:
69,99,178066,2,0,L|61:211,1,80,10|0,0:0|0:0,0:0:0:0:
56,226,178566,1,0,0:0:0:0:
56,226,178733,2,2,L|48:338,2,80,10|2|10,0:0|0:0|0:0,0:0:0:0:
142,268,179733,2,0,L|138:307,1,40,2|0,0:0|0:0,0:0:0:0:
167,345,180066,6,0,P|207:352|269:328,1,80,14|0,0:0|0:0,0:0:0:0:
279,309,180566,1,0,0:0:0:0:
279,309,180733,2,0,L|302:205,1,80,10|0,0:0|0:0,0:0:0:0:
320,189,181233,1,0,0:0:0:0:
320,189,181400,2,0,P|360:182|422:206,1,80,10|2,0:0|0:0,0:0:0:0:
417,96,182066,2,0,P|377:103|315:79,1,80,10|2,0:0|0:0,0:0:0:0:
301,64,182566,1,2,0:0:0:0:
301,64,182733,6,0,P|261:57|199:81,1,80,4|0,0:3|0:0,0:0:0:0:
146,123,183400,2,0,P|106:130|44:106,1,80,10|0,0:0|0:0,0:0:0:0:
23,104,183900,1,0,0:0:0:0:
23,104,184066,2,0,L|23:207,1,80,10|2,0:0|0:0,0:0:0:0:
36,279,184733,2,0,L|92:281,1,40,10|0,0:0|0:0,0:0:0:0:
115,307,185066,2,0,L|171:309,1,40,2|0,0:0|0:0,0:0:0:0:
200,323,185400,6,0,P|238:324|288:347,1,80,14|0,0:0|0:0,0:0:0:0:
363,298,186066,2,0,P|401:296|451:274,1,80,10|0,0:0|0:0,0:0:0:0:
477,251,186566,1,0,0:0:0:0:
477,251,186733,2,0,L|486:145,1,80,10|2,0:0|0:0,0:0:0:0:
414,104,187400,2,0,L|350:120,1,40,10|0,0:0|0:0,0:0:0:0:
356,157,187733,2,0,L|292:173,1,40,10|10,0:0|0:0,0:0:0:0:
299,211,188066,6,0,P|256:201|201:218,1,80,4|0,0:3|0:0,0:0:0:0:
181,234,188566,1,0,0:0:0:0:
181,234,188733,2,0,P|138:244|83:227,1,80,10|0,0:0|0:0,0:0:0:0:
56,225,189233,1,0,0:0:0:0:
13,202,189400,2,0,L|15:149,2,40,10|10|2,0:0|0:0|0:0,0:0:0:0:
96,155,190066,2,0,L|104:48,1,80,0|0,0:0|0:0,0:0:0:0:
186,29,190733,6,0,P|227:25|276:37,1,80,4|0,0:0|0:0,0:0:0:0:
304,60,191233,1,0,0:0:0:0:
304,60,191400,2,0,L|283:163,1,80,8|0,0:0|0:0,0:0:0:0:
365,194,192066,2,0,P|406:190|455:202,1,80,0|0,0:0|0:0,0:0:0:0:
483,225,192566,1,0,0:0:0:0:
483,225,192733,2,0,L|462:328,1,80,8|0,0:0|0:0,0:0:0:0:
384,353,193400,6,0,P|343:357|294:345,1,80,0|0,0:0|0:0,0:0:0:0:
266,322,193900,1,0,0:0:0:0:
266,322,194067,2,0,L|287:219,1,80,8|0,0:0|0:0,0:0:0:0:
205,188,194733,2,0,P|164:192|115:180,1,80,0|0,0:0|0:0,0:0:0:0:
80,168,195233,1,0,0:0:0:0:
80,168,195400,2,0,L|59:271,1,80,8|8,0:0|0:0,0:0:0:0:
58,342,196066,6,0,L|173:343,1,80,4|0,0:0|0:0,0:0:0:0:
177,314,196566,1,0,0:0:0:0:
177,314,196733,2,0,P|231:308|282:322,1,80,8|0,0:0|0:0,0:0:0:0:
345,346,197400,2,0,L|346:231,1,80,0|0,0:0|0:0,0:0:0:0:
317,227,197900,1,0,0:0:0:0:
317,227,198067,2,0,P|311:173|325:122,1,80,8|0,0:0|0:0,0:0:0:0:
347,57,198733,6,0,P|293:63|242:49,1,80,0|0,0:0|0:0,0:0:0:0:
176,28,199400,2,0,P|182:82|168:133,1,80,8|0,0:0|0:0,0:0:0:0:
145,197,200066,2,0,P|199:191|250:205,1,80,0|0,0:0|0:0,0:0:0:0:
264,221,200566,1,0,0:0:0:0:
264,221,200733,2,0,L|252:304,1,80,8|0,0:0|0:0,0:0:0:0:
170,349,201400,6,0,P|116:355|65:341,1,80,4|0,0:0|0:0,0:0:0:0:
51,325,201900,1,0,0:0:0:0:
51,325,202067,2,0,L|63:242,1,80,8|0,0:0|0:0,0:0:0:0:
35,153,202733,2,0,P|89:159|140:145,1,80,0|0,0:0|0:0,0:0:0:0:
154,129,203233,1,0,0:0:0:0:
154,129,203400,2,0,L|142:46,1,80,8|0,0:0|0:0,0:0:0:0:
238,51,204066,6,0,L|250:134,1,80,8|0,0:0|0:0,0:0:0:0:
334,85,204733,1,8,0:0:0:0:
428,98,205066,1,0,0:0:0:0:
487,173,205400,2,0,L|521:125,2,40,8|0|0,0:0|0:0|0:0,0:0:0:0:
406,224,206066,1,8,0:0:0:0:
487,274,206400,1,8,0:0:0:0:
405,324,206733,6,0,P|353:318|304:331,1,80,12|12,0:0|0:0,0:0:0:0:
326,322,208066,2,0,P|274:316|225:329,3,80,12|12|0|12,0:0|0:0|0:0|0:0,0:0:0:0:
256,192,209233,12,0,212067,0:0:0:0:
50,70,214066,6,0,L|100:72,1,40,8|8,0:0|0:0,0:0:0:0:
230,38,214733,6,0,P|285:56|307:81,1,80,4|0,0:0|0:0,0:0:0:0:
332,107,215233,1,0,0:0:0:0:
332,107,215400,2,0,P|356:138|364:176,1,80,8|0,0:0|0:0,0:0:0:0:
307,254,216067,2,0,L|386:265,1,80,0|0,0:0|0:0,0:0:0:0:
475,299,216733,2,0,L|487:242,2,40,8|8|0,0:0|0:0|0:0,0:0:0:0:
394,351,217400,6,0,L|299:337,1,80,4|0,0:0|0:0,0:0:0:0:
267,331,217900,1,0,0:0:0:0:
267,331,218067,2,0,P|221:327|183:341,1,80,8|0,0:0|0:0,0:0:0:0:
109,284,218733,2,0,P|70:295|31:290,1,80,0|0,0:0|0:0,0:0:0:0:
70,202,219400,2,0,L|83:145,1,40,8|0,0:0|0:0,0:0:0:0:
117,194,219733,2,0,L|130:137,1,40,0|0,0:0|0:0,0:0:0:0:
165,184,220067,6,0,L|193:84,2,80,0|0|8,0:0|0:0|0:0,0:0:0:0:
259,167,221067,2,0,P|323:128|401:155,1,160,12|0,0:0|0:0,0:0:0:0:
494,139,222067,2,0,L|505:203,2,40,8|8|0,0:0|0:0|0:0,0:0:0:0:
465,52,222733,6,0,L|370:52,1,80,4|0,0:0|0:0,0:0:0:0:
337,48,223233,1,0,0:0:0:0:
337,48,223400,2,0,P|293:44|253:55,1,80,8|0,0:0|0:0,0:0:0:0:
295,141,224067,2,0,P|251:144|211:134,1,80
122,115,224733,2,0,L|116:219,1,80,8|0,0:0|0:0,0:0:0:0:
30,154,225400,6,0,L|25:233,1,80,0|0,0:0|0:0,0:0:0:0:
30,281,225900,1,0,0:0:0:0:
30,281,226066,2,0,P|73:272|131:295,1,80,8|0,0:0|0:0,0:0:0:0:
145,310,226566,1,8,0:0:0:0:
181,340,226733,2,0,P|224:349|282:326,1,80,0|0,0:0|0:0,0:0:0:0:
291,305,227233,1,0,0:0:0:0:
328,275,227400,2,0,L|326:214,2,40,8|0|0,0:0|0:0|0:0,0:0:0:0:
423,275,228066,6,0,L|418:171,1,80,4|0,0:0|0:0,0:0:0:0:
475,116,228733,2,0,L|419:104,1,40,8|8,0:0|0:0,0:0:0:0:
388,112,229066,2,0,L|332:124,1,40,0|0,0:0|0:0,0:0:0:0:
301,127,229400,2,0,P|251:138|199:116,1,80,8|12,0:0|0:0,0:0:0:0:
48,196,230734,6,0,P|128:184|193:230,1,160,4|2,0:3|0:0,0:0:0:0:
256,296,231734,1,0,0:0:0:0:
296,208,232067,2,2,L|288:112,2,80
352,284,233067,1,0,0:0:0:0:
392,196,233400,6,0,B|377:69|377:69|337:29,1,160,2|2,0:0|0:0,0:0:0:0:
261,21,234400,1,0,0:0:0:0:
184,79,234734,2,2,P|178:126|193:165,2,80
103,26,235734,1,2,0:0:0:0:
28,86,236066,6,0,P|34:133|19:172,1,80,4|0,0:3|0:0,0:0:0:0:
43,258,236734,2,0,L|42:350,1,80,2|0,0:0|0:0,0:0:0:0:
130,302,237400,2,0,P|180:289|254:312,1,120,2|0,0:0|0:0,0:0:0:0:
291,318,238067,2,0,L|292:226,1,80,2|0,0:0|0:0,0:0:0:0:
381,203,238733,6,0,L|382:295,2,80,2|2|2,0:0|0:0|0:0,0:0:0:0:
304,145,239733,1,2,0:0:0:0:
256,192,239900,12,0,242566,0:0:0:0:
