osu file format v14

[General]
AudioFilename: audio.mp3
AudioLeadIn: 0
PreviewTime: 170733
Countdown: 0
SampleSet: Soft
StackLeniency: 0.7
Mode: 0
LetterboxInBreaks: 0
WidescreenStoryboard: 0

[Editor]
Bookmarks: 59400,60066,100066,135066,214066
DistanceSpacing: 2
BeatDivisor: 8
GridSize: 4
TimelineZoom: 2.999999

[Metadata]
Title:Orange
TitleUnicode:オレンジ
Artist:YuukaNeko
ArtistUnicode:佑可猫
Creator:kanor
Version:Lobelia's Insane
Source:
Tags:初音ミク トーマ がっちゃん がっちゃん アザレアの心臓 touma heart of azalea no shinzou 猫大可 Lobelia
BeatmapID:1426401
BeatmapSetID:639749

[Difficulty]
HPDrainRate:6
CircleSize:4
OverallDifficulty:7.5
ApproachRate:9
SliderMultiplier:1.9
SliderTickRate:1

[Events]
//Background and Video events
0,0,"BG.jpg",0,0
//Break Periods
2,99932,107466
2,210265,213466
//Storyboard Layer 0 (Background)
//Storyboard Layer 1 (Fail)
//Storyboard Layer 2 (Pass)
//Storyboard Layer 3 (Foreground)
//Storyboard Sound Samples

[TimingPoints]
1400,666.666666666667,4,2,2,20,1,0
1400,-133.333333333333,4,2,2,20,0,0
10400,-200,4,2,2,30,0,1
11233,-133.333333333333,4,2,1,30,0,0
12066,-100,4,2,1,30,0,0
16400,-133.333333333333,4,2,1,30,0,0
17400,-100,4,2,1,30,0,0
81400,-83.3333333333333,4,2,1,40,0,1
98400,-83.3333333333333,4,2,1,40,0,0
108066,-100,4,2,1,30,0,0
110733,-100,4,2,1,40,0,0
150733,-100,4,2,1,40,0,0
150900,-100,4,2,1,10,0,0
151066,-100,4,2,1,30,0,0
151233,-100,4,2,1,10,0,0
151400,-100,4,2,1,30,0,0
151566,-100,4,2,1,10,0,0
151733,-100,4,2,1,30,0,0
151900,-100,4,2,1,10,0,0
152066,-100,4,2,1,30,0,0
153400,-83.3333333333333,4,2,1,40,0,1
170733,-83.3333333333334,4,2,1,40,0,0
172066,-83.3333333333334,4,2,1,40,0,1
190066,-125,4,2,1,40,0,0
190733,-100,4,2,1,40,0,0
209066,-100,4,2,1,40,0,0
210066,-100,4,2,1,5,0,0
214733,-83.3333333333333,4,2,1,40,0,1
229733,-83.3333333333333,4,2,1,30,0,0
230733,-100,4,2,2,30,0,0

[Colours]
Combo1 : 192,64,192
Combo2 : 255,64,64
Combo3 : 255,128,64
Combo4 : 255,255,96
Combo5 : 96,255,64
Combo6 : 0,128,255

[HitObjects]
411,70,1400,5,4,0:3:0:0:
411,70,1566,1,0,0:0:0:0:
411,70,1733,2,0,L|402:122,1,35.625001358986,0|0,0:0|0:0,0:0:0:0:
335,179,2066,2,0,P|322:145|285:113,1,71.2500027179719,2|0,0:0|0:0,0:0:0:0:
248,194,2566,1,0,0:0:0:0:
186,130,2733,6,0,P|165:160|159:204,1,71.2500027179719,2|2,0:0|0:0,0:0:0:0:
253,226,3233,1,0,0:0:0:0:
253,226,3400,2,0,L|263:312,1,71.2500027179719,2|0,0:0|0:0,0:0:0:0:
335,344,3900,1,0,0:0:0:0:
436,289,4066,6,0,L|391:283,1,35.625001358986,2|0,0:0|0:0,0:0:0:0:
342,200,4400,2,0,L|398:195,1,35.625001358986,0|0,0:0|0:0,0:0:0:0:
446,119,4733,2,0,P|415:100|365:98,1,71.2500027179719,2|0,0:0|0:0,0:0:0:0:
254,170,5400,6,0,L|263:83,1,71.2500027179719,2|2,0:0|0:0,0:0:0:0:
189,47,5900,1,0,0:0:0:0:
121,101,6066,1,2,0:0:0:0:
121,101,6400,2,0,L|127:157,1,35.625001358986,2|2,0:0|0:0,0:0:0:0:
161,258,6733,5,4,0:3:0:0:
161,258,6900,1,0,0:0:0:0:
73,215,7066,2,0,L|38:222,1,35.625001358986,0|0,0:0|0:0,0:0:0:0:
44,326,7400,2,0,P|78:336|135:331,1,71.2500027179719,2|0,0:0|0:0,0:0:0:0:
181,258,7900,1,0,0:0:0:0:
250,329,8066,6,0,P|288:319|341:321,1,71.2500027179719,2|0,0:0|0:0,0:0:0:0:
415,356,8566,1,0,0:0:0:0:
415,356,8733,2,0,L|424:273,1,71.2500027179719,2|0,0:0|0:0,0:0:0:0:
327,152,9400,5,2,0:0:0:0:
426,257,9733,1,2,0:0:0:0:
466,122,10066,1,2,0:0:0:0:
257,91,10400,6,0,P|237:131|243:192,1,95,2|0,0:0|0:0,0:0:0:0:
327,152,11233,5,0,0:0:0:0:
327,152,11316,1,0,0:0:0:0:
327,152,11400,1,8,0:0:0:0:
408,179,11566,1,8,0:0:0:0:
460,86,11733,2,0,L|466:125,1,35.625001358986,0|0,0:0|0:0,0:0:0:0:
426,257,12066,5,2,0:3:0:0:
266,329,12400,1,0,0:0:0:0:
426,257,12733,1,8,0:0:0:0:
266,329,13066,2,0,L|215:321,1,47.5,0|0,0:0|0:0,0:0:0:0:
144,221,13400,5,0,0:0:0:0:
108,371,13733,1,0,0:0:0:0:
144,221,14066,1,8,0:0:0:0:
108,371,14400,2,0,L|99:315,1,47.5,0|0,0:0|0:0,0:0:0:0:
169,225,14733,5,0,0:0:0:0:
18,245,15066,1,0,0:0:0:0:
169,225,15400,1,8,0:0:0:0:
169,225,15566,1,8,0:0:0:0:
82,158,15733,2,0,P|71:113|80:53,1,95,0|0,0:0|0:0,0:0:0:0:
225,100,16400,6,0,P|174:134|177:72,1,142.500005435944,4|0,0:0|0:0,0:0:0:0:
310,69,17233,1,0,0:0:0:0:
310,69,17316,1,0,0:0:0:0:
310,69,17400,6,0,P|315:117|290:166,1,95,2|0,0:3|0:0,0:0:0:0:
225,100,17900,1,2,0:0:0:0:
255,238,18066,2,0,P|263:192|295:158,1,95,10|0,0:0|0:0,0:0:0:0:
345,232,18566,1,2,0:0:0:0:
391,348,18733,5,2,0:0:0:0:
391,348,18900,1,0,0:0:0:0:
432,265,19066,1,2,0:0:0:0:
432,265,19233,1,0,0:0:0:0:
303,342,19400,2,0,P|256:330|193:335,1,95,10|2,0:0|0:0,0:0:0:0:
122,346,19900,1,2,0:0:0:0:
58,249,20066,6,0,P|98:260|156:255,1,95,2|0,0:0|0:0,0:0:0:0:
224,207,20566,1,2,0:0:0:0:
135,74,20733,2,0,L|149:178,1,95,10|0,0:0|0:0,0:0:0:0:
224,207,21233,1,2,0:0:0:0:
315,90,21400,5,2,0:0:0:0:
315,90,21566,1,0,0:0:0:0:
229,112,21733,1,2,0:0:0:0:
229,112,21900,1,0,0:0:0:0:
377,241,22066,2,0,P|340:223|313:178,1,95,10|0,0:0|0:0,0:0:0:0:
402,155,22566,1,0,0:0:0:0:
448,301,22733,6,0,P|399:330|346:328,1,95,6|0,0:0|0:0,0:0:0:0:
377,241,23233,1,2,0:0:0:0:
270,318,23400,2,0,P|240:306|174:308,1,95,10|0,0:0|0:0,0:0:0:0:
105,359,23900,1,2,0:0:0:0:
138,223,24066,5,2,0:0:0:0:
138,223,24233,1,0,0:0:0:0:
56,274,24400,1,2,0:0:0:0:
56,274,24566,1,0,0:0:0:0:
157,134,24733,1,10,0:0:0:0:
157,134,25066,5,2,0:0:0:0:
81,82,25233,1,2,0:0:0:0:
38,253,25400,2,0,P|29:210|34:149,1,95,2|10,0:0|0:0,0:0:0:0:
81,82,25900,1,0,0:0:0:0:
157,134,26066,2,0,P|161:178|157:201,1,47.5,10|0,0:0|0:0,0:0:0:0:
59,336,26400,6,0,B|95:330|115:297|115:297|159:353|226:326,1,190,14|2,0:0|0:0,0:0:0:0:
186,249,27233,1,0,0:0:0:0:
308,336,27400,1,10,0:0:0:0:
280,240,27566,1,2,0:0:0:0:
341,338,27733,2,0,L|394:332,1,47.5,10|0,0:0|0:0,0:0:0:0:
458,188,28066,6,0,P|410:199|357:180,1,95,2|0,0:3|0:0,0:0:0:0:
414,112,28566,1,2,0:0:0:0:
280,240,28733,2,0,L|267:139,1,95,10|0,0:0|0:0,0:0:0:0:
255,60,29233,1,2,0:0:0:0:
185,183,29400,5,2,0:0:0:0:
185,183,29566,1,0,0:0:0:0:
159,83,29733,1,2,0:0:0:0:
159,83,29900,1,0,0:0:0:0:
24,161,30066,2,0,P|68:177|96:219,1,95,10|2,0:0|0:0,0:0:0:0:
16,245,30566,1,2,0:0:0:0:
185,183,30733,6,0,L|169:289,1,95,2|0,0:0|0:0,0:0:0:0:
154,363,31233,1,2,0:0:0:0:
16,245,31400,2,0,P|45:286|96:300,1,95,10|0,0:0|0:0,0:0:0:0:
94,215,31900,1,2,0:0:0:0:
259,249,32066,5,2,0:0:0:0:
259,249,32233,1,0,0:0:0:0:
185,183,32400,1,2,0:0:0:0:
185,183,32566,1,0,0:0:0:0:
203,87,32733,1,10,0:0:0:0:
203,87,33066,5,0,0:0:0:0:
285,153,33233,1,0,0:0:0:0:
391,70,33400,6,0,P|346:60|283:66,1,95,6|0,0:0|0:0,0:0:0:0:
285,153,33900,1,2,0:0:0:0:
366,263,34066,2,0,L|383:165,1,95,10|0,0:0|0:0,0:0:0:0:
464,133,34566,1,2,0:0:0:0:
442,303,34733,2,0,P|405:341|350:349,1,95,2|0,0:0|0:0,0:0:0:0:
284,306,35233,1,2,0:0:0:0:
219,230,35400,6,0,L|134:241,1,71.25,10|0,0:0|0:0,0:0:0:0:
131,262,35733,2,0,P|126:305|127:324,1,47.5,2|0,0:0|0:0,0:0:0:0:
50,205,36066,6,0,B|43:125|43:125|74:117,1,95,6|0,0:0|0:0,0:0:0:0:
144,140,36566,1,2,0:0:0:0:
224,54,36733,2,0,B|238:57|238:57|231:137,1,95,10|0,0:0|0:0,0:0:0:0:
144,140,37233,1,2,0:0:0:0:
328,77,37400,6,0,P|377:73|428:92,1,95,2|2,0:0|0:0,0:0:0:0:
441,271,38066,5,8,0:0:0:0:
477,175,38233,1,0,0:0:0:0:
347,312,38400,2,0,L|286:306,1,47.5,0|0,0:0|0:0,0:0:0:0:
225,247,38733,6,0,L|176:263,1,47.5,2|0,0:3|0:0,0:0:0:0:
87,286,39066,2,0,L|73:234,1,47.5,0|0,0:0|0:0,0:0:0:0:
47,148,39400,2,0,L|102:132,1,47.5,8|0,0:0|0:0,0:0:0:0:
185,112,39733,2,0,L|198:166,1,47.5,0|0,0:0|0:0,0:0:0:0:
249,337,40066,5,2,0:0:0:0:
249,337,40233,1,0,0:0:0:0:
340,310,40400,1,0,0:0:0:0:
340,310,40566,2,0,P|383:309|406:313,1,47.5,2|8,0:0|0:0,0:0:0:0:
467,256,40900,1,0,0:0:0:0:
467,256,41066,2,0,L|477:195,1,47.5,2|0,0:0|0:0,0:0:0:0:
346,137,41400,6,0,L|353:196,1,47.5,0|0,0:0|0:0,0:0:0:0:
442,122,41733,2,0,L|449:71,1,47.5,0|0,0:0|0:0,0:0:0:0:
272,80,42066,2,0,P|232:90|175:84,1,95,8|0,0:0|0:0,0:0:0:0:
103,38,42566,1,0,0:0:0:0:
181,168,42733,6,0,L|170:221,1,47.5,2|0,0:0|0:0,0:0:0:0:
68,276,43066,1,0,0:0:0:0:
37,179,43233,2,0,L|93:189,1,47.5,2|8,0:0|0:0,0:0:0:0:
188,301,43566,1,0,0:0:0:0:
292,218,43733,1,2,0:0:0:0:
275,347,43900,1,0,0:0:0:0:
410,340,44066,6,0,P|381:332|346:330,1,47.5,0|0,0:0|0:0,0:0:0:0:
320,237,44400,2,0,P|357:235|373:230,1,47.5,0|0,0:0|0:0,0:0:0:0:
434,136,44733,2,0,P|403:142|383:141,1,47.5,8|0,0:0|0:0,0:0:0:0:
304,42,45066,2,0,P|341:52|361:52,1,47.5,0|0,0:0|0:0,0:0:0:0:
237,118,45400,5,2,0:0:0:0:
237,118,45566,1,0,0:0:0:0:
151,160,45733,1,0,0:0:0:0:
151,160,45900,2,0,L|141:98,1,47.5,2|8,0:0|0:0,0:0:0:0:
46,44,46233,1,0,0:0:0:0:
23,162,46400,2,0,L|82:171,1,47.5,2|0,0:0|0:0,0:0:0:0:
197,38,46733,5,2,0:0:0:0:
233,209,47066,1,2,0:0:0:0:
197,38,47400,1,10,0:0:0:0:
342,191,47733,1,2,0:0:0:0:
225,54,48066,2,0,P|273:76|332:73,1,95,2|2,0:0|0:0,0:0:0:0:
314,77,48733,6,0,P|334:71|372:67,1,47.5,10|0,0:0|0:0,0:0:0:0:
455,119,49066,1,2,0:0:0:0:
438,220,49233,1,2,0:0:0:0:
310,226,49400,6,0,P|339:193|358:179,1,47.5,2|0,0:3|0:0,0:0:0:0:
414,314,49733,2,0,P|386:308|361:307,1,47.5,0|0,0:0|0:0,0:0:0:0:
223,346,50066,1,8,0:0:0:0:
223,346,50233,1,0,0:0:0:0:
216,251,50400,1,0,0:0:0:0:
216,251,50566,1,0,0:0:0:0:
96,321,50733,6,0,L|146:304,1,47.5,2|0,0:0|0:0,0:0:0:0:
164,160,51066,1,0,0:0:0:0:
81,216,51233,2,0,L|61:169,1,47.5,2|8,0:0|0:0,0:0:0:0:
102,88,51566,1,0,0:0:0:0:
102,88,51733,2,0,L|123:39,1,47.5,2|0,0:0|0:0,0:0:0:0:
247,118,52066,6,0,P|282:112|315:115,1,47.5,0|0,0:0|0:0,0:0:0:0:
428,184,52400,2,0,P|400:192|372:193,1,47.5,0|0,0:0|0:0,0:0:0:0:
398,55,52733,2,0,L|388:121,1,47.5,8|0,0:0|0:0,0:0:0:0:
304,244,53066,2,0,L|285:187,1,47.5,0|0,0:0|0:0,0:0:0:0:
406,279,53400,5,2,0:0:0:0:
406,279,53566,1,0,0:0:0:0:
331,338,53733,1,0,0:0:0:0:
331,338,53900,2,0,L|270:336,1,47.5,2|8,0:0|0:0,0:0:0:0:
195,300,54233,1,0,0:0:0:0:
113,186,54400,1,2,0:0:0:0:
96,342,54566,1,0,0:0:0:0:
39,224,54733,6,0,P|30:196|33:162,1,47.5,0|0,0:0|0:0,0:0:0:0:
193,160,55066,2,0,P|197:187|191:220,1,47.5,0|0,0:0|0:0,0:0:0:0:
81,103,55400,2,0,P|82:78|93:45,1,47.5,8|0,0:0|0:0,0:0:0:0:
271,98,55733,1,0,0:0:0:0:
271,98,55900,1,0,0:0:0:0:
379,176,56066,6,0,L|323:173,1,47.5,2|0,0:0|0:0,0:0:0:0:
350,42,56400,1,0,0:0:0:0:
450,51,56566,2,0,L|438:107,1,47.5,2|8,0:0|0:0,0:0:0:0:
469,186,56900,1,0,0:0:0:0:
469,186,57066,2,0,L|457:242,1,47.5,2|0,0:0|0:0,0:0:0:0:
387,343,57400,6,0,P|368:315|298:300,1,95,2|0,0:0|0:0,0:0:0:0:
283,312,58066,2,0,P|248:318|223:320,1,47.5,8|0,0:0|0:0,0:0:0:0:
143,224,58400,1,2,0:0:0:0:
241,184,58566,2,0,L|231:245,1,47.5,0|2,0:0|0:0,0:0:0:0:
53,339,59066,1,2,0:0:0:0:
60,252,59233,1,0,0:0:0:0:
60,252,59316,1,0,0:0:0:0:
60,252,59400,5,10,0:0:0:0:
140,310,59566,1,10,0:0:0:0:
72,162,59733,1,2,0:0:0:0:
143,224,59900,1,0,0:0:0:0:
249,128,60066,6,0,B|210:123|210:123|190:130|190:130|155:125,1,95,12|12,0:0|0:0,0:0:0:0:
385,201,61400,6,0,L|399:93,1,95,12|12,0:0|0:0,0:0:0:0:
385,201,62733,2,0,L|399:93,1,95,12|12,0:0|0:0,0:0:0:0:
249,128,64066,6,0,B|210:123|210:123|190:130|190:130|143:124,1,95,12|12,0:0|0:0,0:0:0:0:
181,43,64566,1,0,0:0:0:0:
224,210,64733,2,0,P|227:256|227:272,1,47.5,0|0,0:0|0:0,0:0:0:0:
81,338,65066,1,0,0:0:0:0:
131,260,65233,1,0,0:0:0:0:
275,325,65400,6,0,P|234:341|179:327,1,95,12|12,0:0|0:0,0:0:0:0:
385,274,66733,6,0,L|396:174,1,95,12|12,0:0|0:0,0:0:0:0:
395,179,67400,5,0,0:0:0:0:
308,217,67566,1,0,0:0:0:0:
296,64,67733,1,0,0:0:0:0:
392,84,67900,1,0,0:0:0:0:
236,143,68066,6,0,P|192:165|133:153,1,95,4|0,0:0|0:0,0:0:0:0:
296,311,68733,2,0,L|308:209,1,95,8|0,0:0|0:0,0:0:0:0:
88,232,69400,2,0,L|105:334,1,95,0|0,0:0|0:0,0:0:0:0:
196,355,69900,1,0,0:0:0:0:
343,316,70066,2,0,P|304:311|281:311,1,47.5,8|8,0:0|0:0,0:0:0:0:
461,345,70400,1,0,0:0:0:0:
478,208,70566,1,0,0:0:0:0:
354,86,70733,6,0,B|339:114|339:114|348:191,1,95,12|12,0:0|0:0,0:0:0:0:
127,178,72066,6,0,L|231:167,1,95,12|12,0:0|0:0,0:0:0:0:
127,178,73400,2,0,L|231:167,1,95,12|12,0:0|0:0,0:0:0:0:
354,86,74733,6,0,B|339:114|339:114|348:191,1,95,12|12,0:0|0:0,0:0:0:0:
430,132,75233,1,0,0:0:0:0:
264,217,75400,2,0,P|270:258|277:278,1,47.5,8|8,0:0|0:0,0:0:0:0:
448,249,75733,1,0,0:0:0:0:
368,311,75900,1,0,0:0:0:0:
177,169,76066,6,0,P|165:215|163:263,1,95,4|0,0:0|0:0,0:0:0:0:
48,94,76733,2,0,P|66:140|71:201,1,95,8|0,0:0|0:0,0:0:0:0:
59,279,77233,1,0,0:0:0:0:
177,169,77400,6,0,L|243:177,1,47.5
262,294,77733,1,0,0:0:0:0:
369,326,77900,1,0,0:0:0:0:
369,326,77983,1,0,0:0:0:0:
369,326,78066,1,8,0:0:0:0:
356,185,78233,1,0,0:0:0:0:
475,238,78400,1,8,0:0:0:0:
475,238,78566,1,8,0:0:0:0:
352,50,78733,6,0,P|347:97|350:145,3,95,2|2|2|2,0:3|0:3|0:3|0:3,0:0:0:0:
411,322,81400,6,0,L|345:314,1,56.9999982604981,4|0,0:0|0:0,0:0:0:0:
219,344,81733,1,0,0:0:0:0:
269,149,81900,2,0,P|260:207|275:274,1,113.999996520996,0|0,0:0|0:0,0:0:0:0:
429,166,82400,1,0,0:0:0:0:
429,166,82566,2,0,P|387:173|358:171,1,56.9999982604981
248,52,82900,6,0,P|277:49|319:54,1,56.9999982604981
177,122,83233,2,0,P|143:129|118:128,1,56.9999982604981,0|8,0:0|0:0,0:0:0:0:
60,57,83566,1,0,0:0:0:0:
102,226,83733,1,0,0:0:0:0:
22,152,83900,1,0,0:0:0:0:
201,230,84066,6,0,P|247:222|331:230,2,113.999996520996,0|0|8,0:0|0:0|0:0,0:0:0:0:
176,330,84900,1,0,0:0:0:0:
323,365,85066,2,0,L|316:296,1,56.9999982604981
425,206,85400,5,0,0:0:0:0:
445,320,85566,1,0,0:0:0:0:
309,199,85733,2,0,P|315:167|324:141,1,56.9999982604981,0|0,0:0|0:0,0:0:0:0:
473,83,86066,2,0,P|444:92|408:96,1,56.9999982604981,8|8,0:0|0:0,0:0:0:0:
193,79,86400,2,0,P|223:75|266:78,1,56.9999982604981,0|0,0:0|0:0,0:0:0:0:
187,294,86733,6,0,P|182:238|154:175,2,113.999996520996,4|0|8,0:0|0:0|0:0,0:0:0:0:
110,343,87566,1,0,0:0:0:0:
28,261,87733,1,0,0:0:0:0:
78,123,87900,2,0,P|69:158|69:189,1,56.9999982604981
254,171,88233,6,0,P|222:168|176:178,1,56.9999982604981
312,250,88566,1,0,0:0:0:0:
312,250,88650,1,0,0:0:0:0:
312,250,88733,1,8,0:0:0:0:
365,114,88900,1,0,0:0:0:0:
461,222,89066,1,0,0:0:0:0:
382,194,89233,1,0,0:0:0:0:
457,28,89400,6,0,B|468:74|468:74|450:149,2,113.999996520996,0|0|8,0:0|0:0|0:0,0:0:0:0:
213,75,90400,6,0,B|248:99|295:77|295:77|340:58|379:73,1,170.999994781494,12|0,0:0|0:0,0:0:0:0:
347,210,91066,2,0,P|348:185|335:139,1,56.9999982604981,0|0,0:0|0:0,0:0:0:0:
170,181,91400,1,8,0:0:0:0:
170,181,91566,1,8,0:0:0:0:
289,283,91733,2,0,P|271:266|226:256,1,56.9999982604981,0|0,0:0|0:0,0:0:0:0:
95,347,92066,6,0,B|82:303|81:270|81:270|104:271|126:260,1,113.999996520996,4|0,0:0|0:0,0:0:0:0:
170,181,92566,1,0,0:0:0:0:
104,72,92733,2,0,P|88:126|87:198,1,113.999996520996,8|0,0:0|0:0,0:0:0:0:
193,176,93233,1,0,0:0:0:0:
282,53,93400,6,0,L|213:41,1,56.9999982604981
308,159,93733,2,0,L|371:152,1,56.9999982604981,0|0,0:0|0:0,0:0:0:0:
449,58,94066,2,0,B|434:86|445:113|445:113|461:145|449:183,1,113.999996520996,8|0,0:0|0:0,0:0:0:0:
364,152,94566,1,0,0:0:0:0:
466,267,94733,5,0,0:0:0:0:
449,300,95066,2,0,L|391:316,1,56.9999982604981,0|0,0:0|0:0,0:0:0:0:
287,227,95400,2,0,L|352:239,1,56.9999982604981,8|0,0:0|0:0,0:0:0:0:
313,358,95733,2,0,L|246:344,1,56.9999982604981
186,219,96066,5,0,0:0:0:0:
134,343,96233,1,0,0:0:0:0:
66,220,96400,2,0,P|59:178|60:143,1,56.9999982604981,0|0,0:0|0:0,0:0:0:0:
210,79,96733,1,8,0:0:0:0:
83,65,96900,1,0,0:0:0:0:
161,198,97066,2,0,P|153:172|151:136,1,56.9999982604981,0|0,0:0|0:0,0:0:0:0:
294,36,97400,6,0,B|311:77|299:113|299:113|319:134|346:137,1,113.999996520996,4|0,0:0|0:0,0:0:0:0:
350,142,98066,1,8,0:0:0:0:
494,89,98233,1,8,0:0:0:0:
397,20,98400,2,0,P|397:48|405:76,1,56.9999982604981,0|0,0:0|0:0,0:0:0:0:
461,208,98733,6,0,P|454:251|419:321,3,113.999996520996,0|0|0|0,0:0|0:0|0:0|0:0,0:0:0:0:
411,80,108066,6,0,B|406:111|406:111|412:137|412:137|405:166|405:166|412:194|412:194|406:219|406:219|414:246,1,166.25,8|0,0:0|0:0,0:0:0:0:
431,285,108733,1,8,0:0:0:0:
324,200,108900,2,0,P|296:192|263:194,1,47.5,8|0,0:0|0:0,0:0:0:0:
194,318,109233,1,0,0:0:0:0:
194,318,109400,2,0,L|185:265,1,47.5,8|0,0:0|0:0,0:0:0:0:
101,168,109733,2,0,L|91:235,1,47.5,0|0,0:0|0:0,0:0:0:0:
91,238,109983,1,0,0:0:0:0:
88,261,110066,5,8,0:0:0:0:
189,177,110233,1,8,0:0:0:0:
17,125,110400,2,0,L|21:185,1,47.5,0|0,0:0|0:0,0:0:0:0:
276,188,110733,6,0,B|280:140|233:102|233:102|281:114|318:103|318:103|346:114|374:103|374:103|402:114|451:101|451:101|410:152|430:200|430:200|455:236|457:283|437:314|405:333,1,570,2|0,0:3|0:0,0:0:0:0:
358,256,112900,1,0,0:0:0:0:
231,323,113066,1,0,0:0:0:0:
320,338,113233,1,0,0:0:0:0:
139,310,113400,6,0,L|151:260,1,47.5,4|0,0:0|0:0,0:0:0:0:
40,255,113733,2,0,L|47:317,1,47.5,0|0,0:0|0:0,0:0:0:0:
104,187,114066,1,8,0:0:0:0:
104,187,114233,2,0,P|112:152|106:84,1,95,0|0,0:0|0:0,0:0:0:0:
213,42,114733,1,2,0:0:0:0:
213,42,114900,1,0,0:0:0:0:
263,122,115066,1,0,0:0:0:0:
263,122,115233,2,0,L|326:117,1,47.5,2|8,0:0|0:0,0:0:0:0:
405,114,115566,1,0,0:0:0:0:
388,238,115733,1,2,0:0:0:0:
432,123,115900,1,0,0:0:0:0:
463,277,116066,6,0,P|465:309|464:333,1,47.5,0|0,0:0|0:0,0:0:0:0:
368,344,116400,2,0,L|319:337,1,47.5,0|0,0:0|0:0,0:0:0:0:
241,284,116733,1,8,0:0:0:0:
241,284,116900,1,0,0:0:0:0:
165,341,117066,1,0,0:0:0:0:
165,341,117233,1,0,0:0:0:0:
165,205,117400,2,0,L|158:258,1,47.5,2|0,0:0|0:0,0:0:0:0:
66,349,117733,1,0,0:0:0:0:
23,246,117900,2,0,L|76:263,1,47.5,2|8,0:0|0:0,0:0:0:0:
132,124,118233,1,0,0:0:0:0:
132,124,118400,2,0,P|100:131|64:132,1,47.5,2|0,0:0|0:0,0:0:0:0:
207,47,118733,5,2,0:0:0:0:
281,192,119066,1,2,0:0:0:0:
415,83,119400,2,0,P|369:77|302:90,1,95,10|2,0:0|0:0,0:0:0:0:
435,273,120066,2,0,L|455:172,1,95,2|2,0:0|0:0,0:0:0:0:
320,310,120733,5,10,0:0:0:0:
225,322,120900,1,10,0:0:0:0:
179,239,121066,1,2,0:0:0:0:
237,163,121233,1,0,0:0:0:0:
360,221,121400,6,0,L|307:216,1,47.5,2|0,0:3|0:0,0:0:0:0:
246,134,121733,2,0,L|260:75,1,47.5,0|0,0:0|0:0,0:0:0:0:
394,93,122066,1,8,0:0:0:0:
394,93,122233,1,0,0:0:0:0:
447,171,122400,1,0,0:0:0:0:
447,171,122566,1,0,0:0:0:0:
359,268,122733,6,0,L|360:216,1,47.5,2|0,0:0|0:0,0:0:0:0:
462,258,123066,1,0,0:0:0:0:
395,344,123233,2,0,P|367:352|339:350,1,47.5,2|8,0:0|0:0,0:0:0:0:
272,295,123566,1,0,0:0:0:0:
272,295,123733,2,0,P|236:289|211:290,1,47.5,2|0,0:0|0:0,0:0:0:0:
75,342,124066,6,0,P|111:343|138:338,1,47.5,0|0,0:0|0:0,0:0:0:0:
145,230,124400,2,0,P|120:230|90:221,1,47.5,0|0,0:0|0:0,0:0:0:0:
56,122,124733,2,0,P|84:117|116:117,1,47.5,8|0,0:0|0:0,0:0:0:0:
201,44,125066,2,0,P|173:44|148:36,1,47.5,0|0,0:0|0:0,0:0:0:0:
303,36,125400,5,2,0:0:0:0:
303,36,125566,1,0,0:0:0:0:
379,91,125733,1,0,0:0:0:0:
305,174,125900,2,0,L|298:123,1,47.5,2|8,0:0|0:0,0:0:0:0:
402,84,126233,1,0,0:0:0:0:
455,187,126400,2,0,L|405:179,1,47.5,2|0,0:0|0:0,0:0:0:0:
309,275,126733,6,0,L|364:261,1,47.5,0|0,0:0|0:0,0:0:0:0:
456,286,127066,2,0,L|434:349,1,47.5,0|0,0:0|0:0,0:0:0:0:
226,333,127400,2,0,L|166:325,1,47.5,8|0,0:0|0:0,0:0:0:0:
85,307,127733,2,0,L|71:248,1,47.5,0|0,0:0|0:0,0:0:0:0:
192,176,128066,5,2,0:0:0:0:
192,176,128233,1,0,0:0:0:0:
96,171,128400,1,0,0:0:0:0:
96,171,128566,2,0,P|91:141|88:117,1,47.5,2|8,0:0|0:0,0:0:0:0:
275,75,129066,2,0,P|246:83|225:83,1,47.5,2|0,0:0|0:0,0:0:0:0:
352,35,129400,6,0,P|407:30|470:41,1,95,2|0,0:0|0:0,0:0:0:0:
475,125,129900,1,2,0:0:0:0:
359,182,130066,2,0,L|372:124,1,47.5,8|0,0:0|0:0,0:0:0:0:
478,148,130400,1,2,0:0:0:0:
452,287,130566,2,0,L|444:229,1,47.5,0|2,0:0|0:0,0:0:0:0:
217,284,131066,5,2,0:0:0:0:
245,299,131400,2,0,L|299:308,1,47.5,10|8,0:0|0:0,0:0:0:0:
154,348,131733,2,0,L|102:355,1,47.5,2|2,0:0|0:0,0:0:0:0:
150,226,132066,6,0,P|145:181|153:113,2,95,2|0|10,0:3|0:0|0:0,0:0:0:0:
334,273,133066,1,0,0:0:0:0:
334,273,133233,2,0,P|353:229|365:170,1,95,0|0,0:0|0:0,0:0:0:0:
267,120,133733,2,0,L|270:171,1,47.5,2|0,0:0|0:0,0:0:0:0:
449,198,134066,2,0,P|450:141|439:96,1,95,10|0,0:0|0:0,0:0:0:0:
351,62,134566,6,0,P|292:73|253:73,1,95,0|0,0:0|0:0,0:0:0:0:
172,29,135066,2,0,L|164:100,1,47.5,0|0,0:0|0:0,0:0:0:0:
100,180,135400,2,0,P|78:126|79:80,1,95,10|0,0:0|0:0,0:0:0:0:
166,97,135900,1,0,0:0:0:0:
253,182,136066,2,0,L|201:184,1,47.5,2|0,0:0|0:0,0:0:0:0:
147,270,136400,2,0,L|202:275,1,47.5,2|0,0:0|0:0,0:0:0:0:
329,309,136733,6,0,L|273:319,1,47.5,10|0,0:0|0:0,0:0:0:0:
428,345,137066,2,0,L|487:334,1,47.5,10|0,0:0|0:0,0:0:0:0:
404,250,137400,2,0,P|401:196|414:137,1,95,2|0,0:0|0:0,0:0:0:0:
407,155,138066,1,10,0:0:0:0:
249,47,138400,1,0,0:0:0:0:
249,47,138733,2,0,P|256:88|257:113,1,47.5,2|0,0:0|0:0,0:0:0:0:
300,220,139066,2,0,P|304:191|313:161,1,47.5,2|0,0:0|0:0,0:0:0:0:
396,68,139400,5,10,0:0:0:0:
407,155,139566,1,8,0:0:0:0:
451,286,139733,1,2,0:0:0:0:
483,205,139900,1,2,0:0:0:0:
342,283,140066,6,0,P|291:272|230:279,1,95,6|0,0:0|0:0,0:0:0:0:
170,329,140566,1,0,0:0:0:0:
79,357,140733,2,0,P|90:313|82:258,1,95,10|0,0:0|0:0,0:0:0:0:
33,93,141400,6,0,P|25:142|38:195,1,95,2|2,0:0|0:0,0:0:0:0:
110,240,141900,1,0,0:0:0:0:
194,123,142066,1,10,0:0:0:0:
225,244,142233,1,8,0:0:0:0:
348,159,142400,2,0,P|303:158|275:164,1,47.5,2|0,0:0|0:0,0:0:0:0:
243,275,142733,5,2,0:3:0:0:
432,271,143066,1,0,0:0:0:0:
243,275,143400,1,10,0:0:0:0:
448,174,143733,5,0,0:0:0:0:
448,174,143900,2,0,P|455:131|458:57,1,95,0|0,0:0|0:0,0:0:0:0:
365,57,144400,2,0,P|334:74|316:82,1,47.5,2|0,0:0|0:0,0:0:0:0:
248,137,144733,2,0,P|210:126|149:124,1,95,10|0,0:0|0:0,0:0:0:0:
99,200,145233,2,0,L|110:266,1,47.5,0|2,0:0|0:0,0:0:0:0:
286,311,145733,6,0,L|297:259,1,47.5
396,191,146066,2,0,P|392:251|398:294,1,95,10|0,0:0|0:0,0:0:0:0:
472,149,146566,2,0,P|437:117|378:107,1,95,0|0,0:0|0:0,0:0:0:0:
305,173,147066,2,0,P|274:180|244:181,1,47.5,2|0,0:0|0:0,0:0:0:0:
234,178,147316,1,0,0:0:0:0:
210,171,147400,1,10,0:0:0:0:
260,86,147566,1,0,0:0:0:0:
396,191,147733,2,0,L|384:248,1,47.5,2|0,0:0|0:0,0:0:0:0:
169,355,148066,6,0,P|167:304|142:251,2,95,2|0|10,0:0|0:0|0:0,0:0:0:0:
25,325,149066,2,0,P|49:326|86:322,1,47.5
89,190,149400,5,10,0:0:0:0:
89,190,149566,2,0,P|81:145|82:132,1,47.5,0|0,0:0|0:0,0:0:0:0:
167,72,149900,1,2,0:0:0:0:
282,167,150066,2,0,P|242:160|179:169,1,95,10|0,0:0|0:0,0:0:0:0:
211,266,150566,1,0,0:0:0:0:
354,338,150733,6,0,P|344:294|340:260,1,71.25,2|0,0:3|0:0,0:0:0:0:
387,259,151066,2,0,P|396:223|400:184,1,71.25,2|0,0:3|0:0,0:0:0:0:
392,141,151400,1,2,0:3:0:0:
317,82,151566,1,0,0:0:0:0:
241,139,151733,1,2,0:3:0:0:
251,262,151900,1,0,0:0:0:0:
206,118,152066,6,0,P|165:114|107:123,1,95,0|0,0:0|0:0,0:0:0:0:
78,210,152566,1,0,0:0:0:0:
154,288,152733,2,0,L|160:227,1,47.5,0|0,0:0|0:0,0:0:0:0:
18,271,153066,2,0,L|30:330,1,47.5,0|0,0:0|0:0,0:0:0:0:
241,357,153400,6,0,P|293:349|340:299,1,113.999996520996,4|0,0:0|0:0,0:0:0:0:
251,262,153900,1,0,0:0:0:0:
428,332,154066,2,0,L|415:212,1,113.999996520996,8|0,0:0|0:0,0:0:0:0:
487,147,154566,1,0,0:0:0:0:
319,177,154733,6,0,P|314:147|320:106,2,56.9999982604981
445,65,155233,2,0,L|383:58,1,56.9999982604981,0|8,0:0|0:0,0:0:0:0:
221,136,155566,1,0,0:0:0:0:
221,136,155733,2,0,P|221:104|212:67,1,56.9999982604981,0|0,0:0|0:0,0:0:0:0:
47,178,156066,6,0,P|101:173|164:209,2,113.999996520996,0|0|8,0:0|0:0|0:0,0:0:0:0:
86,265,156900,1,0,0:0:0:0:
186,342,157066,2,0,L|178:268,1,56.9999982604981
319,177,157400,5,0,0:0:0:0:
294,273,157566,1,0,0:0:0:0:
221,136,157733,2,0,P|212:99|214:69,1,56.9999982604981,0|0,0:0|0:0,0:0:0:0:
370,70,158066,2,0,L|312:58,1,56.9999982604981,8|8,0:0|0:0,0:0:0:0:
319,177,158400,2,0,L|390:167,1,56.9999982604981,0|0,0:0|0:0,0:0:0:0:
402,294,158733,6,0,P|343:270|277:277,2,113.999996520996,4|0|8,0:0|0:0|0:0,0:0:0:0:
168,347,159733,1,0,0:0:0:0:
204,205,159900,2,0,L|200:267,1,56.9999982604981
77,326,160233,6,0,P|68:295|67:259,1,56.9999982604981
209,172,160566,2,0,L|213:107,1,56.9999982604981,0|8,0:0|0:0,0:0:0:0:
92,54,160900,1,0,0:0:0:0:
41,175,161066,2,0,L|114:163,1,56.9999982604981,0|0,0:0|0:0,0:0:0:0:
287,58,161400,6,0,B|309:92|306:130|306:130|325:144|360:147,2,113.999996520996,0|0|8,0:0|0:0|0:0,0:0:0:0:
440,111,162400,6,0,L|408:293,1,170.999994781494,12|0,0:0|0:0,0:0:0:0:
335,331,163066,2,0,P|306:304|286:265,1,56.9999982604981,0|0,0:0|0:0,0:0:0:0:
307,130,163400,1,8,0:0:0:0:
307,130,163566,1,8,0:0:0:0:
196,263,163733,1,0,0:0:0:0:
196,263,163900,1,0,0:0:0:0:
69,149,164066,6,0,L|193:140,1,113.999996520996,4|0,0:0|0:0,0:0:0:0:
252,196,164566,1,0,0:0:0:0:
123,307,164733,2,0,P|112:279|114:234,1,56.9999982604981,8|0,0:0|0:0,0:0:0:0:
252,196,165066,2,0,P|272:219|282:263,1,56.9999982604981
204,350,165400,5,0,0:0:0:0:
182,140,165733,1,0,0:0:0:0:
382,245,166066,1,8,0:0:0:0:
204,350,166400,1,0,0:0:0:0:
182,140,166733,6,0,P|191:107|259:45,1,113.999996520996,0|0,0:0|0:0,0:0:0:0:
336,49,167233,1,0,0:0:0:0:
343,189,167400,2,0,L|273:172,1,56.9999982604981,8|0,0:0|0:0,0:0:0:0:
280,302,167733,2,0,L|338:294,1,56.9999982604981
201,259,168066,6,0,B|186:294|190:323|190:323|158:337|126:335,1,113.999996520996
60,297,168566,2,0,P|49:270|45:227,2,56.9999982604981,0|8|0,0:0|0:0|0:0,0:0:0:0:
216,237,169066,1,0,0:0:0:0:
131,184,169233,1,0,0:0:0:0:
316,213,169400,6,0,P|316:170|343:88,2,113.999996520996,4|0|8,0:0|0:0|0:0,0:0:0:0:
377,280,170233,1,8,0:0:0:0:
466,194,170400,2,0,L|395:195,1,56.9999982604981,0|0,0:0|0:0,0:0:0:0:
436,353,170733,5,4,0:0:0:0:
436,353,170900,1,0,0:0:0:0:
279,304,171066,1,0,0:0:0:0:
279,304,171233,2,0,P|250:317|205:317,1,56.9999982604981,0|0,0:0|0:0,0:0:0:0:
124,182,171566,1,0,0:0:0:0:
108,336,171733,1,8,0:0:0:0:
37,245,171900,1,8,0:0:0:0:
227,231,172066,6,0,L|240:156,1,56.9999982604981,4|0,0:3|0:0,0:0:0:0:
115,125,172400,2,0,L|124:188,1,56.9999982604981,0|0,0:0|0:0,0:0:0:0:
331,203,172733,2,0,P|366:187|426:185,1,85.4999973907472,10|0,0:0|0:0,0:0:0:0:
457,193,173066,1,0,0:0:0:0:
388,325,173233,2,0,L|393:256,1,56.9999982604981,0|10,0:0|0:0,0:0:0:0:
279,304,173566,5,0,0:0:0:0:
475,344,173733,1,0,0:0:0:0:
265,332,173900,2,0,P|222:342|186:342,1,56.9999982604981,2|8,0:0|0:0,0:0:0:0:
159,208,174233,2,0,P|143:247|132:265,2,56.9999982604981,0|2|0,0:0|0:0|0:0,0:0:0:0:
75,68,174733,6,0,P|122:86|209:82,1,113.999996520996,14|0,0:0|0:3,0:0:0:0:
419,77,175400,2,0,P|359:75|292:101,1,113.999996520996,10|0,0:0|0:0,0:0:0:0:
241,176,175900,1,0,0:0:0:0:
421,238,176066,6,0,L|438:169,2,56.9999982604981,10|0|0,0:0|0:0|0:0,0:0:0:0:
311,326,176566,2,0,P|306:288|296:256,1,56.9999982604981,2|8,0:0|0:0,0:0:0:0:
166,254,176900,1,0,0:0:0:0:
339,181,177066,1,0,0:0:0:0:
185,87,177233,1,0,0:0:0:0:
92,313,177400,6,0,P|75:267|86:203,2,113.999996520996,4|0|10,0:3|0:0|0:0,0:0:0:0:
87,100,178400,1,0,0:0:0:0:
87,100,178483,1,0,0:0:0:0:
87,100,178566,2,0,L|146:113,1,56.9999982604981,0|10,0:0|0:0,0:0:0:0:
280,144,178900,5,0,0:0:0:0:
197,39,179066,1,0,0:0:0:0:
359,169,179233,2,0,P|363:140|354:106,1,56.9999982604981,2|8,0:0|0:0,0:0:0:0:
199,182,179566,1,0,0:0:0:0:
337,258,179733,1,2,0:0:0:0:
280,144,179900,1,0,0:0:0:0:
191,319,180066,6,0,L|198:199,1,113.999996520996,14|0,0:0|0:0,0:0:0:0:
109,153,180566,1,0,0:0:0:0:
37,269,180733,2,0,B|109:251|109:251|107:299,1,113.999996520996,10|0,0:0|0:0,0:0:0:0:
27,175,181233,1,0,0:0:0:0:
150,75,181400,6,0,P|113:66|71:75,1,56.9999982604981,10|0,0:0|0:0,0:0:0:0:
241,107,181733,2,0,P|293:124|356:113,1,113.999996520996,0|8,0:0|0:0,0:0:0:0:
376,94,182400,1,2,0:0:0:0:
454,181,182566,1,2,0:0:0:0:
355,257,182733,5,4,0:3:0:0:
454,181,182900,1,0,0:0:0:0:
346,233,183066,1,0,0:0:0:0:
476,306,183233,1,0,0:0:0:0:
236,275,183400,2,0,P|198:277|151:271,1,85.4999973907472,10|0,0:0|0:0,0:0:0:0:
114,242,183733,2,0,L|124:165,1,56.9999982604981
49,322,184066,5,10,0:0:0:0:
19,189,184233,1,0,0:0:0:0:
220,169,184400,1,0,0:0:0:0:
64,112,184566,2,0,P|56:79|56:43,1,56.9999982604981,2|8,0:0|0:0,0:0:0:0:
182,46,184900,1,0,0:0:0:0:
250,171,185066,2,0,L|317:156,1,56.9999982604981,2|0,0:0|0:0,0:0:0:0:
422,52,185400,5,14,0:0:0:0:
398,307,185733,1,0,0:0:0:0:
446,79,186066,2,0,P|465:140|457:198,1,113.999996520996,10|0,0:0|0:0,0:0:0:0:
304,197,186566,2,0,P|337:201|381:221,1,56.9999982604981,0|10,0:0|0:0,0:0:0:0:
303,340,186900,1,0,0:0:0:0:
163,264,187066,1,0,0:0:0:0:
310,140,187233,2,0,L|302:206,1,56.9999982604981,2|8,0:0|0:0,0:0:0:0:
153,231,187566,5,0,0:0:0:0:
216,72,187733,1,10,0:0:0:0:
63,176,187900,2,0,P|52:147|50:104,1,56.9999982604981,10|4,0:0|0:3,0:0:0:0:
397,66,188400,5,0,0:0:0:0:
397,66,188733,2,0,L|382:189,1,113.999996520996,10|0,0:0|0:0,0:0:0:0:
424,260,189233,2,0,P|376:232|303:252,1,113.999996520996,8|10,0:0|0:0,0:0:0:0:
244,291,189733,2,0,P|202:310|173:310,1,56.9999982604981,2|2,0:0|0:0,0:0:0:0:
110,271,190066,6,0,P|104:245|112:185,1,76,0|0,0:0|0:0,0:0:0:0:
291,76,190733,6,0,L|347:89,2,47.5,4|0|0,0:0|0:0|0:0,0:0:0:0:
199,125,191233,1,0,0:0:0:0:
88,66,191400,2,0,P|94:118|87:176,1,95,8|0,0:0|0:0,0:0:0:0:
244,301,192066,6,0,L|189:305,2,47.5,0|0|0,0:0|0:0|0:0,0:0:0:0:
340,355,192566,1,0,0:0:0:0:
454,332,192733,2,0,P|444:281|454:229,1,95,8|0,0:0|0:0,0:0:0:0:
377,61,193400,6,0,P|373:97|368:123,1,47.5,0|0,0:0|0:0,0:0:0:0:
296,153,193733,2,0,L|241:144,1,47.5,0|0,0:0|0:0,0:0:0:0:
162,195,194066,2,0,P|150:159|160:97,1,95,8|0,0:0|0:0,0:0:0:0:
375,197,194733,5,0,0:0:0:0:
375,197,195066,1,0,0:0:0:0:
205,328,195400,1,8,0:0:0:0:
205,328,195733,2,0,P|207:301|221:270,1,47.5,8|8,0:0|0:0,0:0:0:0:
333,289,196066,6,0,P|340:316|338:346,2,47.5,4|0|0,0:0|0:0|0:0,0:0:0:0:
279,198,196566,1,0,0:0:0:0:
119,270,196733,2,0,P|74:283|13:282,1,95,8|0,0:0|0:0,0:0:0:0:
144,55,197400,5,0,0:0:0:0:
144,55,197566,1,0,0:0:0:0:
246,98,197733,2,0,L|300:91,1,47.5,0|0,0:0|0:0,0:0:0:0:
386,29,198066,2,0,L|375:138,1,95,8|0,0:0|0:0,0:0:0:0:
442,192,198566,1,0,0:0:0:0:
306,193,198733,6,0,P|302:248|306:300,1,95,0|0,0:0|0:0,0:0:0:0:
400,333,199233,1,0,0:0:0:0:
218,330,199400,2,0,P|178:340|111:341,1,95,8|0,0:0|0:0,0:0:0:0:
54,265,199900,1,0,0:0:0:0:
164,183,200066,6,0,L|156:239,2,47.5,0|0|0,0:0|0:0|0:0,0:0:0:0:
78,115,200566,1,0,0:0:0:0:
254,127,200733,2,0,P|258:173|285:226,1,95,8|0,0:0|0:0,0:0:0:0:
381,238,201233,1,8,0:0:0:0:
465,90,201400,6,0,P|424:99|381:99,1,71.25,6|0,0:0|0:0,0:0:0:0:
356,94,201733,1,0,0:0:0:0:
471,187,201900,2,0,L|462:275,1,71.25,2|0,0:0|0:0,0:0:0:0:
461,295,202233,1,0,0:0:0:0:
296,339,202400,2,0,P|267:331|220:331,1,71.25,2|0,0:0|0:0,0:0:0:0:
188,334,202733,1,0,0:0:0:0:
81,213,202900,2,0,P|126:224|186:215,1,95,2|0,0:0|0:0,0:0:0:0:
229,63,203400,6,0,L|236:122,1,47.5,10|8,0:0|0:0,0:0:0:0:
124,109,203733,1,2,0:0:0:0:
266,194,203900,1,2,0:0:0:0:
375,38,204066,6,0,B|350:65|350:65|344:117,1,71.25,10|0,0:0|0:0,0:0:0:0:
343,137,204400,1,0,0:0:0:0:
501,134,204566,2,0,B|468:133|468:133|423:181,1,95,2|0,0:0|0:0,0:0:0:0:
462,305,205066,1,2,0:0:0:0:
462,305,205233,1,0,0:0:0:0:
328,248,205400,6,0,P|336:293|314:345,1,95,10|2,0:0|0:0,0:0:0:0:
212,348,205900,1,0,0:0:0:0:
212,215,206066,2,2,P|166:230|114:219,1,95,10|10,0:0|0:0,0:0:0:0:
74,128,206566,1,2,0:0:0:0:
237,67,206733,6,0,L|224:126,1,47.5,12|0,0:0|0:0,0:0:0:0:
76,106,207066,2,0,L|90:47,1,47.5,12|0,0:0|0:0,0:0:0:0:
168,19,207400,1,0,0:0:0:0:
120,222,207733,1,0,0:0:0:0:
348,67,208066,6,0,L|356:131,1,47.5,12|0,0:0|0:0,0:0:0:0:
501,143,208400,2,0,L|494:84,1,47.5,12|0,0:0|0:0,0:0:0:0:
434,26,208733,1,0,0:0:0:0:
494,227,209066,6,0,B|458:227|438:204|438:204|402:205|376:235|376:235|347:217|294:217|271:263|288:311,1,285,12|0,0:0|0:0,0:0:0:0:
126,325,214066,5,8,0:0:0:0:
100,147,214233,1,8,0:0:0:0:
219,216,214400,2,0,P|185:227|152:226,1,47.5,0|0,0:0|0:0,0:0:0:0:
143,46,214733,6,0,P|206:42|265:68,2,113.999996520996,4|0|8,0:0|0:0|0:0,0:0:0:0:
100,147,215566,1,0,0:1:0:0:
308,269,215733,2,0,L|324:135,1,113.999996520996,0|0,0:0|0:0,0:0:0:0:
437,86,216233,5,0,0:0:0:0:
473,227,216400,2,0,P|437:223|404:230,1,56.9999982604981,0|0,0:0|0:0,0:0:0:0:
306,363,216733,1,8,0:0:0:0:
443,311,216900,1,8,0:0:0:0:
225,277,217066,1,0,0:0:0:0:
352,287,217233,1,0,0:0:0:0:
156,219,217400,6,0,P|136:272|153:332,2,113.999996520996,4|0|8,0:0|0:0|0:0,0:0:0:0:
225,277,218233,1,0,0:0:0:0:
54,249,218400,1,0,0:0:0:0:
191,77,218566,2,0,P|186:109|171:145,1,56.9999982604981
31,154,218900,6,0,P|61:148|91:151,1,56.9999982604981
241,195,219233,2,0,P|278:205|311:206,1,56.9999982604981,0|8,0:0|0:0,0:0:0:0:
392,108,219566,1,0,0:0:0:0:
401,263,219733,2,0,L|396:194,1,56.9999982604981,0|0,0:0|0:0,0:0:0:0:
488,73,220066,5,0,0:0:0:0:
296,206,220400,2,0,P|286:161|292:105,1,85.4999973907472,0|0,0:0|0:0,0:0:0:0:
295,77,220733,1,8,0:0:0:0:
471,316,221066,6,0,B|425:298|387:318|387:318|342:340|294:314,1,170.999994781494,12|0,0:0|0:0,0:0:0:0:
360,186,221733,2,0,P|356:216|337:258,1,56.9999982604981,0|0,0:0|0:0,0:0:0:0:
208,323,222066,1,8,0:0:0:0:
158,177,222233,1,8,0:0:0:0:
67,336,222400,2,0,P|73:300|84:267,1,56.9999982604981,0|0,0:0|0:0,0:0:0:0:
213,114,222733,2,0,P|162:95|90:127,1,113.999996520996,4|0,0:0|0:0,0:0:0:0:
360,158,223400,5,8,0:0:0:0:
158,177,223733,1,0,0:0:0:0:
381,274,224066,1,0,0:0:0:0:
430,50,224400,1,0,0:0:0:0:
357,307,224733,6,0,P|316:299|229:310,1,113.999996520996,8|0,0:0|0:0,0:0:0:0:
47,163,225400,2,0,P|98:179|172:172,1,113.999996520996
329,42,226066,6,0,L|309:171,1,113.999996520996,8|0,0:0|0:0,0:0:0:0:
224,105,226566,1,0,0:0:0:0:
415,114,226733,2,0,P|424:153|425:190,1,56.9999982604981
297,246,227066,1,0,0:0:0:0:
459,273,227233,2,0,P|467:313|465:348,1,56.9999982604981,0|8,0:0|0:0,0:0:0:0:
285,278,227566,2,0,P|245:297|164:298,1,113.999996520996
119,176,228066,5,4,0:0:0:0:
95,353,228400,1,0,0:0:0:0:
119,176,228733,2,0,L|106:111,1,56.9999982604981,8|8,0:0|0:0,0:0:0:0:
221,52,229066,2,0,L|214:124,1,56.9999982604981,0|0,0:0|0:0,0:0:0:0:
56,28,229400,6,0,P|104:42|147:37,1,85.4999973907472,8|0,0:0|0:0,0:0:0:0:
309,26,229733,2,0,L|296:155,1,113.999996520996,12|0,0:0|0:0,0:0:0:0:
449,251,230400,5,0,0:0:0:0:
449,251,230566,1,0,0:0:0:0:
449,251,230733,5,4,0:3:0:0:
382,183,230900,1,0,0:0:0:0:
300,230,231066,1,0,0:0:0:0:
302,325,231233,1,0,0:0:0:0:
268,235,231400,2,0,P|235:227|209:227,1,47.5,2|0,0:0|0:0,0:0:0:0:
147,286,231733,1,0,0:0:0:0:
147,286,231900,1,0,0:0:0:0:
69,340,232066,6,0,P|53:295|62:239,1,95,0|0,0:0|0:0,0:0:0:0:
130,186,232566,1,0,0:0:0:0:
130,186,232733,1,0,0:0:0:0:
419,62,233066,5,0,0:0:0:0:
419,62,233233,1,0,0:0:0:0:
419,62,233400,5,2,0:0:0:0:
453,150,233566,1,0,0:0:0:0:
374,203,233733,1,0,0:0:0:0:
296,147,233900,1,0,0:0:0:0:
320,54,234066,2,0,P|274:54|226:83,1,95,2|0,0:0|0:0,0:0:0:0:
167,252,234733,6,0,P|178:204|164:145,1,95,0|0,0:0|0:0,0:0:0:0:
89,109,235233,1,0,0:0:0:0:
89,109,235400,1,0,0:0:0:0:
88,337,235733,5,0,0:0:0:0:
88,337,235900,1,0,0:0:0:0:
88,337,236066,5,4,0:3:0:0:
182,325,236233,1,0,0:0:0:0:
276,311,236400,1,0,0:0:0:0:
369,299,236566,1,0,0:0:0:0:
454,340,236733,2,0,L|470:231,1,95,2|0,0:0|0:0,0:0:0:0:
421,162,237233,1,0,0:0:0:0:
338,114,237400,2,0,P|326:162|343:218,1,95,2|0,0:0|0:0,0:0:0:0:
421,162,237900,1,0,0:0:0:0:
422,67,238066,2,0,P|391:34|325:25,1,95,2|0,0:0|0:0,0:0:0:0:
219,217,238733,5,2,0:0:0:0:
184,30,239066,1,2,0:0:0:0:
39,154,239400,1,2,0:0:0:0:
219,217,239733,1,2,0:0:0:0:
256,192,239900,12,0,242566,0:0:0:0:
