osu file format v14

[General]
AudioFilename: audio.mp3
AudioLeadIn: 0
PreviewTime: 170733
Countdown: 0
SampleSet: Soft
StackLeniency: 0.7
Mode: 0
LetterboxInBreaks: 0
WidescreenStoryboard: 0

[Editor]
Bookmarks: 135066
DistanceSpacing: 0.4
BeatDivisor: 4
GridSize: 4
TimelineZoom: 2.1

[Metadata]
Title:Orange
TitleUnicode:オレンジ
Artist:YuukaNeko
ArtistUnicode:佑可猫
Creator:kanor
Version:Hard
Source:
Tags:初音ミク トーマ がっちゃん がっちゃん アザレアの心臓 touma heart of azalea no shinzou 猫大可 Lobelia
BeatmapID:1411928
BeatmapSetID:639749

[Difficulty]
HPDrainRate:5
CircleSize:3.6
OverallDifficulty:6
ApproachRate:8
SliderMultiplier:1.8
SliderTickRate:1

[Events]
//Background and Video events
0,0,"BG.jpg",0,0
//Break Periods
2,100266,107241
2,209932,213241
//Storyboard Layer 0 (Background)
//Storyboard Layer 1 (Fail)
//Storyboard Layer 2 (Pass)
//Storyboard Layer 3 (Foreground)
//Storyboard Sound Samples

[TimingPoints]
1400,666.666666666667,4,2,2,20,1,0
10400,-142.857142857143,4,2,2,30,0,1
11233,-142.857142857143,4,2,1,30,0,0
12066,-111.111111111111,4,2,1,30,0,0
16400,-142.857142857143,4,2,1,30,0,0
17400,-100,4,2,1,30,0,0
81400,-83.3333333333333,4,2,1,40,0,1
98400,-83.3333333333333,4,2,1,40,0,0
108066,-83.3333333333333,4,2,1,30,0,0
110733,-142.857142857143,4,2,1,40,0,0
112733,-100,4,2,1,40,0,0
150900,-100,4,2,1,10,0,0
151066,-100,4,2,1,30,0,0
151233,-100,4,2,1,10,0,0
151400,-100,4,2,1,30,0,0
151566,-100,4,2,1,10,0,0
151733,-100,4,2,1,30,0,0
151900,-100,4,2,1,10,0,0
152066,-100,4,2,1,30,0,0
153400,-83.3333333333333,4,2,1,40,0,1
170733,-142.857142857143,4,2,1,40,0,0
172066,-83.3333333333334,4,2,1,40,0,1
190066,-125,4,2,1,40,0,0
190733,-100,4,2,1,40,0,0
209066,-125,4,2,1,40,0,0
214066,-83.3333333333333,4,2,1,30,0,0
214733,-83.3333333333333,4,2,1,40,0,1
229733,-125,4,2,1,30,0,0
230733,-100,4,2,2,30,0,0

[Colours]
Combo1 : 192,64,192
Combo2 : 255,64,64
Combo3 : 255,128,64
Combo4 : 255,255,96
Combo5 : 96,255,64
Combo6 : 0,128,255

[HitObjects]
48,68,1400,6,0,P|104:56|146:79,1,90,4|0,0:3|0:0,0:0:0:0:
193,114,1900,1,0,0:0:0:0:
193,114,2066,2,0,L|180:215,1,90,2|0,0:0|0:0,0:0:0:0:
125,255,2566,1,0,0:0:0:0:
125,255,2733,2,0,P|69:267|27:244,2,90,2|2|2,0:0|0:0|0:0,0:0:0:0:
263,320,3733,2,0,L|330:323,1,45,0|0,0:0|0:0,0:0:0:0:
376,357,4066,6,0,L|394:247,1,90,2|0,0:0|0:0,0:0:0:0:
390,191,4566,1,0,0:0:0:0:
390,191,4733,2,0,P|438:199|496:169,1,90,2|0,0:0|0:0,0:0:0:0:
391,58,5400,2,0,P|343:50|285:80,2,90,2|2|2,0:0|0:0|0:0,0:0:0:0:
254,127,6400,2,0,P|246:158|257:189,1,45,2|2,0:0|0:0,0:0:0:0:
218,240,6733,6,0,L|89:238,1,90,4|0,0:3|0:0,0:0:0:0:
119,314,7233,1,0,0:0:0:0:
119,314,7400,2,0,L|248:316,1,90,2|0,0:0|0:0,0:0:0:0:
280,341,7900,1,0,0:0:0:0:
280,341,8066,2,0,P|340:321|423:358,1,135,2|0,0:0|0:0,0:0:0:0:
481,326,8733,2,0,L|492:223,1,90,2|0,0:0|0:0,0:0:0:0:
370,141,9400,6,0,L|359:244,2,90,2|2|2,0:0|0:0|0:0,0:0:0:0:
459,81,10400,2,0,P|404:94|340:69,1,125.999996154785,2|0,0:0|0:0,0:0:0:0:
241,30,11400,2,0,L|246:84,2,31.4999990386963,8|8|0,0:0|0:0|0:0,0:0:0:0:
131,113,12066,6,0,L|140:32,2,80.9999975280762,2|0|8,0:3|0:0|0:0,0:0:0:0:
39,216,13066,2,0,L|35:256,1,40.4999987640381,0|0,0:0|0:0,0:0:0:0:
56,326,13400,2,0,P|101:318|156:326,2,80.9999975280762,0|0|8,0:0|0:0|0:0,0:0:0:0:
187,262,14400,2,0,P|220:259|259:271,1,40.4999987640381,0|0,0:0|0:0,0:0:0:0:
297,283,14733,6,0,L|289:400,1,80.9999975280762,0|0,0:0|0:0,0:0:0:0:
417,290,15400,2,0,P|420:257|408:218,1,40.4999987640381,8|8,0:0|0:0,0:0:0:0:
383,186,15733,2,0,P|380:153|392:114,1,40.4999987640381,0|0,0:0|0:0,0:0:0:0:
417,82,16066,1,0,0:0:0:0:
449,66,16400,6,0,B|411:82|383:70|358:54|314:73,1,125.999996154785,4|0,0:0|0:0,0:0:0:0:
258,97,17233,1,0,0:0:0:0:
258,97,17400,6,0,L|239:208,1,90,2|0,0:3|0:0,0:0:0:0:
170,160,17900,1,2,0:0:0:0:
170,160,18067,2,0,L|189:49,1,90,10|0,0:0|0:0,0:0:0:0:
47,56,18566,1,2,0:0:0:0:
47,56,18733,2,0,L|32:123,1,45,2|0,0:0|0:0,0:0:0:0:
28,171,19066,2,0,L|37:214,1,45,2|0,0:0|0:0,0:0:0:0:
27,291,19400,1,10,0:0:0:0:
36,313,19733,2,0,L|120:311,1,45,2|2,0:0|0:0,0:0:0:0:
148,276,20066,6,0,P|199:268|247:285,1,90,2|0,0:0|0:0,0:0:0:0:
230,354,20566,1,2,0:0:0:0:
230,354,20733,2,0,P|179:362|131:345,1,90,10|0,0:0|0:0,0:0:0:0:
125,205,21233,1,2,0:0:0:0:
125,205,21400,2,0,L|150:146,1,45,2|0,0:0|0:0,0:0:0:0:
183,98,21733,1,2,0:0:0:0:
256,77,21900,1,0,0:0:0:0:
329,96,22066,1,10,0:0:0:0:
347,85,22400,2,0,L|424:85,1,45,0|0,0:0|0:0,0:0:0:0:
453,38,22733,6,0,P|444:83|456:125,1,90,6|0,0:0|0:0,0:0:0:0:
424,194,23233,1,2,0:0:0:0:
424,194,23400,2,0,P|375:192|326:211,1,90,10|0,0:0|0:0,0:0:0:0:
351,350,23900,1,2,0:0:0:0:
351,350,24066,2,0,L|431:339,1,45,2|0,0:0|0:0,0:0:0:0:
461,303,24400,2,0,L|541:314,2,45,2|0|10,0:0|0:0|0:0,0:0:0:0:
309,281,25066,2,0,L|264:287,1,45,2|2,0:0|0:0,0:0:0:0:
197,326,25400,6,0,P|151:316|104:329,2,90,2|10|10,0:0|0:0|0:0,0:0:0:0:
54,269,26400,2,0,B|29:220|55:181|82:145|45:89,1,180,14|2,0:0|0:0,0:0:0:0:
100,38,27233,1,0,0:0:0:0:
180,20,27400,2,0,L|246:25,1,45,10|2,0:0|0:0,0:0:0:0:
244,108,27733,2,0,L|199:105,1,45,10|0,0:0|0:0,0:0:0:0:
352,60,28066,6,0,P|379:112|368:153,1,90,2|0,0:3|0:0,0:0:0:0:
320,195,28566,1,2,0:0:0:0:
320,195,28733,2,0,L|440:195,1,90,10|0,0:0|0:0,0:0:0:0:
422,333,29233,1,2,0:0:0:0:
422,333,29400,2,0,L|348:334,1,45,2|0,0:0|0:0,0:0:0:0:
300,333,29733,2,0,L|228:295,1,45,2|0,0:0|0:0,0:0:0:0:
189,342,30066,1,10,0:0:0:0:
169,332,30400,2,0,L|86:332,1,45,2|2,0:0|0:0,0:0:0:0:
48,316,30733,6,0,L|31:204,1,90,2|0,0:0|0:0,0:0:0:0:
111,223,31233,1,2,0:0:0:0:
111,223,31400,2,0,L|128:111,1,90,10|0,0:0|0:0,0:0:0:0:
255,64,31900,1,2,0:0:0:0:
255,64,32066,2,0,L|336:61,1,45,2|0,0:0|0:0,0:0:0:0:
372,36,32400,1,2,0:0:0:0:
362,111,32566,1,0,0:0:0:0:
435,88,32733,1,10,0:0:0:0:
466,111,33066,2,2,L|451:191,1,45
449,231,33400,6,0,L|460:353,1,90,6|0,0:0|0:0,0:0:0:0:
384,346,33900,1,2,0:0:0:0:
384,346,34066,2,0,L|375:256,1,90,10|0,0:0|0:0,0:0:0:0:
233,201,34566,1,2,0:0:0:0:
233,201,34733,2,0,P|187:193|142:211,1,90,2|0,0:0|0:0,0:0:0:0:
118,278,35233,1,2,0:0:0:0:
118,278,35400,2,0,L|127:344,1,45,10|0,0:0|0:0,0:0:0:0:
200,313,35733,2,0,L|191:247,1,45,2|0,0:0|0:0,0:0:0:0:
174,119,36066,6,0,L|75:119,1,90,6|0,0:0|0:0,0:0:0:0:
67,44,36566,1,2,0:0:0:0:
67,44,36733,2,0,L|157:44,1,90,10|0,0:0|0:0,0:0:0:0:
306,72,37233,1,2,0:0:0:0:
306,72,37400,2,0,L|306:14,1,45,2|0,0:0|0:0,0:0:0:0:
390,66,37733,2,0,L|390:124,1,45,2|0,0:0|0:0,0:0:0:0:
473,120,38066,2,0,P|435:102|373:123,1,90,8|0,0:0|0:0,0:0:0:0:
412,268,38733,6,0,L|424:168,1,90,2|0,0:3|0:0,0:0:0:0:
346,175,39233,1,0,0:0:0:0:
346,175,39400,2,0,L|334:275,1,90,8|0,0:0|0:0,0:0:0:0:
369,332,39900,1,0,0:0:0:0:
369,332,40066,2,0,P|422:319|475:331,2,90,2|2|10,0:0|0:0|0:0,0:0:0:0:
260,224,41066,1,2,0:0:0:0:
168,347,41400,6,0,P|115:334|62:346,1,90,0|0,0:0|0:0,0:0:0:0:
16,292,41900,1,0,0:0:0:0:
16,292,42066,2,0,P|53:252|69:200,1,90,8|0,0:0|0:0,0:0:0:0:
144,180,42566,1,0,0:0:0:0:
144,180,42733,2,0,P|159:232|196:272,2,90,2|2|10,0:0|0:0|0:0,0:0:0:0:
45,72,43733,2,0,P|74:70|111:77,1,45,2|0,0:0|0:0,0:0:0:0:
168,44,44066,6,0,L|282:45,1,90,0|0,0:0|0:0,0:0:0:0:
329,71,44566,1,0,0:0:0:0:
329,71,44733,2,0,L|443:72,1,90,8|0,0:0|0:0,0:0:0:0:
485,209,45400,2,0,P|496:253|481:303,1,90,2|0,0:0|0:0,0:0:0:0:
422,339,45900,1,2,0:0:0:0:
422,339,46066,2,0,P|378:326|342:288,1,90,8|2,0:0|0:0,0:0:0:0:
345,219,46566,1,0,0:0:0:0:
293,162,46733,6,0,P|261:159|223:171,1,45,2|0,0:0|0:0,0:0:0:0:
192,214,47066,2,0,L|178:289,1,45,2|0,0:0|0:0,0:0:0:0:
143,323,47400,2,0,P|193:333|241:307,1,90,10|2,0:0|0:0,0:0:0:0:
109,222,48066,2,0,L|128:112,1,90,2|2,0:0|0:0,0:0:0:0:
96,64,48566,1,0,0:0:0:0:
44,120,48733,2,0,L|27:193,2,45,10|0|2,0:0|0:0|0:0,0:0:0:0:
96,64,49233,1,2,0:0:0:0:
237,118,49400,6,0,L|212:248,1,90,2|0,0:3|0:0,0:0:0:0:
268,268,49900,1,0,0:0:0:0:
268,268,50066,2,0,P|312:256|376:284,1,90,8|0,0:0|0:0,0:0:0:0:
404,208,50566,1,0,0:0:0:0:
404,208,50733,2,0,L|387:119,2,90,2|2|10,0:0|0:0|0:0,0:0:0:0:
312,332,51733,1,2,0:0:0:0:
464,316,52066,6,0,L|448:252,1,45,0|0,0:0|0:0,0:0:0:0:
490,204,52400,2,0,L|474:140,1,45,0|0,0:0|0:0,0:0:0:0:
477,83,52733,2,0,L|397:77,1,45,8|0,0:0|0:0,0:0:0:0:
361,50,53066,2,0,L|281:44,1,45,0|0,0:0|0:0,0:0:0:0:
250,87,53400,2,0,P|205:76|150:87,2,90,2|2|10,0:0|0:0|0:0,0:0:0:0:
148,202,54400,2,0,L|134:129,1,45,2|0,0:0|0:0,0:0:0:0:
63,148,54733,6,0,L|80:246,1,90,0|0,0:0|0:0,0:0:0:0:
69,312,55233,1,0,0:0:0:0:
69,312,55400,2,0,P|119:311|170:333,1,90,8|0,0:0|0:0,0:0:0:0:
229,347,55900,1,0,0:0:0:0:
229,347,56067,2,0,P|279:348|330:326,1,90,2|0,0:0|0:0,0:0:0:0:
384,300,56566,1,2,0:0:0:0:
384,300,56733,2,0,L|456:293,1,45,8|0,0:0|0:0,0:0:0:0:
435,219,57066,2,0,L|390:223,1,45,2|0,0:0|0:0,0:0:0:0:
460,140,57400,6,0,L|363:146,1,90,2|0,0:0|0:0,0:0:0:0:
315,92,57900,1,2,0:0:0:0:
248,54,58066,2,0,P|191:45|150:56,1,90,8|2,0:0|0:0,0:0:0:0:
92,87,58566,1,0,0:0:0:0:
48,150,58733,2,0,L|30:219,1,45,2|0,0:0|0:0,0:0:0:0:
112,203,59066,2,0,L|118:273,1,45,2|0,0:0|0:0,0:0:0:0:
43,273,59400,2,0,L|25:342,2,45,10|10|2,0:0|0:0|0:0,0:0:0:0:
180,339,60066,5,12,0:0:0:0:
180,339,60400,1,12,0:0:0:0:
247,288,61400,5,12,0:0:0:0:
247,288,61734,1,12,0:0:0:0:
336,300,62733,5,12,0:0:0:0:
336,300,63067,1,12,0:0:0:0:
404,356,64066,5,12,0:0:0:0:
404,356,64400,2,0,L|475:353,1,45,12|0,0:0|0:0,0:0:0:0:
483,285,64733,2,0,L|487:213,1,45,0|0,0:0|0:0,0:0:0:0:
470,164,65066,1,0,0:0:0:0:
408,209,65233,1,0,0:0:0:0:
480,88,65400,5,12,0:0:0:0:
480,88,65734,1,12,0:0:0:0:
404,56,66733,5,12,0:0:0:0:
404,56,67067,1,12,0:0:0:0:
328,84,67400,2,0,L|329:160,1,45,0|0,0:0|0:0,0:0:0:0:
253,144,67733,2,0,L|253:188,1,45,0|0,0:0|0:0,0:0:0:0:
260,265,68066,6,0,P|310:261|350:273,1,90,4|0,0:0|0:0,0:0:0:0:
346,348,68566,1,0,0:0:0:0:
346,348,68733,2,0,P|302:359|258:354,1,90,8|0,0:0|0:0,0:0:0:0:
195,310,69233,1,0,0:0:0:0:
129,350,69400,2,0,P|101:349|70:337,1,45,0|0,0:0|0:0,0:0:0:0:
14,314,69733,2,0,P|28:290|54:269,1,45,0|0,0:0|0:0,0:0:0:0:
102,232,70066,2,0,P|115:256|120:289,2,45,8|8|0,0:0|0:0|0:0,0:0:0:0:
35,93,70733,5,12,0:0:0:0:
35,93,71067,1,12,0:0:0:0:
108,48,72066,5,12,0:0:0:0:
108,48,72400,1,12,0:0:0:0:
200,56,73400,5,12,0:0:0:0:
200,56,73734,1,12,0:0:0:0:
248,128,74733,5,12,0:0:0:0:
248,128,75066,2,0,L|316:128,1,45,12|0,0:0|0:0,0:0:0:0:
364,100,75400,2,0,L|367:39,1,45,8|8,0:0|0:0,0:0:0:0:
442,59,75733,2,0,L|439:103,1,45,0|0,0:0|0:0,0:0:0:0:
484,166,76066,6,0,L|480:284,1,90,4|0,0:0|0:0,0:0:0:0:
438,320,76566,1,0,0:0:0:0:
438,320,76733,2,0,P|390:313|344:324,1,90,8|0,0:0|0:0,0:0:0:0:
291,272,77233,1,0,0:0:0:0:
291,272,77400,2,0,P|243:279|197:268,1,90,0|0,0:0|0:0,0:0:0:0:
132,301,77900,1,0,0:0:0:0:
132,301,78066,2,0,L|122:386,1,45,8|0,0:0|0:0,0:0:0:0:
49,338,78400,2,0,L|54:293,1,45,8|8,0:0|0:0,0:0:0:0:
18,225,78733,5,2,0:3:0:0:
51,75,79066,1,2,0:3:0:0:
136,202,79400,1,2,0:3:0:0:
166,52,79733,1,2,0:3:0:0:
180,31,81400,6,0,P|231:41|301:18,1,107.999996704102,4|0,0:0|0:0,0:0:0:0:
343,91,81900,1,0,0:0:0:0:
343,91,82066,2,0,P|308:130|304:198,1,107.999996704102,8|0,0:0|0:0,0:0:0:0:
385,164,82566,1,8,0:0:0:0:
469,182,82733,2,0,P|467:149|448:110,2,53.9999983520508,0|0|0,0:0|0:0|0:0,0:0:0:0:
380,330,83400,2,0,L|301:338,1,53.9999983520508,8|0,0:0|0:0,0:0:0:0:
282,260,83733,2,0,L|335:254,1,53.9999983520508,0|0,0:0|0:0,0:0:0:0:
244,336,84066,6,0,L|116:346,1,107.999996704102,0|0,0:0|0:0,0:0:0:0:
66,293,84566,1,0,0:0:0:0:
66,293,84733,2,0,P|49:236|66:179,1,107.999996704102,8|0,0:0|0:0,0:0:0:0:
132,237,85233,1,8,0:0:0:0:
148,152,85400,2,0,L|151:95,1,53.9999983520508,0|0,0:0|0:0,0:0:0:0:
233,73,85733,2,0,L|236:130,1,53.9999983520508,0|0,0:0|0:0,0:0:0:0:
319,105,86066,1,8,0:0:0:0:
339,189,86233,1,8,0:0:0:0:
407,136,86400,1,0,0:0:0:0:
416,50,86566,1,0,0:0:0:0:
492,144,86733,6,0,L|480:272,1,107.999996704102,4|0,0:0|0:0,0:0:0:0:
309,268,87400,2,0,P|362:262|408:288,1,107.999996704102,8|0,0:0|0:0,0:0:0:0:
343,345,87900,1,8,0:0:0:0:
257,335,88066,2,0,L|213:273,1,53.9999983520508,0|0,0:0|0:0,0:0:0:0:
149,333,88400,2,0,L|128:259,1,53.9999983520508,0|0,0:0|0:0,0:0:0:0:
48,292,88733,2,0,L|54:216,1,53.9999983520508,8|0,0:0|0:0,0:0:0:0:
41,152,89066,1,0,0:0:0:0:
121,183,89233,1,0,0:0:0:0:
40,72,89400,5,0,0:0:0:0:
56,60,89733,5,0,0:0:0:0:
144,52,90066,5,8,0:0:0:0:
192,122,90400,6,0,B|280:170|324:94|324:94|315:182,1,215.999993408203,12|0,0:0|0:0,0:0:0:0:
373,34,91400,2,0,P|407:31|446:41,1,53.9999983520508,8|8,0:0|0:0,0:0:0:0:
473,107,91733,2,0,P|457:138|430:166,1,53.9999983520508,0|0,0:0|0:0,0:0:0:0:
324,96,92066,6,0,L|316:220,1,107.999996704102,4|0,0:0|0:0,0:0:0:0:
379,263,92566,1,0,0:0:0:0:
379,263,92733,2,0,P|325:286|272:273,1,107.999996704102,8|0,0:0|0:0,0:0:0:0:
221,211,93233,1,8,0:0:0:0:
198,294,93400,2,0,L|186:362,1,53.9999983520508,0|0,0:0|0:0,0:0:0:0:
116,299,93733,2,0,L|104:367,1,53.9999983520508,0|0,0:0|0:0,0:0:0:0:
37,300,94066,2,0,L|25:368,2,53.9999983520508,8|0|0,0:0|0:0|0:0,0:0:0:0:
35,126,94733,6,0,P|87:138|153:108,1,107.999996704102,0|0,0:0|0:0,0:0:0:0:
184,47,95233,1,0,0:0:0:0:
184,47,95400,2,0,L|264:37,1,53.9999983520508,8|0,0:0|0:0,0:0:0:0:
287,110,95733,1,0,0:0:0:0:
329,34,95900,1,8,0:0:0:0:
374,106,96066,2,0,P|424:97|476:128,1,107.999996704102,0|0,0:0|0:0,0:0:0:0:
416,179,96566,1,0,0:0:0:0:
416,179,96733,2,0,L|356:192,1,53.9999983520508,8|0,0:0|0:0,0:0:0:0:
416,258,97066,2,0,L|468:269,1,53.9999983520508,0|0,0:0|0:0,0:0:0:0:
360,316,97400,6,0,L|240:344,1,107.999996704102,4|0,0:0|0:0,0:0:0:0:
212,264,97900,1,0,0:0:0:0:
212,264,98066,2,0,L|284:248,2,53.9999983520508,8|8|0,0:0|0:0|0:0,0:0:0:0:
56,336,98733,2,0,P|40:276|64:216,2,107.999996704102,0|4|0,0:0|0:0|0:0,0:0:0:0:
228,352,99733,1,0,0:0:0:0:
116,280,100066,1,0,0:0:0:0:
52,48,108066,5,8,0:0:0:0:
64,60,108400,2,0,L|140:64,1,53.9999983520508,0|0,0:0|0:0,0:0:0:0:
204,48,108733,1,8,0:0:0:0:
170,127,108900,1,8,0:0:0:0:
86,149,109066,2,0,L|32:146,1,53.9999983520508,0|0,0:0|0:0,0:0:0:0:
144,208,109400,6,0,L|260:214,1,107.999996704102,8|0,0:0|0:0,0:0:0:0:
92,272,110066,2,0,L|38:269,2,53.9999983520508,8|8|0,0:0|0:0|0:0,0:0:0:0:
164,344,110733,5,2,0:3:0:0:
180,328,112733,2,0,L|268:332,1,45,0|0,0:0|0:0,0:0:0:0:
294,297,113066,2,0,P|333:302|367:331,1,45,0|0,0:0|0:0,0:0:0:0:
414,297,113400,6,0,L|421:172,1,90,4|0,0:0|0:0,0:0:0:0:
476,156,113900,1,0,0:0:0:0:
476,156,114066,2,0,L|483:31,1,90,8|0,0:0|0:0,0:0:0:0:
408,40,114566,1,0,0:0:0:0:
408,40,114733,2,0,L|400:148,2,90,2|2|10,0:0|0:0|0:0,0:0:0:0:
327,170,115733,1,2,0:0:0:0:
393,208,115900,1,0,0:0:0:0:
324,88,116066,6,0,L|257:90,1,45,0|0,0:0|0:0,0:0:0:0:
210,53,116400,2,0,L|144:52,1,45,0|0,0:0|0:0,0:0:0:0:
164,132,116733,2,0,L|231:130,1,45,8|0,0:0|0:0,0:0:0:0:
282,169,117067,2,0,L|348:170,1,45,0|0,0:0|0:0,0:0:0:0:
216,212,117400,2,0,L|108:212,1,90,2|0,0:0|0:0,0:0:0:0:
56,244,117900,1,2,0:0:0:0:
56,244,118066,2,0,P|52:274|64:324,1,45,8|0,0:0|0:0,0:0:0:0:
128,307,118400,2,0,P|131:337|120:387,1,45,2|0,0:0|0:0,0:0:0:0:
232,288,118733,6,0,P|264:291|302:279,1,45,2|0,0:0|0:0,0:0:0:0:
333,236,119066,2,0,L|347:161,1,45,2|0,0:0|0:0,0:0:0:0:
382,127,119400,2,0,P|332:117|284:143,1,90,10|2,0:0|0:0,0:0:0:0:
432,184,120066,2,0,L|451:74,1,90,2|2,0:0|0:0,0:0:0:0:
389,45,120566,1,0,0:0:0:0:
460,17,120733,2,0,P|494:18|520:36,2,45,10|10|2,0:0|0:0|0:0,0:0:0:0:
389,45,121233,1,0,0:0:0:0:
222,41,121400,6,0,P|231:85|219:130,1,90,2|0,0:3|0:0,0:0:0:0:
157,83,121900,1,0,0:0:0:0:
157,83,122066,2,0,P|114:68|81:35,1,90,8|0,0:0|0:0,0:0:0:0:
28,91,122566,1,0,0:0:0:0:
28,91,122733,2,0,L|23:206,2,90,2|2|10,0:0|0:0|0:0,0:0:0:0:
79,235,123733,1,2,0:0:0:0:
218,297,124066,6,0,P|171:285|121:307,1,90,0|0,0:0|0:0,0:0:0:0:
176,364,124566,1,0,0:0:0:0:
176,364,124733,2,0,P|223:376|273:354,1,90,8|0,0:0|0:0,0:0:0:0:
297,289,125233,1,0,0:0:0:0:
339,353,125400,2,0,L|409:352,1,45,2|0,0:0|0:0,0:0:0:0:
397,276,125733,2,0,L|467:275,1,45,0|2,0:0|0:0,0:0:0:0:
450,199,126066,2,0,L|520:198,2,45,8|0|2,0:0|0:0|0:0,0:0:0:0:
381,165,126566,1,0,0:0:0:0:
340,56,126733,6,0,P|332:88|344:128,1,45,0|0,0:0|0:0,0:0:0:0:
256,94,127066,2,0,P|259:126|284:160,1,45,0|0,0:0|0:0,0:0:0:0:
189,156,127400,2,0,P|203:185|238:208,1,45,8|0,0:0|0:0,0:0:0:0:
144,230,127733,1,0,0:0:0:0:
207,272,127900,1,0,0:0:0:0:
274,307,128066,2,0,L|403:303,1,90,2|0,0:0|0:0,0:0:0:0:
366,380,128566,1,2,0:0:0:0:
366,380,128733,2,0,L|276:382,1,90,8|2,0:0|0:0,0:0:0:0:
140,311,129400,6,0,P|90:301|37:319,1,90,2|0,0:0|0:0,0:0:0:0:
30,236,129900,1,2,0:0:0:0:
30,236,130066,2,0,L|47:112,1,90,8|2,0:0|0:0,0:0:0:0:
90,87,130566,1,0,0:0:0:0:
90,87,130733,2,0,P|140:97|193:79,1,90,2|2,0:0|0:0,0:0:0:0:
324,45,131400,2,0,L|255:36,1,45,10|8,0:0|0:0,0:0:0:0:
288,115,131733,2,0,L|219:124,1,45,2|2,0:0|0:0,0:0:0:0:
352,176,132066,6,0,L|256:208,2,90,2|0|10,0:3|0:0|0:0,0:0:0:0:
494,233,133066,2,0,L|486:305,1,45,0|0,0:0|0:0,0:0:0:0:
413,290,133400,2,0,L|428:170,2,90,2|2|10,0:0|0:0|0:0,0:0:0:0:
260,277,134400,2,0,L|215:272,1,45,0|0,0:0|0:0,0:0:0:0:
183,342,134734,6,0,L|272:353,2,90,2|0|10,0:0|0:0|0:0,0:0:0:0:
40,287,135733,2,0,L|48:215,1,45,0|0,0:0|0:0,0:0:0:0:
121,249,136066,1,2,0:0:0:0:
91,178,136233,1,0,0:0:0:0:
167,181,136400,1,2,0:0:0:0:
156,105,136566,1,0,0:0:0:0:
228,131,136733,2,0,L|242:66,1,45,10|0,0:0|0:0,0:0:0:0:
309,114,137066,2,0,L|344:57,1,45,10|0,0:0|0:0,0:0:0:0:
472,140,137400,6,0,P|412:124|372:140,2,90,6|0|10,0:0|0:0|0:0,0:0:0:0:
488,292,138400,2,0,L|495:217,1,45,0|0,0:0|0:0,0:0:0:0:
421,222,138733,2,0,L|413:306,2,45,2|0|2,0:0|0:0|0:0,0:0:0:0:
308,324,139400,2,0,L|315:249,1,45,10|8,0:0|0:0,0:0:0:0:
244,244,139733,1,2,0:0:0:0:
168,248,139900,1,2,0:0:0:0:
108,295,140066,6,0,L|108:171,1,90,6|0,0:0|0:0,0:0:0:0:
56,148,140566,1,0,0:0:0:0:
56,148,140733,2,0,P|99:157|150:134,1,90,10|0,0:0|0:0,0:0:0:0:
203,96,141233,1,0,0:0:0:0:
203,96,141400,2,0,P|246:87|297:110,1,90,2|2,0:0|0:0,0:0:0:0:
353,143,141900,1,0,0:0:0:0:
421,110,142066,2,0,L|428:27,2,45,10|8|2,0:0|0:0|0:0,0:0:0:0:
472,268,142733,6,0,L|460:372,2,90,2|0|10,0:3|0:0|0:0,0:0:0:0:
347,179,143733,2,0,L|333:255,1,45,0|0,0:0|0:0,0:0:0:0:
304,291,144066,2,0,P|257:279|209:289,2,90,2|2|10,0:0|0:0|0:0,0:0:0:0:
157,336,145066,2,0,L|84:335,1,45,0|0,0:0|0:0,0:0:0:0:
41,304,145399,6,0,P|33:253|45:197,2,90,2|0|10,0:0|0:0|0:0,0:0:0:0:
96,160,146400,2,0,L|97:87,1,45,0|0,0:0|0:0,0:0:0:0:
173,115,146733,2,0,L|174:42,1,45,2|0,0:0|0:0,0:0:0:0:
237,27,147066,2,0,P|248:59|236:106,1,45,2|0,0:0|0:0,0:0:0:0:
325,56,147400,2,0,P|325:90|297:130,1,45,10|0,0:0|0:0,0:0:0:0:
397,115,147733,2,0,P|385:147|346:175,1,45,2|0,0:0|0:0,0:0:0:0:
288,241,148066,6,0,P|334:235|391:253,1,90,6|0,0:0|0:0,0:0:0:0:
433,296,148566,1,2,0:0:0:0:
372,343,148733,2,0,P|328:353|283:347,1,90,10|0,0:0|0:0,0:0:0:0:
228,294,149233,1,0,0:0:0:0:
172,346,149400,2,0,P|128:356|83:350,1,90,10|0,0:0|0:0,0:0:0:0:
38,288,149900,1,2,0:0:0:0:
63,216,150066,2,0,L|35:144,1,45,10|2,0:0|0:0,0:0:0:0:
120,150,150400,2,0,L|92:78,1,45,0|0,0:0|0:0,0:0:0:0:
203,107,150733,5,2,0:3:0:0:
351,72,151066,1,2,0:3:0:0:
241,178,151400,1,2,0:3:0:0:
390,144,151733,1,2,0:3:0:0:
180,353,153400,6,0,P|231:343|301:366,1,107.999996704102,4|0,0:0|0:0,0:0:0:0:
343,293,153900,1,0,0:0:0:0:
343,293,154066,2,0,P|308:254|304:186,1,107.999996704102,8|0,0:0|0:0,0:0:0:0:
385,220,154566,1,8,0:0:0:0:
469,202,154733,2,0,P|467:235|448:274,2,53.9999983520508,0|0|0,0:0|0:0|0:0,0:0:0:0:
380,54,155400,2,0,L|301:46,1,53.9999983520508,8|0,0:0|0:0,0:0:0:0:
282,124,155733,2,0,L|335:130,1,53.9999983520508,0|0,0:0|0:0,0:0:0:0:
244,48,156066,6,0,L|116:38,1,107.999996704102,0|0,0:0|0:0,0:0:0:0:
66,91,156566,1,0,0:0:0:0:
66,91,156733,2,0,P|49:148|66:205,1,107.999996704102,8|0,0:0|0:0,0:0:0:0:
132,147,157233,1,8,0:0:0:0:
148,232,157400,2,0,L|151:289,1,53.9999983520508,0|0,0:0|0:0,0:0:0:0:
233,311,157733,2,0,L|236:254,1,53.9999983520508,0|0,0:0|0:0,0:0:0:0:
319,279,158066,1,8,0:0:0:0:
339,195,158233,1,8,0:0:0:0:
407,248,158400,1,0,0:0:0:0:
416,334,158566,1,0,0:0:0:0:
492,240,158733,6,0,L|480:112,1,107.999996704102,4|0,0:0|0:0,0:0:0:0:
309,116,159400,2,0,P|362:122|408:96,1,107.999996704102,8|0,0:0|0:0,0:0:0:0:
343,39,159900,1,8,0:0:0:0:
257,49,160066,2,0,L|213:111,1,53.9999983520508,0|0,0:0|0:0,0:0:0:0:
149,51,160400,2,0,L|128:125,1,53.9999983520508,0|0,0:0|0:0,0:0:0:0:
48,92,160733,2,0,L|54:168,1,53.9999983520508,8|0,0:0|0:0,0:0:0:0:
41,232,161066,1,0,0:0:0:0:
121,201,161233,1,0,0:0:0:0:
40,312,161400,5,0,0:0:0:0:
56,324,161733,5,0,0:0:0:0:
124,360,162066,5,8,0:0:0:0:
200,320,162400,6,0,B|276:264|340:336|340:336|316:264,1,215.999993408203,12|0,0:0|0:0,0:0:0:0:
416,352,163400,2,0,P|450:355|489:345,1,53.9999983520508,8|8,0:0|0:0,0:0:0:0:
472,276,163733,2,0,P|440:272|408:280,1,53.9999983520508
321,281,164066,6,0,L|313:157,1,107.999996704102,4|0,0:0|0:0,0:0:0:0:
372,120,164566,1,0,0:0:0:0:
372,120,164733,2,0,P|318:97|265:110,1,107.999996704102,8|0,0:0|0:0,0:0:0:0:
214,172,165233,1,8,0:0:0:0:
191,89,165400,2,0,L|179:21,1,53.9999983520508,0|0,0:0|0:0,0:0:0:0:
109,84,165733,2,0,L|97:16,1,53.9999983520508,0|0,0:0|0:0,0:0:0:0:
30,83,166066,2,0,L|18:15,2,53.9999983520508,8|0|0,0:0|0:0|0:0,0:0:0:0:
35,258,166733,6,0,P|87:246|153:276,1,107.999996704102,0|0,0:0|0:0,0:0:0:0:
184,337,167233,1,0,0:0:0:0:
184,337,167400,2,0,L|264:347,1,53.9999983520508,8|0,0:0|0:0,0:0:0:0:
287,274,167733,1,0,0:0:0:0:
329,350,167900,1,8,0:0:0:0:
374,278,168066,2,0,P|424:287|476:256,1,107.999996704102,0|0,0:0|0:0,0:0:0:0:
416,205,168566,1,0,0:0:0:0:
416,205,168733,2,0,L|356:192,1,53.9999983520508,8|0,0:0|0:0,0:0:0:0:
416,126,169066,2,0,L|468:115,1,53.9999983520508,0|0,0:0|0:0,0:0:0:0:
360,68,169400,6,0,L|240:40,1,107.999996704102,4|0,0:0|0:0,0:0:0:0:
172,40,169900,1,0,0:0:0:0:
96,80,170066,2,0,P|84:111|85:153,1,53.9999983520508,8|8,0:0|0:0,0:0:0:0:
96,208,170400,1,0,0:0:0:0:
176,256,170566,1,0,0:0:0:0:
260,208,170733,6,0,B|304:180|352:204|400:236|444:192,1,188.999994232178,4|8,0:0|0:0,0:0:0:0:
478,15,172066,6,0,L|460:123,1,107.999996704102,4|0,0:3|0:0,0:0:0:0:
381,85,172566,1,0,0:0:0:0:
381,85,172733,2,0,P|328:72|267:85,1,107.999996704102,10|0,0:0|0:0,0:0:0:0:
204,129,173233,1,0,0:0:0:0:
204,129,173400,2,0,L|111:97,1,53.9999983520508,10|0,0:0|0:0,0:0:0:0:
67,99,173733,2,0,L|85:195,1,53.9999983520508,0|2,0:0|0:0,0:0:0:0:
110,231,174066,2,0,L|184:166,1,53.9999983520508,8|0,0:0|0:0,0:0:0:0:
236,207,174400,2,0,L|254:303,1,53.9999983520508,2|0,0:0|0:0,0:0:0:0:
108,316,174733,6,0,P|160:312|212:344,1,107.999996704102,14|0,0:0|0:3,0:0:0:0:
293,338,175233,1,0,0:0:0:0:
293,338,175400,2,0,P|339:311|392:315,1,107.999996704102,10|0,0:0|0:0,0:0:0:0:
471,280,175900,1,0,0:0:0:0:
471,280,176066,2,0,L|481:174,1,53.9999983520508,10|0,0:0|0:0,0:0:0:0:
400,183,176400,2,0,L|373:79,1,53.9999983520508,0|2,0:0|0:0,0:0:0:0:
334,61,176733,1,8,0:0:0:0:
305,142,176900,1,0,0:0:0:0:
245,79,177066,1,2,0:0:0:0:
212,159,177233,1,2,0:0:0:0:
56,100,177400,6,0,P|114:82|165:98,1,107.999996704102,4|0,0:3|0:0,0:0:0:0:
111,166,177900,1,0,0:0:0:0:
111,166,178066,2,0,L|93:293,1,107.999996704102,10|0,0:0|0:0,0:0:0:0:
155,335,178566,1,0,0:0:0:0:
155,335,178733,2,0,L|224:318,1,53.9999983520508,10|0,0:0|0:0,0:0:0:0:
290,298,179066,2,0,L|278:376,1,53.9999983520508,0|2,0:0|0:0,0:0:0:0:
366,332,179400,2,0,L|435:315,1,53.9999983520508,8|0,0:0|0:0,0:0:0:0:
501,295,179733,2,0,L|489:373,1,53.9999983520508,2|0,0:0|0:0,0:0:0:0:
400,244,180066,6,0,L|415:137,1,107.999996704102,14|0,0:0|0:0,0:0:0:0:
477,76,180566,1,0,0:0:0:0:
477,75,180733,2,0,P|429:55|354:76,1,107.999996704102,10|0,0:0|0:0,0:0:0:0:
330,137,181233,1,0,0:0:0:0:
330,138,181400,2,2,P|282:158|207:137,2,107.999996704102,10|2|10,0:0|0:0|0:0,0:0:0:0:
157,123,182400,2,2,L|167:69,1,53.9999983520508
56,128,182733,6,0,L|32:244,1,107.999996704102,4|0,0:3|0:0,0:0:0:0:
49,318,183233,1,0,0:0:0:0:
49,318,183400,2,0,P|99:309|153:332,1,107.999996704102,10|0,0:0|0:0,0:0:0:0:
233,355,183900,1,0,0:0:0:0:
233,355,184066,2,0,L|251:268,1,53.9999983520508,10|0,0:0|0:0,0:0:0:0:
314,250,184400,2,0,L|332:337,1,53.9999983520508,0|2,0:0|0:0,0:0:0:0:
398,349,184733,2,0,L|416:262,1,53.9999983520508,8|0,0:0|0:0,0:0:0:0:
479,244,185067,2,0,L|497:331,1,53.9999983520508,2|0,0:0|0:0,0:0:0:0:
436,156,185400,6,0,P|376:144|320:172,1,107.999996704102,14|0,0:0|0:0,0:0:0:0:
264,108,185900,1,0,0:0:0:0:
264,108,186066,2,0,P|204:96|148:124,1,107.999996704102,10|0,0:0|0:0,0:0:0:0:
83,74,186566,1,0,0:0:0:0:
83,74,186733,2,0,L|58:165,1,53.9999983520508,10|0,0:0|0:0,0:0:0:0:
127,189,187066,2,0,L|152:280,1,53.9999983520508,0|2,0:0|0:0,0:0:0:0:
55,256,187400,2,0,L|30:347,1,53.9999983520508,8|0,0:0|0:0,0:0:0:0:
126,321,187733,1,10,0:0:0:0:
194,374,187900,1,10,0:0:0:0:
288,256,188066,6,0,L|276:384,1,107.999996704102,4|0,0:3|0:0,0:0:0:0:
360,337,188566,1,0,0:0:0:0:
360,337,188733,2,0,L|370:229,1,107.999996704102,10|0,0:0|0:0,0:0:0:0:
438,176,189233,1,0,0:0:0:0:
475,98,189400,2,2,P|468:59|454:42,1,53.9999983520508,10|10,0:0|0:0,0:0:0:0:
375,27,189733,1,2,0:0:0:0:
290,47,189900,1,2,0:0:0:0:
260,124,190066,6,0,P|220:112|176:120,1,72,0|0,0:0|0:0,0:0:0:0:
84,32,190733,6,0,L|64:151,1,90,4|0,0:0|0:0,0:0:0:0:
36,190,191233,1,0,0:0:0:0:
36,190,191400,2,0,L|16:309,1,90,8|0,0:0|0:0,0:0:0:0:
59,345,191900,1,0,0:0:0:0:
59,345,192066,2,0,P|114:338|175:365,1,90,0|0,0:0|0:0,0:0:0:0:
199,291,192566,1,0,0:0:0:0:
224,218,192733,2,0,L|209:141,1,45,8|0,0:0|0:0,0:0:0:0:
246,103,193066,2,0,L|231:26,1,45,0|0,0:0|0:0,0:0:0:0:
352,16,193400,6,0,P|404:12|456:40,1,90,0|0,0:0|0:0,0:0:0:0:
391,86,193900,1,0,0:0:0:0:
391,86,194066,2,0,P|443:82|495:110,1,90,8|0,0:0|0:0,0:0:0:0:
430,156,194566,1,0,0:0:0:0:
430,156,194733,2,0,L|452:227,1,45,0|0,0:0|0:0,0:0:0:0:
380,242,195066,2,0,L|358:171,1,45,0|0,0:0|0:0,0:0:0:0:
306,247,195400,2,0,L|328:318,1,45,8|0,0:0|0:0,0:0:0:0:
387,324,195733,1,8,0:0:0:0:
387,324,195900,1,8,0:0:0:0:
240,296,196066,6,0,L|128:292,1,90,4|0,0:0|0:0,0:0:0:0:
86,334,196566,1,0,0:0:0:0:
86,334,196733,2,0,P|94:287|83:240,1,90,8|0,0:0|0:0,0:0:0:0:
39,184,197233,1,0,0:0:0:0:
39,184,197400,2,0,P|31:137|42:90,1,90,0|0,0:0|0:0,0:0:0:0:
97,45,197900,1,0,0:0:0:0:
97,45,198066,2,0,L|176:47,1,45,8|0,0:0|0:0,0:0:0:0:
200,124,198400,2,0,L|121:122,1,45,0|0,0:0|0:0,0:0:0:0:
256,68,198733,6,0,P|275:113|260:176,1,90,0|0,0:0|0:0,0:0:0:0:
256,228,199233,1,0,0:0:0:0:
256,228,199400,2,0,L|371:234,1,90,8|0,0:0|0:0,0:0:0:0:
402,181,199900,1,0,0:0:0:0:
402,181,200066,2,0,L|479:184,1,45,0|0,0:0|0:0,0:0:0:0:
420,255,200400,2,0,L|497:258,1,45,0|0,0:0|0:0,0:0:0:0:
444,330,200733,2,0,L|521:333,2,45,8|8|0,0:0|0:0|0:0,0:0:0:0:
293,300,201400,6,0,P|242:289|187:303,1,90,4|0,0:0|0:0,0:0:0:0:
146,344,201900,1,0,0:0:0:0:
146,344,202066,2,0,P|95:355|40:341,1,90,8|0,0:0|0:0,0:0:0:0:
37,196,202733,2,0,P|88:185|143:199,1,90,0|0,0:0|0:0,0:0:0:0:
192,155,203233,1,0,0:0:0:0:
192,155,203399,2,0,P|243:166|298:152,1,90,8|0,0:0|0:0,0:0:0:0:
345,119,203900,1,0,0:0:0:0:
420,125,204066,6,0,L|413:229,1,90,8|0,0:0|0:0,0:0:0:0:
490,224,204566,1,0,0:0:0:0:
490,224,204733,2,0,L|496:134,1,90,8|0,0:0|0:0,0:0:0:0:
345,119,205400,2,0,L|352:15,1,90,8|0,0:0|0:0,0:0:0:0:
275,20,205900,1,0,0:0:0:0:
275,20,206067,2,0,L|268:109,1,90,8|8,0:0|0:0,0:0:0:0:
124,161,206733,5,12,0:0:0:0:
124,161,207066,1,12,0:0:0:0:
47,314,208066,5,12,0:0:0:0:
81,304,208399,1,12,0:0:0:0:
116,312,208733,1,0,0:0:0:0:
139,329,209066,2,0,P|203:353|279:325,1,144,12|0,0:0|0:0,0:0:0:0:
464,224,214066,6,0,L|456:304,1,53.9999983520508,8|8,0:0|0:0,0:0:0:0:
379,241,214400,2,0,L|387:161,1,53.9999983520508,0|0,0:0|0:0,0:0:0:0:
448,92,214733,6,0,P|399:113|329:86,1,107.999996704102,4|0,0:0|0:0,0:0:0:0:
272,58,215233,1,0,0:0:0:0:
272,58,215400,2,0,P|223:79|153:52,1,107.999996704102,8|0,0:0|0:0,0:0:0:0:
84,65,215900,1,8,0:0:0:0:
84,65,216066,2,0,L|109:165,1,53.9999983520508,0|0,0:0|0:0,0:0:0:0:
10,107,216400,2,0,L|35:207,1,53.9999983520508,0|0,0:0|0:0,0:0:0:0:
101,196,216733,1,8,0:0:0:0:
29,245,216900,1,8,0:0:0:0:
108,277,217066,1,0,0:0:0:0:
191,300,217233,1,0,0:0:0:0:
332,236,217400,6,0,P|276:220|228:232,1,107.999996704102,4|0,0:0|0:0,0:0:0:0:
278,302,217900,1,0,0:0:0:0:
278,302,218066,2,0,P|334:318|382:306,1,107.999996704102,8|0,0:0|0:0,0:0:0:0:
448,251,218566,1,8,0:0:0:0:
448,251,218733,2,0,L|483:186,1,53.9999983520508,0|0,0:0|0:0,0:0:0:0:
401,155,219066,2,0,L|411:81,1,53.9999983520508,0|0,0:0|0:0,0:0:0:0:
323,82,219400,1,8,0:0:0:0:
243,48,219566,1,0,0:0:0:0:
185,112,219733,1,0,0:0:0:0:
104,82,219900,1,0,0:0:0:0:
32,129,220066,6,0,L|35:259,2,107.999996704102,0|0|8,0:0|0:0|0:0,0:0:0:0:
95,298,221066,2,0,B|175:292|233:309|159:394|118:328|168:228,1,215.999993408203,12|0,0:0|0:0,0:0:0:0:
330,274,222066,2,0,L|304:373,1,53.9999983520508,8|8,0:0|0:0,0:0:0:0:
387,375,222400,2,0,L|413:276,1,53.9999983520508,0|0,0:0|0:0,0:0:0:0:
475,216,222733,6,0,P|488:160|467:98,1,107.999996704102,4|0,0:0|0:0,0:0:0:0:
414,50,223233,1,0,0:0:0:0:
414,50,223400,2,0,L|291:52,1,107.999996704102,8|0,0:0|0:0,0:0:0:0:
240,108,223900,1,8,0:0:0:0:
240,108,224066,2,0,P|225:142|221:168,1,53.9999983520508,0|0,0:0|0:0,0:0:0:0:
164,223,224400,2,0,P|198:238|224:242,1,53.9999983520508,0|0,0:0|0:0,0:0:0:0:
278,299,224733,2,0,P|293:265|297:239,1,53.9999983520508,8|0,0:0|0:0,0:0:0:0:
356,186,225066,2,0,P|322:171|296:167,1,53.9999983520508,0|0,0:0|0:0,0:0:0:0:
364,103,225400,6,0,P|430:117|485:97,1,107.999996704102
496,256,226066,2,0,P|443:245|392:259,1,107.999996704102,8|0,0:0|0:0,0:0:0:0:
334,324,226566,1,8,0:0:0:0:
334,324,226733,2,0,L|339:377,2,53.9999983520508,0|0|0,0:0|0:0|0:0,0:0:0:0:
193,223,227400,2,0,P|140:212|89:226,1,107.999996704102,8|0,0:0|0:0,0:0:0:0:
14,347,228066,6,0,P|66:357|117:343,1,107.999996704102,4|0,0:0|0:0,0:0:0:0:
272,265,228733,2,0,L|280:195,1,53.9999983520508,8|8,0:0|0:0,0:0:0:0:
352,167,229066,2,0,L|360:237,1,53.9999983520508,0|0,0:0|0:0,0:0:0:0:
435,261,229400,1,8,0:0:0:0:
467,75,229733,6,0,P|391:94|328:61,1,144,12|0,0:0|0:0,0:0:0:0:
193,36,230733,6,0,P|137:24|95:47,1,90,4|0,0:3|0:0,0:0:0:0:
48,82,231233,1,0,0:0:0:0:
48,82,231399,2,0,L|61:183,1,90,2|0,0:0|0:0,0:0:0:0:
116,223,231899,1,0,0:0:0:0:
116,223,232066,2,2,P|172:235|214:212,2,90
233,306,233066,2,0,L|300:309,1,45,0|0,0:0|0:0,0:0:0:0:
346,343,233399,6,0,L|364:233,1,90,2|0,0:0|0:0,0:0:0:0:
360,177,233899,1,0,0:0:0:0:
360,177,234066,2,0,P|408:185|466:155,1,90,2|0,0:0|0:0,0:0:0:0:
361,44,234733,2,2,P|313:36|255:66,2,90
258,127,235733,2,2,P|266:158|255:189,1,45,2|2,0:0|0:0,0:0:0:0:
294,240,236066,6,0,L|423:238,1,90,4|0,0:3|0:0,0:0:0:0:
393,314,236566,1,0,0:0:0:0:
393,314,236733,2,0,L|264:316,1,90,2|0,0:0|0:0,0:0:0:0:
232,341,237233,1,0,0:0:0:0:
232,341,237399,2,0,P|172:321|96:348,1,135,2|0,0:0|0:0,0:0:0:0:
31,326,238066,2,0,L|20:223,1,90,2|0,0:0|0:0,0:0:0:0:
142,141,238733,6,0,L|153:244,2,90,2|2|2,0:0|0:0|0:0,0:0:0:0:
36,42,239733,1,2,0:0:0:0:
256,192,239900,12,0,242566,0:0:0:0:
