osu file format v14

[General]
AudioFilename: audio.mp3
AudioLeadIn: 0
PreviewTime: 170733
Countdown: 0
SampleSet: Soft
StackLeniency: 0.7
Mode: 0
LetterboxInBreaks: 0
WidescreenStoryboard: 0

[Editor]
Bookmarks: 135066
DistanceSpacing: 1.2
BeatDivisor: 8
GridSize: 4
TimelineZoom: 2.999999

[Metadata]
Title:Orange
TitleUnicode:オレンジ
Artist:YuukaNeko
ArtistUnicode:佑可猫
Creator:kanor
Version:Natsu
Source:
Tags:初音ミク トーマ がっちゃん がっちゃん アザレアの心臓 touma heart of azalea no shinzou 猫大可 Lobelia
BeatmapID:1356770
BeatmapSetID:639749

[Difficulty]
HPDrainRate:6
CircleSize:4
OverallDifficulty:8
ApproachRate:9
SliderMultiplier:2
SliderTickRate:1

[Events]
//Background and Video events
0,0,"BG.jpg",0,0
//Break Periods
2,99933,107466
2,209932,213466
//Storyboard Layer 0 (Background)
//Storyboard Layer 1 (Fail)
//Storyboard Layer 2 (Pass)
//Storyboard Layer 3 (Foreground)
//Storyboard Sound Samples

[TimingPoints]
1400,666.666666666667,4,2,2,20,1,0
10400,-142.857142857143,4,2,2,30,0,1
11233,-142.857142857143,4,2,1,30,0,0
12066,-111.111111111111,4,2,1,30,0,0
16400,-142.857142857143,4,2,1,30,0,0
17400,-100,4,2,1,30,0,0
81400,-83.3333333333333,4,2,1,40,0,1
98400,-83.3333333333333,4,2,1,40,0,0
108066,-83.3333333333333,4,2,1,30,0,0
110733,-142.857142857143,4,2,1,40,0,0
112733,-100,4,2,1,40,0,0
150733,-76.9230769230769,4,2,1,40,0,0
150900,-76.9230769230769,4,2,1,10,0,0
151066,-71.4285714285714,4,2,1,30,0,0
151233,-71.4285714285714,4,2,1,10,0,0
151400,-66.6666666666667,4,2,1,30,0,0
151566,-66.6666666666667,4,2,1,10,0,0
151733,-62.5,4,2,1,30,0,0
151900,-62.5,4,2,1,10,0,0
152066,-200,4,2,1,30,0,0
153400,-83.3333333333333,4,2,1,40,0,1
170733,-142.857142857143,4,2,1,40,0,0
172066,-83.3333333333334,4,2,1,40,0,1
190066,-125,4,2,1,30,0,0
190733,-100,4,2,1,40,0,0
209066,-125,4,2,1,40,0,0
214733,-83.3333333333333,4,2,1,40,0,1
229733,-125,4,2,1,30,0,0
230733,-100,4,2,2,30,0,0

[Colours]
Combo1 : 192,64,192
Combo2 : 255,64,64
Combo3 : 255,128,64
Combo4 : 255,255,96
Combo5 : 96,255,64
Combo6 : 0,128,255

[HitObjects]
296,48,1400,6,0,P|348:40|400:60,1,100,4|0,0:3|0:0,0:0:0:0:
440,116,1900,1,0,0:0:0:0:
440,116,2066,2,0,L|428:224,1,100,2|0,0:0|0:0,0:0:0:0:
368,256,2566,1,0,0:0:0:0:
368,256,2733,2,0,P|320:241|271:249,2,100,2|2|2,0:0|0:0|0:0,0:0:0:0:
220,310,3733,2,0,L|216:360,1,50
140,292,4066,5,2,0:0:0:0:
196,236,4233,1,0,0:0:0:0:
220,310,4400,1,0,0:0:0:0:
140,292,4566,1,0,0:0:0:0:
196,236,4733,2,0,B|232:228|232:228|260:240|260:240|316:232,1,100,2|0,0:0|0:0,0:0:0:0:
164,160,5400,2,0,B|131:164|131:164|103:152|103:152|67:160,1,100,2|2,0:0|0:0,0:0:0:0:
76,84,5900,1,0,0:0:0:0:
76,84,6066,2,0,B|112:76|112:76|140:88|140:88|172:83,1,100,2|2,0:0|0:0,0:0:0:0:
252,48,6566,1,2,0:0:0:0:
336,76,6733,5,4,0:3:0:0:
272,128,6900,1,0,0:0:0:0:
252,48,7066,1,0,0:0:0:0:
272,128,7233,1,0,0:0:0:0:
336,76,7400,2,0,P|388:60|436:80,1,100,2|0,0:0|0:0,0:0:0:0:
392,236,7900,1,0,0:0:0:0:
392,236,8066,2,0,L|384:120,1,100,2|0,0:0|0:0,0:0:0:0:
468,176,8566,1,0,0:0:0:0:
468,176,8733,2,0,L|474:275,1,100,2|0,0:0|0:0,0:0:0:0:
324,256,9400,5,2,0:0:0:0:
240,224,9733,1,2,0:0:0:0:
172,240,10066,1,2,0:0:0:0:
136,268,10400,2,0,B|76:288|44:236|44:236|40:276,1,139.999995727539,2|0,0:0|0:0,0:0:0:0:
112,200,11233,1,0,0:0:0:0:
112,200,11316,1,0,0:0:0:0:
112,200,11400,1,8,0:0:0:0:
56,124,11566,1,8,0:0:0:0:
40,268,11733,1,0,0:0:0:0:
52,288,12066,6,0,P|96:280|148:296,1,89.9999972534181,2|0,0:3|0:0,0:0:0:0:
216,332,12733,1,8,0:0:0:0:
224,308,13066,2,0,L|236:248,1,44.999998626709
288,192,13400,6,0,P|332:200|384:184,2,89.9999972534181,0|0|8,0:0|0:0|0:0,0:0:0:0:
164,152,14400,2,0,L|248:148,1,44.999998626709
288,104,14733,6,0,P|332:96|384:112,1,89.9999972534181
448,200,15400,2,0,L|452:124,1,44.999998626709,8|8,0:0|0:0,0:0:0:0:
504,56,15733,2,0,L|500:132,1,44.999998626709
476,224,16066,5,0,0:0:0:0:
472,32,16400,6,0,B|440:44|440:44|408:32|408:32|372:44|372:44|332:20,1,139.999995727539,4|0,0:0|0:0,0:0:0:0:
252,44,17233,1,0,0:0:0:0:
252,44,17316,1,0,0:0:0:0:
252,44,17400,6,0,P|268:96|248:152,1,100,2|0,0:3|0:0,0:0:0:0:
184,96,17900,1,2,0:0:0:0:
120,232,18066,2,0,P|104:180|124:124,1,100,10|0,0:0|0:0,0:0:0:0:
184,180,18566,1,2,0:0:0:0:
112,308,18733,6,0,L|32:304,1,50,2|0,0:0|0:0,0:0:0:0:
64,184,19066,2,0,L|-16:180,1,50,2|0,0:0|0:0,0:0:0:0:
188,280,19400,2,0,L|312:288,1,100,10|2,0:0|0:0,0:0:0:0:
364,332,19900,1,2,0:0:0:0:
436,188,20066,6,0,P|452:240|432:296,1,100,2|0,0:0|0:0,0:0:0:0:
364,332,20566,1,2,0:0:0:0:
282,191,20733,2,0,P|271:239|287:286,1,100,10|0,0:0|0:0,0:0:0:0:
364,236,21233,1,2,0:0:0:0:
244,168,21400,5,2,0:0:0:0:
380,156,21566,1,0,0:0:0:0:
212,96,21733,1,2,0:0:0:0:
396,80,21900,1,0,0:0:0:0:
276,240,22066,1,10,0:0:0:0:
248,268,22400,2,2,L|176:268,1,50
104,260,22733,6,0,P|149:278|197:267,1,100,6|0,0:0|0:0,0:0:0:0:
156,192,23233,1,2,0:0:0:0:
24,220,23400,2,0,L|36:336,1,100,10|0,0:0|0:0,0:0:0:0:
103,263,23900,1,2,0:0:0:0:
78,133,24066,6,0,L|72:84,1,50,2|0,0:0|0:0,0:0:0:0:
248,148,24400,2,0,L|242:198,1,50,2|0,0:0|0:0,0:0:0:0:
196,44,24733,2,0,P|248:56|324:20,1,100,10|2,0:0|0:0,0:0:0:0:
440,36,25233,1,2,0:0:0:0:
440,36,25400,6,0,L|432:96,1,50,2|0,0:0|0:0,0:0:0:0:
348,212,25733,2,0,L|355:147,1,50,10|0,0:0|0:0,0:0:0:0:
472,280,26066,1,10,0:0:0:0:
452,300,26400,6,0,B|424:352|424:352|380:284|380:284|340:348,1,200,14|2,0:0|0:0,0:0:0:0:
236,276,27233,1,0,0:0:0:0:
236,276,27400,2,10,L|300:280,1,50,10|2,0:0|0:0,0:0:0:0:
176,340,27733,2,0,L|126:343,1,50,10|0,0:0|0:0,0:0:0:0:
244,176,28066,6,0,L|235:288,1,100,2|0,0:3|0:0,0:0:0:0:
160,192,28566,1,2,0:0:0:0:
328,152,28733,2,0,L|319:264,1,100,10|0,0:0|0:0,0:0:0:0:
244,176,29233,1,2,0:0:0:0:
416,124,29400,6,0,L|504:148,1,50,2|0,0:0|0:0,0:0:0:0:
328,152,29733,2,0,L|304:63,1,50,2|0,0:0|0:0,0:0:0:0:
412,243,30066,2,0,P|356:263|304:239,1,100,10|2,0:0|0:0,0:0:0:0:
252,208,30566,1,2,0:0:0:0:
180,336,30733,6,0,B|164:288|164:288|180:232,1,100,2|0,0:0|0:0,0:0:0:0:
248,284,31233,1,2,0:0:0:0:
96,336,31400,2,0,B|80:288|80:288|96:232,1,100,10|0,0:0|0:0,0:0:0:0:
180,336,31900,1,2,0:0:0:0:
68,220,32066,5,2,0:0:0:0:
177,240,32233,1,0,0:0:0:0:
48,188,32400,1,2,0:0:0:0:
192,144,32566,1,0,0:0:0:0:
32,156,32733,1,10,0:0:0:0:
16,128,33066,2,2,L|24:64,1,50
128,32,33400,6,0,P|176:48|252:12,1,100,6|0,0:0|0:0,0:0:0:0:
416,92,33900,1,2,0:0:0:0:
416,92,34066,2,0,P|368:108|292:72,1,100,10|0,0:0|0:0,0:0:0:0:
144,152,34566,1,2,0:0:0:0:
144,152,34733,6,0,P|192:168|268:132,1,100,2|0,0:0|0:0,0:0:0:0:
328,184,35233,1,2,0:0:0:0:
328,184,35400,2,0,L|325:233,1,50,10|0,0:0|0:0,0:0:0:0:
448,304,35733,2,0,L|450:254,1,50,2|0,0:0|0:0,0:0:0:0:
272,324,36066,6,0,L|380:324,1,100,6|0,0:0|0:0,0:0:0:0:
220,264,36566,1,2,0:0:0:0:
288,348,36733,2,0,L|396:348,1,100,10|0,0:0|0:0,0:0:0:0:
200,304,37232,1,2,0:0:0:0:
320,368,37400,6,0,L|369:370,1,50,2|0,0:0|0:0,0:0:0:0:
492,265,37733,2,0,L|442:262,1,50,2|0,0:0|0:0,0:0:0:0:
236,224,38066,2,0,L|356:232,1,100,8|0,0:0|0:0,0:0:0:0:
500,164,38733,6,0,L|428:160,1,50,2|0,0:3|0:0,0:0:0:0:
376,72,39066,2,0,L|425:74,1,50
296,124,39400,1,8,0:0:0:0:
280,24,39566,1,0,0:0:0:0:
312,144,39733,1,0,0:0:0:0:
380,40,39900,1,0,0:0:0:0:
208,136,40066,6,0,L|220:52,1,50,2|0,0:0|0:0,0:0:0:0:
256,200,40400,1,0,0:0:0:0:
180,152,40566,2,0,L|188:84,1,50,2|8,0:0|0:0,0:0:0:0:
192,16,40900,1,0,0:0:0:0:
64,56,41066,2,0,P|88:57|113:53,1,50,2|0,0:0|0:0,0:0:0:0:
16,120,41400,6,0,P|14:144|18:169,1,50
92,272,41733,2,0,P|93:247|89:222,1,50
36,348,42066,1,8,0:0:0:0:
60,356,42400,2,0,L|148:352,1,50
244,296,42733,6,0,L|156:300,1,50,2|0,0:0|0:0,0:0:0:0:
304,360,43066,1,0,0:0:0:0:
304,360,43233,1,2,0:0:0:0:
264,264,43400,2,0,L|196:264,1,50,8|0,0:0|0:0,0:0:0:0:
344,200,43733,2,0,P|348:164|336:120,1,50,2|0,0:0|0:0,0:0:0:0:
256,96,44066,6,0,P|252:60|264:16,1,50
332,68,44400,1,0,0:0:0:0:
184,128,44566,2,0,L|96:128,1,50,0|8,0:0|0:0,0:0:0:0:
35,140,44900,6,0,B|65:138|65:138|99:128|99:128|139:128,1,100
112,256,45400,2,0,P|108:220|120:176,1,50,2|0,0:0|0:0,0:0:0:0:
184,232,45733,1,0,0:0:0:0:
72,324,45900,2,0,P|48:300|36:268,1,50,2|8,0:0|0:0,0:0:0:0:
109,206,46233,1,0,0:0:0:0:
224,308,46400,2,0,L|140:308,1,50,2|0,0:0|0:0,0:0:0:0:
308,300,46733,6,0,L|296:368,1,50,2|0,0:0|0:0,0:0:0:0:
392,284,47066,2,0,L|380:352,1,50,2|0,0:0|0:0,0:0:0:0:
476,172,47400,2,0,L|488:240,1,50,10|0,0:0|0:0,0:0:0:0:
392,156,47733,2,0,L|404:224,1,50,2|0,0:0|0:0,0:0:0:0:
280,52,48066,6,0,L|268:120,1,50,2|0,0:0|0:0,0:0:0:0:
364,36,48400,2,0,L|352:104,1,50,2|0,0:0|0:0,0:0:0:0:
196,124,48733,2,2,P|140:108|88:128,1,100,10|2,0:0|0:0,0:0:0:0:
136,232,49233,1,2,0:0:0:0:
136,232,49400,6,0,L|148:168,1,50,2|0,0:3|0:0,0:0:0:0:
56,272,49733,2,0,L|44:208,1,50
208,272,50066,1,8,0:0:0:0:
128,312,50233,1,0,0:0:0:0:
284,304,50400,1,0,0:0:0:0:
136,232,50567,1,0,0:0:0:0:
300,228,50733,6,0,L|388:228,1,50,2|0,0:0|0:0,0:0:0:0:
284,304,51066,1,0,0:0:0:0:
276,200,51233,2,0,L|348:200,1,50,2|8,0:0|0:0,0:0:0:0:
400,308,51566,1,0,0:0:0:0:
488,232,51733,2,0,L|481:281,1,50,2|0,0:0|0:0,0:0:0:0:
408,196,52066,6,0,L|415:147,1,50
508,72,52400,2,0,L|502:122,1,50
296,88,52733,1,8,0:0:0:0:
400,76,52900,1,0,0:0:0:0:
256,64,53066,1,0,0:0:0:0:
378,150,53233,1,0,0:0:0:0:
216,40,53400,5,2,0:0:0:0:
416,8,53567,1,0,0:0:0:0:
300,164,53733,1,0,0:0:0:0:
300,164,53900,1,2,0:0:0:0:
140,136,54066,2,0,P|176:128|204:128,1,50,8|0,0:0|0:0,0:0:0:0:
52,160,54400,2,0,L|48:80,1,50,2|0,0:0|0:0,0:0:0:0:
176,200,54733,6,0,L|180:280,1,50
24,280,55066,1,0,0:0:0:0:
96,240,55233,1,0,0:0:0:0:
220,320,55400,2,0,P|164:328|120:308,1,100,8|0,0:0|0:0,0:0:0:0:
96,240,55900,1,0,0:0:0:0:
260,200,56066,6,0,L|264:272,1,50,2|0,0:0|0:0,0:0:0:0:
176,200,56400,1,0,0:0:0:0:
344,216,56566,2,0,L|344:166,1,50,2|8,0:0|0:0,0:0:0:0:
262,249,56900,1,0,0:0:0:0:
416,248,57066,2,0,P|436:244|468:248,1,50,2|0,0:0|0:0,0:0:0:0:
404,324,57400,6,0,P|423:330|449:350,1,50,2|0,0:0|0:0,0:0:0:0:
328,352,57733,1,0,0:0:0:0:
277,224,57900,2,0,P|273:204|277:171,1,50,2|8,0:0|0:0,0:0:0:0:
339,275,58233,1,0,0:0:0:0:
192,328,58400,2,0,P|176:341|146:354,1,50,2|0,0:0|0:0,0:0:0:0:
104,220,58733,6,0,P|123:227|149:246,1,50,2|0,0:0|0:0,0:0:0:0:
52,344,59066,2,0,P|48:323|52:291,1,50,2|0,0:0|0:0,0:0:0:0:
56,140,59400,1,10,0:0:0:0:
104,220,59566,1,10,0:0:0:0:
148,72,59733,1,2,0:0:0:0:
156,48,60066,5,12,0:0:0:0:
336,92,60400,1,12,0:0:0:0:
368,88,61400,5,12,0:0:0:0:
188,132,61734,1,12,0:0:0:0:
168,140,62733,5,12,0:0:0:0:
348,184,63067,1,12,0:0:0:0:
380,188,64066,5,12,0:0:0:0:
200,232,64400,1,12,0:0:0:0:
280,288,64566,1,0,0:0:0:0:
280,288,64650,1,0,0:0:0:0:
280,288,64733,2,0,L|372:284,1,50
108,268,65066,2,0,L|16:272,1,50
188,320,65400,5,12,0:0:0:0:
208,148,65733,1,12,0:0:0:0:
208,60,66733,5,12,0:0:0:0:
228,232,67066,1,12,0:0:0:0:
316,168,67233,1,0,0:0:0:0:
316,168,67316,1,0,0:0:0:0:
316,168,67400,2,0,P|276:160|236:168,1,50
336,280,67733,1,0,0:0:0:0:
384,216,67900,1,0,0:0:0:0:
388,344,68066,6,0,P|448:352|500:332,1,100,4|0,0:0|0:0,0:0:0:0:
260,304,68566,1,0,0:0:0:0:
260,304,68733,2,0,P|200:296|148:316,1,100,8|0,0:0|0:0,0:0:0:0:
48,340,69233,1,0,0:0:0:0:
48,340,69400,6,0,L|48:260,1,50
140,180,69733,2,0,L|140:230,1,50
140,230,69983,1,0,0:0:0:0:
140,230,70066,1,8,0:0:0:0:
52,208,70233,1,8,0:0:0:0:
163,307,70400,1,0,0:0:0:0:
180,300,70733,5,12,0:0:0:0:
348,212,71066,1,12,0:0:0:0:
376,196,72066,5,12,0:0:0:0:
215,94,72399,1,12,0:0:0:0:
180,80,73400,5,12,0:0:0:0:
172,270,73733,1,12,0:0:0:0:
180,300,74733,5,12,0:0:0:0:
344,204,75066,1,12,0:0:0:0:
240,248,75233,1,0,0:0:0:0:
240,248,75316,1,0,0:0:0:0:
240,248,75400,1,8,0:0:0:0:
420,232,75566,1,8,0:0:0:0:
248,164,75733,1,0,0:0:0:0:
344,204,75900,1,0,0:0:0:0:
254,64,76066,6,0,L|246:180,1,100,4|0,0:0|0:0,0:0:0:0:
332,124,76566,1,0,0:0:0:0:
184,32,76733,2,0,P|128:16|76:40,1,100,8|0,0:0|0:0,0:0:0:0:
136,92,77233,1,0,0:0:0:0:
247,163,77400,6,0,L|252:80,1,50
116,192,77733,2,0,L|111:275,1,50
344,284,78066,1,8,0:0:0:0:
192,256,78233,1,0,0:0:0:0:
324,372,78400,1,8,0:0:0:0:
364,200,78566,1,8,0:0:0:0:
260,312,78733,5,2,0:3:0:0:
428,264,79066,5,2,0:3:0:0:
324,372,79400,5,2,0:3:0:0:
492,324,79733,5,2,0:3:0:0:
444,80,81400,6,0,L|368:80,1,59.9999981689454,4|0,0:0|0:0,0:0:0:0:
248,132,81733,2,0,L|336:132,1,59.9999981689454
188,76,82066,2,0,P|168:140|196:196,1,119.999996337891,8|0,0:0|0:0,0:0:0:0:
248,132,82566,1,8,0:0:0:0:
128,240,82733,6,0,L|52:240,1,59.9999981689454
192,296,83066,2,0,L|280:296,1,59.9999981689454
316,240,83400,1,8,0:0:0:0:
308,356,83566,1,0,0:0:0:0:
376,184,83733,1,0,0:0:0:0:
392,348,83900,1,0,0:0:0:0:
428,120,84066,6,0,P|456:180|440:240,1,119.999996337891
445,230,84566,1,0,0:0:0:0:
340,108,84733,2,0,P|377:53|437:37,1,119.999996337891,8|0,0:0|0:0,0:0:0:0:
425,36,85233,1,8,0:0:0:0:
376,184,85400,6,0,L|276:184,1,59.9999981689454,0|0,0:0|0:0,0:0:0:0:
152,120,85733,2,0,L|252:120,1,59.9999981689454
276,284,86066,1,8,0:0:0:0:
236,208,86233,1,8,0:0:0:0:
256,16,86400,1,0,0:0:0:0:
296,92,86567,1,0,0:0:0:0:
80,160,86733,6,0,P|68:123|80:84,1,59.9999981689454,4|0,0:0|0:0,0:0:0:0:
60,248,87066,2,0,P|34:276|-5:286,1,59.9999981689454
144,220,87400,2,0,P|181:228|209:258,1,59.9999981689454,8|0,0:0|0:0,0:0:0:0:
144,220,87733,1,0,0:0:0:0:
259,195,87900,6,0,B|299:187|299:187|335:203|335:203|407:187,1,119.999996337891,8|0,0:0|0:0,0:0:0:0:
284,324,88566,2,0,B|292:265,1,59.9999981689454,0|8,0:0|0:0,0:0:0:0:
340,116,88900,1,0,0:0:0:0:
292,264,89066,1,0,0:0:0:0:
260,112,89233,1,0,0:0:0:0:
424,104,89400,6,0,P|459:102|508:120,1,59.9999981689454
324,188,89733,2,0,P|289:189|240:172,1,59.9999981689454
112,96,90066,1,8,0:0:0:0:
88,116,90400,6,0,B|104:152|132:184|132:184|72:144|-8:192,1,179.999994506836,12|0,0:0|0:0,0:0:0:0:
62,306,91066,2,0,L|76:248,1,59.9999981689454
144,344,91400,1,8,0:0:0:0:
216,296,91566,1,8,0:0:0:0:
296,296,91733,1,0,0:0:0:0:
368,344,91899,1,0,0:0:0:0:
468,248,92066,6,0,P|452:184|472:124,1,119.999996337891,4|0,0:0|0:0,0:0:0:0:
472,16,92566,1,0,0:0:0:0:
472,16,92733,2,0,P|424:61|362:74,1,119.999996337891,8|0,0:0|0:0,0:0:0:0:
312,164,93233,1,8,0:0:0:0:
312,164,93400,6,0,P|348:172|388:196,1,59.9999981689454
192,180,93733,2,0,P|156:172|116:148,1,59.9999981689454
260,232,94066,2,0,P|252:268|228:308,1,59.9999981689454,8|0,0:0|0:0,0:0:0:0:
244,112,94399,2,0,P|252:76|276:36,1,59.9999981689454
466,133,94733,5,0,0:0:0:0:
448,152,95066,2,0,L|388:149,1,59.9999981689454
216,108,95400,1,8,0:0:0:0:
300,164,95566,1,0,0:0:0:0:
144,144,95733,1,0,0:0:0:0:
288,76,95899,1,8,0:0:0:0:
132,44,96066,6,0,P|168:36|200:40,1,59.9999981689454
120,168,96400,1,0,0:0:0:0:
104,24,96566,2,0,P|140:16|172:20,1,59.9999981689454,0|8,0:0|0:0,0:0:0:0:
100,188,96900,1,0,0:0:0:0:
52,104,97066,1,0,0:0:0:0:
48,264,97233,1,0,0:0:0:0:
205,191,97400,6,0,B|183:207|183:207|147:165|91:191,1,119.999996337891,4|0,0:0|0:0,0:0:0:0:
232,264,97900,1,0,0:0:0:0:
324,228,98066,1,8,0:0:0:0:
420,288,98233,1,8,0:0:0:0:
504,220,98400,1,0,0:0:0:0:
504,220,98733,5,0,0:0:0:0:
420,288,99066,5,0,0:0:0:0:
324,228,99400,5,0,0:0:0:0:
232,264,99733,5,0,0:0:0:0:
80,112,108066,5,8,0:0:0:0:
76,284,108400,2,0,L|60:328,3,29.9999990844727
168,132,108733,1,8,0:0:0:0:
168,268,108900,2,0,L|168:188,1,59.9999981689454
256,256,109233,1,0,0:0:0:0:
344,132,109400,5,8,0:0:0:0:
344,160,109733,1,0,0:0:0:0:
344,188,110066,1,8,0:0:0:0:
488,108,110233,1,8,0:0:0:0:
425,293,110400,1,0,0:0:0:0:
500,348,110733,6,0,B|525:271|501:211|429:178|429:178|470:285|388:263|388:263|445:310,1,384.999988250733,2|0,0:3|0:0,0:0:0:0:
423,292,112733,6,8,L|350:291,1,50
248,344,113066,2,0,L|321:343,1,50
372,208,113400,5,4,0:0:0:0:
296,256,113566,1,0,0:0:0:0:
200,124,113733,1,0,0:0:0:0:
276,172,113899,1,0,0:0:0:0:
124,172,114066,1,8,0:0:0:0:
280,84,114233,2,0,B|320:80|320:80|344:92|344:92|416:80,1,100
456,96,114733,6,0,L|465:46,1,50,2|0,0:0|0:0,0:0:0:0:
376,88,115066,1,0,0:0:0:0:
484,76,115233,2,0,L|493:26,1,50,2|8,0:0|0:0,0:0:0:0:
408,156,115566,1,0,0:0:0:0:
385,38,115733,2,0,L|373:102,1,50,2|0,0:0|0:0,0:0:0:0:
351,213,116066,5,0,0:0:0:0:
464,213,116233,1,0,0:0:0:0:
408,270,116400,1,0,0:0:0:0:
408,156,116566,1,0,0:0:0:0:
332,288,116733,2,0,P|304:292|280:288,1,50,8|0,0:0|0:0,0:0:0:0:
132,248,117066,2,0,P|160:244|184:248,1,50
208,372,117400,6,0,P|204:344|208:320,1,50,2|0,0:0|0:0,0:0:0:0:
132,248,117733,1,0,0:0:0:0:
256,168,117900,2,0,P|260:196|256:220,1,50,2|8,0:0|0:0,0:0:0:0:
60,204,118233,1,0,0:0:0:0:
156,216,118400,1,2,0:0:0:0:
116,116,118566,1,0,0:0:0:0:
280,96,118733,6,0,P|244:92|200:104,1,50,2|0,0:0|0:0,0:0:0:0:
404,136,119066,2,0,P|435:118|464:82,1,50,2|0,0:0|0:0,0:0:0:0:
280,176,119400,2,0,P|265:209|262:254,1,50,10|0,0:0|0:0,0:0:0:0:
357,71,119733,2,0,P|349:35|324:-2,1,50,2|0,0:0|0:0,0:0:0:0:
357,201,120066,6,0,P|383:225|426:241,1,50,2|0,0:0|0:0,0:0:0:0:
280,96,120400,2,0,P|244:92|200:104,1,50,2|0,0:0|0:0,0:0:0:0:
204,104,120650,1,0,0:0:0:0:
204,104,120733,1,10,0:0:0:0:
84,148,120900,1,10,0:0:0:0:
168,200,121066,1,2,0:0:0:0:
96,260,121233,1,0,0:0:0:0:
144,328,121400,6,0,L|208:332,1,50,2|0,0:3|0:0,0:0:0:0:
316,288,121733,2,0,L|252:292,1,50
396,352,122066,1,8,0:0:0:0:
452,200,122232,1,0,0:0:0:0:
472,364,122400,1,0,0:0:0:0:
376,224,122566,1,0,0:0:0:0:
266,291,122733,5,2,0:0:0:0:
170,151,122899,1,0,0:0:0:0:
190,315,123067,1,0,0:0:0:0:
246,163,123233,1,2,0:0:0:0:
246,163,123400,2,0,L|252:96,1,50,8|0,0:0|0:0,0:0:0:0:
384,40,123733,2,0,P|356:44|300:32,1,50,2|0,0:0|0:0,0:0:0:0:
184,24,124066,5,0,0:0:0:0:
324,116,124233,1,0,0:0:0:0:
116,64,124400,1,0,0:0:0:0:
254,63,124566,1,0,0:0:0:0:
48,108,124733,1,8,0:0:0:0:
184,24,124900,1,0,0:0:0:0:
40,32,125066,1,0,0:0:0:0:
184,104,125233,1,0,0:0:0:0:
32,124,125400,5,2,0:0:0:0:
208,12,125566,1,0,0:0:0:0:
16,16,125733,1,0,0:0:0:0:
212,120,125900,1,2,0:0:0:0:
212,120,126066,2,0,L|208:188,1,50,8|0,0:0|0:0,0:0:0:0:
80,244,126400,2,0,P|108:240|164:252,1,50,2|0,0:0|0:0,0:0:0:0:
300,228,126733,5,0,0:0:0:0:
244,300,126900,1,0,0:0:0:0:
296,148,127066,1,0,0:0:0:0:
386,160,127233,1,0,0:0:0:0:
224,192,127400,1,8,0:0:0:0:
189,108,127567,1,0,0:0:0:0:
386,160,127733,1,0,0:0:0:0:
351,76,127900,1,0,0:0:0:0:
328,232,128066,5,2,0:0:0:0:
444,92,128233,1,0,0:0:0:0:
296,148,128399,1,0,0:0:0:0:
476,168,128566,1,2,0:0:0:0:
476,168,128733,2,0,B|468:208|468:208|480:236|480:236,1,50,8|0,0:0|0:0,0:0:0:0:
388,296,129066,2,0,L|412:216,1,50,2|0,0:0|0:0,0:0:0:0:
332,344,129400,6,0,L|240:344,1,50,2|0,0:0|0:0,0:0:0:0:
236,188,129733,1,0,0:0:0:0:
304,320,129900,2,0,L|212:320,1,50,2|8,0:0|0:0,0:0:0:0:
260,160,130233,1,0,0:0:0:0:
232,300,130400,1,2,0:0:0:0:
280,136,130566,1,0,0:0:0:0:
400,264,130733,5,2,0:0:0:0:
252,220,130900,1,0,0:0:0:0:
344,204,131066,1,2,0:0:0:0:
368,192,131400,2,0,L|376:96,1,50,10|8,0:0|0:0,0:0:0:0:
448,40,131733,2,0,P|452:80|436:128,1,50,2|2,0:0|0:0,0:0:0:0:
304,44,132066,6,0,P|328:42|353:46,1,50,2|0,0:3|0:0,0:0:0:0:
232,144,132400,2,0,L|238:94,1,50
272,212,132733,2,0,P|220:220|172:192,1,100,10|0,0:0|0:0,0:0:0:0:
148,128,133233,1,0,0:0:0:0:
100,248,133400,6,0,L|100:172,1,50,2|0,0:0|0:0,0:0:0:0:
32,112,133733,2,0,L|32:188,1,50,2|0,0:0|0:0,0:0:0:0:
52,304,134066,2,0,B|77:305|77:305|113:293|113:293|149:297,1,100,10|0,0:0|0:0,0:0:0:0:
224,328,134566,1,0,0:0:0:0:
228,204,134733,6,0,L|156:196,1,50,2|0,0:0|0:0,0:0:0:0:
300,244,135066,2,0,L|349:249,1,50
317,145,135400,2,0,L|297:257,1,100,10|0,0:0|0:0,0:0:0:0:
376,264,135900,1,0,0:0:0:0:
392,128,136066,6,0,P|372:96|340:72,1,50,2|0,0:0|0:0,0:0:0:0:
455,176,136400,2,0,P|492:174|529:158,1,50,2|0,0:0|0:0,0:0:0:0:
388,208,136733,2,2,L|367:319,1,100,10|10,0:0|0:0,0:0:0:0:
120,304,137400,6,0,P|157:305|194:321,1,50,2|0,0:0|0:0,0:0:0:0:
256,336,137733,1,0,0:0:0:0:
276,344,138066,2,0,L|287:266,1,50,10|0,0:0|0:0,0:0:0:0:
200,184,138400,2,0,L|189:262,1,50
288,152,138733,5,2,0:0:0:0:
216,96,138900,1,0,0:0:0:0:
200,184,139066,1,2,0:0:0:0:
304,68,139233,1,0,0:0:0:0:
304,68,139316,1,0,0:0:0:0:
304,68,139400,1,10,0:0:0:0:
132,128,139566,1,8,0:0:0:0:
276,240,139733,1,2,0:0:0:0:
380,104,139900,1,2,0:0:0:0:
348,268,140066,6,0,L|360:208,1,50,6|0,0:0|0:0,0:0:0:0:
488,288,140400,1,0,0:0:0:0:
416,320,140566,1,0,0:0:0:0:
276,240,140733,2,0,L|288:180,1,50,10|0,0:0|0:0,0:0:0:0:
284,324,141066,2,0,L|208:308,1,50
208,148,141400,6,0,L|198:197,1,50,2|0,0:0|0:0,0:0:0:0:
148,320,141733,2,0,L|158:271,1,50,2|0,0:0|0:0,0:0:0:0:
132,248,141983,1,0,0:0:0:0:
132,248,142066,1,10,0:0:0:0:
40,320,142233,1,8,0:0:0:0:
52,172,142400,1,2,0:0:0:0:
40,192,142733,6,0,L|36:136,1,50,2|0,0:3|0:0,0:0:0:0:
172,40,143066,2,0,L|168:89,1,50
264,172,143400,2,0,P|215:160|168:176,1,100,10|0,0:0|0:0,0:0:0:0:
219,242,143900,1,0,0:0:0:0:
344,132,144066,6,0,P|329:114|284:92,1,50,2|0,0:0|0:0,0:0:0:0:
340,216,144400,2,0,P|362:211|404:184,1,50,2|0,0:0|0:0,0:0:0:0:
420,72,144733,2,0,B|434:53|434:53|424:160,1,100,10|0,0:0|0:0,0:0:0:0:
386,200,145233,1,0,0:0:0:0:
512,220,145400,6,0,P|489:208|465:204,1,50,2|0,0:0|0:0,0:0:0:0:
496,316,145733,2,0,P|482:295|463:278,1,50
356,324,146066,2,0,B|344:343|344:343|391:331|447:347,1,100,10|0,0:0|0:0,0:0:0:0:
423,342,146566,1,0,0:0:0:0:
296,284,146733,6,0,P|279:311|268:364,1,50,2|0,0:0|0:0,0:0:0:0:
352,184,147066,2,0,P|368:156|380:104,1,50,2|0,0:0|0:0,0:0:0:0:
376,260,147400,2,0,P|403:276|456:288,1,50,10|0,0:0|0:0,0:0:0:0:
272,208,147733,2,0,P|244:191|192:180,1,50,2|0,0:0|0:0,0:0:0:0:
204,356,148066,6,2,B|196:320|196:320|205:297|205:297|196:224,1,100,2|0,0:0|0:0,0:0:0:0:
76,276,148566,1,2,0:0:0:0:
76,276,148733,2,2,L|152:284,1,50,10|2,0:0|0:0,0:0:0:0:
48,204,149066,2,2,L|124:196,1,50
0,136,149400,6,2,L|136:108,1,100,10|0,0:0|0:0,0:0:0:0:
200,40,149900,1,2,0:0:0:0:
200,40,150066,2,2,L|156:104,1,50,10|2,0:0|0:0,0:0:0:0:
192,200,150400,2,2,L|148:136,1,50
280,60,150733,6,0,B|314:66|314:66|342:58|342:58|374:66,1,97.4999955368044,2|0,0:3|0:0,0:0:0:0:
448,144,151066,6,0,B|406:134|406:134|370:142|370:142|326:130,1,104.999996795654,2|0,0:3|0:0,0:0:0:0:
236,200,151400,6,0,B|280:212|280:212|320:204|320:204|376:216,1,112.500004291535,2|0,0:3|0:0,0:0:0:0:
440,292,151733,6,0,B|396:280|396:280|348:288|348:288|296:272,1,120,2|0,0:3|0:0,0:0:0:0:
224,356,152066,6,0,B|288:348|288:348|344:364|344:364|400:356,1,175
440,292,153400,6,0,L|440:216,1,59.9999981689454,4|0,0:0|0:0,0:0:0:0:
388,96,153733,2,0,L|388:184,1,59.9999981689454
444,36,154066,2,0,P|380:16|324:44,1,119.999996337891,8|0,0:0|0:0,0:0:0:0:
300,116,154566,1,8,0:0:0:0:
188,56,154733,6,0,P|224:52|264:60,1,59.9999981689454
88,124,155066,2,0,P|52:128|12:120,1,59.9999981689454
188,152,155400,1,8,0:0:0:0:
80,216,155566,1,0,0:0:0:0:
224,248,155733,1,0,0:0:0:0:
52,304,155900,1,0,0:0:0:0:
300,280,156066,6,0,P|252:324|187:322,1,119.999996337891
199,326,156566,1,0,0:0:0:0:
292,200,156733,2,0,P|354:221|385:275,1,119.999996337891,8|0,0:0|0:0,0:0:0:0:
383,266,157233,1,8,0:0:0:0:
224,248,157400,6,0,L|176:172,1,59.9999981689454
280,72,157733,2,0,L|240:152,1,59.9999981689454
144,276,158066,1,8,0:0:0:0:
104,200,158233,1,8,0:0:0:0:
200,40,158400,1,0,0:0:0:0:
160,116,158567,1,0,0:0:0:0:
28,280,158733,6,0,P|16:243|28:204,1,59.9999981689454,4|0,0:0|0:0,0:0:0:0:
84,348,159066,2,0,P|58:376|19:386,1,59.9999981689454
124,268,159400,2,0,P|161:276|189:306,1,59.9999981689454,8|0,0:0|0:0,0:0:0:0:
84,348,159733,1,0,0:0:0:0:
248,256,159900,6,0,B|256:296|256:296|240:332|240:332|256:404,1,119.999996337891,8|0,0:0|0:0,0:0:0:0:
396,264,160566,2,0,B|388:225|388:225|400:192,1,59.9999981689454,0|8,0:0|0:0,0:0:0:0:
468,152,160900,1,0,0:0:0:0:
320,164,161066,1,0,0:0:0:0:
476,240,161233,1,0,0:0:0:0:
252,128,161400,6,0,P|246:157|248:187,1,59.9999981689454
391,89,161733,2,0,P|396:118|395:148,1,59.9999981689454
276,256,162066,1,8,0:0:0:0:
264,272,162400,6,0,B|236:300|248:352|248:352|216:304|168:300,1,179.999994506836,12|0,0:0|0:0,0:0:0:0:
320,324,163066,2,0,L|378:338,1,59.9999981689454
171,300,163400,1,8,0:0:0:0:
96,340,163566,1,8,0:0:0:0:
32,279,163733,1,0,0:0:0:0:
72,204,163899,1,0,0:0:0:0:
252,140,164066,6,0,P|276:200|248:260,1,119.999996337891,4|0,0:0|0:0,0:0:0:0:
196,200,164566,1,0,0:0:0:0:
312,76,164733,2,0,P|372:56|428:80,1,119.999996337891,8|0,0:0|0:0,0:0:0:0:
368,192,165233,1,8,0:0:0:0:
368,192,165400,2,0,P|363:151|377:103,1,59.9999981689454
408,318,165733,2,0,P|387:353|346:386,1,59.9999981689454
449,192,166067,2,0,P|486:174|537:171,1,59.9999981689454,8|0,0:0|0:0,0:0:0:0:
341,270,166400,2,0,P|300:260|257:232,1,59.9999981689454
474,270,166733,6,0,P|501:299|519:348,1,59.9999981689454
244,324,167066,1,0,0:0:0:0:
312,176,167233,1,0,0:0:0:0:
316,348,167400,1,8,0:0:0:0:
240,152,167566,1,0,0:0:0:0:
168,296,167733,1,0,0:0:0:0:
388,204,167899,1,8,0:0:0:0:
166,129,168066,6,0,P|136:128|108:136,1,59.9999981689454
240,152,168400,1,0,0:0:0:0:
100,56,168566,2,0,P|71:65|46:81,1,59.9999981689454,0|8,0:0|0:0,0:0:0:0:
176,48,168900,1,0,0:0:0:0:
32,160,169066,1,0,0:0:0:0:
184,208,169233,1,0,0:0:0:0:
24,320,169400,6,0,B|56:296|56:296|132:324,1,119.999996337891,4|0,0:0|0:0,0:0:0:0:
244,264,169900,1,0,0:0:0:0:
264,120,170066,1,8,0:0:0:0:
332,224,170233,1,8,0:0:0:0:
360,148,170400,1,0,0:0:0:0:
424,192,170566,1,0,0:0:0:0:
452,184,170733,6,0,P|504:212|444:192,1,174.999994659424,4|0,0:0|0:0,0:0:0:0:
264,120,171733,1,8,0:0:0:0:
244,264,171900,1,8,0:0:0:0:
212,64,172066,6,0,P|264:44|332:88,1,119.999996337891,4|0,0:3|0:0,0:0:0:0:
188,140,172566,1,0,0:0:0:0:
188,140,172733,2,0,P|144:104|148:24,1,119.999996337891,10|0,0:0|0:0,0:0:0:0:
138,44,173233,1,0,0:0:0:0:
76,172,173400,6,0,L|68:248,1,59.9999981689454,10|0,0:0|0:0,0:0:0:0:
212,272,173733,2,0,L|220:348,1,59.9999981689454,0|2,0:0|0:0,0:0:0:0:
108,192,174066,2,0,L|100:268,1,59.9999981689454,8|0,0:0|0:0,0:0:0:0:
244,292,174399,2,0,L|252:368,1,59.9999981689454,2|0,0:0|0:0,0:0:0:0:
297,134,174733,6,0,B|317:158|317:158|321:22,1,119.999996337891,14|0,0:0|0:3,0:3:0:0:
288,232,175233,1,0,0:0:0:0:
288,232,175400,2,0,B|328:232|328:232|364:216|364:216|412:216,1,119.999996337891,10|0,0:0|0:0,0:0:0:0:
380,292,175900,1,0,0:0:0:0:
464,160,176066,6,0,P|472:124|468:88,1,59.9999981689454,10|0,0:0|0:0,0:0:0:0:
319,69,176400,2,0,P|311:33|315:-3,1,59.9999981689454,0|2,0:0|0:0,0:0:0:0:
496,148,176733,2,0,P|503:118|501:89,1,59.9999981689454,8|0,0:0|0:0,0:0:0:0:
292,92,177067,2,10,P|284:63|285:33,1,59.9999981689454
192,164,177400,6,0,P|132:144|72:172,1,119.999996337891,4|0,0:3|0:0,0:0:0:0:
128,300,177900,1,0,0:0:0:0:
128,300,178066,2,0,B|140:320|140:320|136:200,1,119.999996337891,10|0,0:0|0:0,0:0:0:0:
56,236,178566,1,0,0:0:0:0:
216,240,178733,6,0,L|316:232,1,59.9999981689454,10|0,0:0|0:0,0:0:0:0:
316,340,179066,2,0,L|416:348,1,59.9999981689454,0|2,0:0|0:0,0:0:0:0:
236,200,179400,2,0,L|336:192,1,59.9999981689454,8|0,0:0|0:0,0:0:0:0:
336,364,179733,2,0,L|436:372,1,59.9999981689454,2|0,0:0|0:0,0:0:0:0:
392,148,180066,6,0,L|376:288,1,119.999996337891,14|0,0:0|0:0,0:0:0:0:
456,104,180566,1,0,0:0:0:0:
456,104,180733,2,0,P|400:72|336:96,1,119.999996337891,10|0,0:0|0:0,0:0:0:0:
296,144,181233,1,0,0:0:0:0:
212,48,181400,6,0,P|244:56|292:96,1,59.9999981689454,10|0,0:0|0:0,0:0:0:0:
112,132,181733,2,0,P|80:140|32:180,1,59.9999981689454,0|2,0:0|0:0,0:0:0:0:
88,324,182066,1,8,0:0:0:0:
8,296,182233,1,0,0:0:0:0:
156,232,182400,1,2,0:0:0:0:
236,204,182567,1,2,0:0:0:0:
312,284,182733,6,0,L|308:184,1,59.9999981689454,4|0,0:3|0:0,0:0:0:0:
172,348,183066,1,0,0:0:0:0:
252,376,183233,1,0,0:0:0:0:
388,312,183400,2,0,L|388:176,1,119.999996337891,10|0,0:0|0:0,0:0:0:0:
440,124,183900,1,0,0:0:0:0:
276,64,184066,6,0,L|180:56,1,59.9999981689454,10|0,0:0|0:0,0:0:0:0:
144,160,184400,2,0,L|252:164,1,59.9999981689454,0|2,0:0|0:0,0:0:0:0:
108,52,184733,2,0,L|12:44,1,59.9999981689454,8|0,0:0|0:0,0:0:0:0:
64,232,185066,1,2,0:0:0:0:
36,132,185233,1,0,0:0:0:0:
76,308,185400,6,0,P|116:292|140:252,1,59.9999981689454,14|0,0:0|0:0,0:0:0:0:
205,104,185733,2,0,P|198:146|221:187,1,59.9999981689454
384,296,186066,2,0,P|344:308|268:272,1,119.999996337891,10|0,0:0|0:0,0:0:0:0:
336,228,186566,1,0,0:0:0:0:
208,312,186733,6,0,P|200:276|212:240,1,59.9999981689454,10|0,0:0|0:0,0:0:0:0:
332,169,187066,2,0,P|340:205|328:241,1,59.9999981689454,0|2,0:0|0:0,0:0:0:0:
124,236,187400,1,8,0:0:0:0:
240,184,187566,1,0,0:0:0:0:
44,108,187733,1,10,0:0:0:0:
160,160,187899,1,10,0:0:0:0:
388,112,188066,6,0,P|332:92|272:116,1,119.999996337891,4|0,0:3|0:0,0:0:0:0:
332,169,188566,1,0,0:0:0:0:
456,72,188733,2,0,L|468:-20,1,59.9999981689454,10|0,0:0|0:0,0:0:0:0:
504,136,189066,1,0,0:0:0:0:
332,169,189234,6,0,L|324:109,1,59.9999981689454,0|10,0:0|0:0,0:0:0:0:
380,233,189566,1,10,0:0:0:0:
248,212,189733,1,2,0:0:0:0:
160,264,189900,1,2,0:0:0:0:
136,308,190066,6,0,P|196:280|264:312,1,140
260,307,190733,6,0,L|172:304,1,50,4|0,0:0|0:0,0:0:0:0:
328,352,191066,1,0,0:0:0:0:
328,352,191233,1,0,0:0:0:0:
216,224,191400,6,0,L|132:251,1,50,8|0,0:0|0:0,0:0:0:0:
312,232,191733,1,0,0:0:0:0:
312,232,191900,1,0,0:0:0:0:
136,168,192066,6,0,L|66:222,1,50
232,128,192400,1,0,0:0:0:0:
232,128,192567,1,0,0:0:0:0:
44,144,192733,6,0,L|-2:218,1,50,8|0,0:0|0:0,0:0:0:0:
168,64,193066,2,0,L|126:-13,1,50
168,216,193400,6,0,L|255:219,1,50
128,140,193733,1,0,0:0:0:0:
128,140,193900,1,0,0:0:0:0:
124,292,194066,6,0,L|36:295,1,50,8|0,0:0|0:0,0:0:0:0:
168,216,194400,1,0,0:0:0:0:
168,216,194566,1,0,0:0:0:0:
172,368,194733,6,0,L|259:371,1,50
288,196,195066,2,0,P|292:228|276:280,1,50
168,216,195400,5,8,0:0:0:0:
372,180,195566,1,0,0:0:0:0:
216,276,195733,1,8,0:0:0:0:
324,120,195900,1,8,0:0:0:0:
400,300,196066,6,0,L|420:204,1,50,4|0,0:0|0:0,0:0:0:0:
324,312,196400,1,0,0:0:0:0:
480,300,196566,1,0,0:0:0:0:
361,131,196733,6,0,L|381:227,1,50,8|0,0:0|0:0,0:0:0:0:
445,115,197067,1,0,0:0:0:0:
281,143,197233,1,0,0:0:0:0:
468,40,197400,6,0,L|392:36,1,50
252,68,197733,2,0,L|328:72,1,50
456,192,198066,5,8,0:0:0:0:
281,143,198233,1,0,0:0:0:0:
445,115,198400,1,0,0:0:0:0:
472,284,198566,1,0,0:0:0:0:
312,308,198733,6,0,L|408:292,1,50
144,200,199066,2,0,L|240:216,1,50
192,344,199400,6,0,L|288:328,1,50,8|0,0:0|0:0,0:0:0:0:
28,236,199733,2,0,L|124:252,1,50
32,40,200066,5,0,0:0:0:0:
70,156,200233,1,0,0:0:0:0:
136,80,200400,1,0,0:0:0:0:
168,177,200566,1,0,0:0:0:0:
220,16,200733,5,8,0:0:0:0:
272,175,200900,1,8,0:0:0:0:
316,28,201066,1,0,0:0:0:0:
348,125,201232,1,0,0:0:0:0:
428,12,201400,6,0,L|416:100,1,50,4|0,0:0|0:0,0:0:0:0:
376,156,201733,1,0,0:0:0:0:
456,43,201901,6,0,L|444:131,1,50,0|8,0:0|0:0,0:0:0:0:
404,184,202233,1,0,0:0:0:0:
484,71,202401,6,0,L|472:159,1,50
432,216,202733,1,0,0:0:0:0:
504,92,202901,6,0,L|496:161,1,50
452,288,203233,1,0,0:0:0:0:
452,288,203400,5,8,0:0:0:0:
324,256,203566,1,8,0:0:0:0:
224,324,203733,1,0,0:0:0:0:
128,216,203900,1,0,0:0:0:0:
56,360,204066,5,8,0:0:0:0:
56,360,204400,2,0,L|40:312,2,33.3333333333333
48,236,204733,5,8,0:0:0:0:
48,236,205066,2,0,L|96:220,2,33.3333333333333
160,140,205400,5,8,0:0:0:0:
160,140,205733,2,0,L|144:92,2,33.3333333333333
248,44,206066,6,0,L|232:92,2,33.3333333333333,8|0|0,0:0|0:0|0:0,0:0:0:0:
364,104,206400,2,0,L|348:56,2,33.3333333333333,8|0|0,0:0|0:0|0:0,0:0:0:0:
464,48,206733,5,12,0:0:0:0:
476,24,207066,1,12,0:0:0:0:
496,336,208066,5,12,0:0:0:0:
436,292,208400,1,12,0:0:0:0:
384,284,208733,1,0,0:0:0:0:
352,292,209066,6,0,B|300:264|276:296|248:320|196:288,1,160,12|0,0:0|0:0,0:0:0:0:
199,289,214066,5,8,0:0:0:0:
112,312,214233,1,8,0:0:0:0:
176,364,214400,1,0,0:0:0:0:
32,332,214566,1,0,0:0:0:0:
207,209,214733,6,0,P|156:167|94:167,1,119.999996337891,4|0,0:0|0:0,0:0:0:0:
104,164,215233,1,0,0:0:0:0:
199,289,215400,2,0,P|261:268|288:212,1,119.999996337891,8|0,0:0|0:0,0:0:0:0:
286,222,215900,1,8,0:0:0:0:
328,80,216067,6,0,L|322:139,1,59.9999981689454
476,40,216400,2,0,L|470:99,1,59.9999981689454
456,256,216733,1,8,0:0:0:0:
416,180,216900,1,8,0:0:0:0:
328,356,217067,1,0,0:0:0:0:
368,280,217234,1,0,0:0:0:0:
180,168,217400,6,0,P|217:156|256:168,1,59.9999981689454,4|0,0:0|0:0,0:0:0:0:
44,228,217733,2,0,P|16:202|6:163,1,59.9999981689454
152,312,218066,2,0,P|144:349|114:377,1,59.9999981689454,8|0,0:0|0:0,0:0:0:0:
80,312,218400,1,0,0:0:0:0:
80,156,218567,6,0,B|71:117|71:117|87:81|87:81|79:41,1,119.999996337891,8|0,0:0|0:0,0:0:0:0:
304,236,219233,2,0,B|296:197|296:197|312:161|312:161,1,59.9999981689454,0|8,0:0|0:0,0:0:0:0:
368,284,219566,1,0,0:0:0:0:
232,148,219733,1,0,0:0:0:0:
376,208,219900,1,0,0:0:0:0:
232,276,220066,6,0,L|160:276,1,59.9999981689454
368,284,220400,2,0,L|440:284,1,59.9999981689454
268,348,220733,1,8,0:0:0:0:
248,352,221066,6,0,B|144:352|144:352|112:372|112:372|48:340,1,179.999994506836,12|0,0:0|0:0,0:0:0:0:
84,224,221733,2,0,L|100:296,1,59.9999981689454
40,152,222067,1,8,0:0:0:0:
120,112,222233,1,8,0:0:0:0:
160,184,222400,1,0,0:0:0:0:
84,224,222566,1,0,0:0:0:0:
220,124,222733,6,0,P|244:180|224:240,1,119.999996337891,4|0,0:0|0:0,0:0:0:0:
160,184,223233,1,0,0:0:0:0:
272,56,223400,2,0,L|388:68,1,59.9999981689454,8|0,0:0|0:0,0:0:0:0:
212,49,223733,2,0,L|328:61,1,59.9999981689454,0|8,0:0|0:0,0:0:0:0:
408,172,224066,6,0,L|292:184,1,59.9999981689454
468,165,224399,2,0,L|352:177,1,59.9999981689454
280,304,224733,2,0,L|396:316,1,59.9999981689454,8|0,0:0|0:0,0:0:0:0:
220,297,225066,2,0,L|336:309,1,59.9999981689454
168,240,225400,6,0,P|143:293|188:364,1,119.999996337891
220,297,225900,1,0,0:0:0:0:
116,184,226066,2,0,P|63:159|-8:208,1,119.999996337891,8|0,0:0|0:0,0:0:0:0:
60,236,226566,1,8,0:0:0:0:
181,135,226733,6,0,P|210:126|240:128,1,59.9999981689454
328,160,227067,1,0,0:0:0:0:
468,224,227233,2,0,P|439:215|409:216,1,59.9999981689454,0|8,0:0|0:0,0:0:0:0:
180,276,227566,2,0,P|208:267|238:268,1,59.9999981689454
327,301,227900,1,0,0:0:0:0:
480,144,228066,6,0,P|451:135|421:136,1,59.9999981689454,4|0,0:0|0:0,0:0:0:0:
172,56,228400,2,0,P|200:47|230:48,1,59.9999981689454
268,68,228650,1,0,0:0:0:0:
268,68,228733,1,8,0:0:0:0:
216,264,228900,1,8,0:0:0:0:
212,124,229066,1,0,0:0:0:0:
152,312,229233,1,0,0:0:0:0:
152,176,229400,1,8,0:0:0:0:
132,160,229733,6,0,B|104:200|128:240|148:280|112:316,1,160,12|0,0:0|0:0,0:0:0:0:
48,348,230566,1,0,0:0:0:0:
48,348,230733,6,0,L|160:344,1,100,4|0,0:3|0:0,0:0:0:0:
232,320,231233,1,0,0:0:0:0:
232,320,231400,2,0,P|248:268|228:212,1,100,2|0,0:0|0:0,0:0:0:0:
152,184,231900,1,0,0:0:0:0:
152,184,232066,6,2,L|40:180,2,100
236,140,233066,2,0,L|240:76,1,50
188,36,233400,6,0,L|312:36,1,100,2|0,0:0|0:0,0:0:0:0:
348,84,233900,1,0,0:0:0:0:
348,84,234066,2,0,P|400:68|452:92,1,100,2|0,0:0|0:0,0:0:0:0:
408,244,234733,6,2,L|396:140,2,100
492,316,235733,2,2,L|442:313,1,50
364,348,236066,6,0,L|236:336,1,100,4|0,0:3|0:0,0:0:0:0:
192,304,236566,1,0,0:0:0:0:
192,304,236733,2,0,P|148:288|88:308,1,100,2|0,0:0|0:0,0:0:0:0:
48,364,237233,1,0,0:0:0:0:
48,364,237400,6,0,L|52:200,1,150,2|0,0:0|0:0,0:0:0:0:
96,132,238066,1,2,0:0:0:0:
180,108,238400,1,0,0:0:0:0:
248,140,238733,5,2,0:0:0:0:
272,184,239066,1,2,0:0:0:0:
268,212,239400,1,2,0:0:0:0:
260,228,239733,1,2,0:0:0:0:
256,192,239900,12,0,242566,0:0:0:0:
