osu file format v14

[General]
AudioFilename: audio.mp3
AudioLeadIn: 0
PreviewTime: 52843
Countdown: 0
SampleSet: Soft
StackLeniency: 0.6
Mode: 0
LetterboxInBreaks: 0
WidescreenStoryboard: 1

[Editor]
Bookmarks: 27165,97080,100386
DistanceSpacing: 1.1
BeatDivisor: 8
GridSize: 4
TimelineZoom: 1

[Metadata]
Title:Girls' Carnival
TitleUnicode:Girls' Carnival
Artist:Yuuka
ArtistUnicode:ユウカ
Creator:Log Off Now
Version:Log Off Nao's Normal
Source:Making*Lovers
Tags:eroge visual novel smee making lovers opening メイキング・ラバーズ garden nao tomori naotoshi
BeatmapID:1670993
BeatmapSetID:689715

[Difficulty]
HPDrainRate:4
CircleSize:3.2
OverallDifficulty:4
ApproachRate:5.5
SliderMultiplier:0.8
SliderTickRate:1

[Events]
//Background and Video events
0,0,"making-lovers-background.jpg",0,0
Video,0,"making lovers op movie no audio.avi"
//Break Periods
//Storyboard Layer 0 (Background)
//Storyboard Layer 1 (Fail)
//Storyboard Layer 2 (Pass)
//Storyboard Layer 3 (Foreground)
//Storyboard Sound Samples

[TimingPoints]
725,254.237288135593,4,2,1,60,1,0
6826,-100,4,2,1,60,0,0
8860,-100,4,2,1,75,0,0
19030,-100,4,2,1,45,0,0
43436,-100,4,2,1,55,0,0
47504,-100,4,2,1,60,0,0
49538,-100,4,2,1,65,0,0
52589,-100,4,2,1,65,0,0
53606,-100,4,2,1,70,0,1
69813,-100,4,2,1,70,0,0
69877,-100,4,2,1,70,0,1
86148,-100,4,2,1,70,0,0
90216,-100,4,2,1,65,0,0
94284,-100,4,2,1,65,0,0
98352,-100,4,2,1,65,0,0
99369,-100,4,2,1,65,0,0
100386,-100,4,2,1,10,0,0

[Colours]
Combo1 : 255,85,85
Combo2 : 171,250,185
Combo3 : 130,130,255
Combo4 : 251,181,230

[HitObjects]
89,142,725,6,0,L|182:150,1,80,2|2,0:0|0:0,0:0:0:0:
248,186,1233,2,0,B|324:178|324:178|334:158|337:121,2,120,2|2|2,0:0|0:0|0:0,0:0:0:0:
188,251,2250,1,0,0:0:0:0:
188,251,2504,1,0,0:0:0:0:
252,311,2758,6,0,L|331:316,1,80,2|2,0:0|0:0,0:0:0:0:
393,253,3267,2,0,B|405:193|442:174|442:174|460:209,2,120,2|2|2,0:0|0:0|0:0,0:0:0:0:
449,320,4284,1,0,0:0:0:0:
449,320,4538,1,0,0:0:0:0:
367,353,4792,5,0,0:0:0:0:
367,353,5047,2,0,P|265:330|204:355,1,160,8|8,0:0|0:0,0:0:0:0:
172,340,5682,2,0,P|139:282|146:225,1,120,0|8,0:0|0:0,0:0:0:0:
191,156,6318,1,0,0:0:0:0:
191,156,6572,1,8,0:0:0:0:
268,197,6826,5,0,1:0:0:0:
345,155,7080,2,0,P|352:76|291:21,1,160,8|8,0:0|0:0,0:0:0:0:
218,61,7843,2,0,L|163:62,2,40,0|8|8,1:0|3:1|3:2,0:0:0:0:
266,134,8352,2,0,L|274:226,1,80,8|4,3:0|3:0,0:0:0:0:
213,278,8860,6,0,P|144:295|124:294,1,80,4|8,1:2|0:0,0:0:0:0:
61,247,9369,2,0,L|41:158,1,80,2|8,1:2|0:0,0:0:0:0:
58,127,9750,2,0,B|68:45|68:45|100:19,1,120,2|10,1:2|0:0,0:0:0:0:
176,60,10386,1,2,1:2:0:0:
254,20,10640,1,10,0:0:0:0:
320,77,10894,6,0,L|412:76,1,80,2|10,1:2|0:0,0:0:0:0:
473,124,11402,2,0,P|493:159|481:245,2,120,2|2|8,1:2|1:2|0:0,0:0:0:0:
397,168,12419,1,2,1:2:0:0:
397,168,12674,1,10,0:0:0:0:
318,128,12928,6,0,L|233:133,1,80,2|8,1:2|0:0,0:0:0:0:
170,188,13436,2,0,B|137:209|100:203|100:203|91:262,2,120,2|2|10,1:2|1:2|0:0,0:0:0:0:
118,116,14453,2,0,L|101:29,1,80,2|10,1:2|0:0,0:0:0:0:
14,46,14962,6,0,B|33:135|33:135|8:169|8:209,1,160,4|2,1:2|1:2,0:0:0:0:
76,253,15724,1,10,0:0:0:0:
159,225,15979,2,0,L|249:226,1,80,2|8,0:0|0:0,0:0:0:0:
311,275,16487,2,0,L|315:330,2,40,8|8|10,3:0|3:0|3:2,0:0:0:0:
378,217,16996,6,0,P|454:209|492:286,1,160,6|4,0:0|0:3,0:0:0:0:
432,336,17758,2,0,L|263:332,1,160,10|10,0:0|3:1,0:0:0:0:
191,368,18521,1,10,3:3:0:0:
191,368,19030,6,0,L|178:275,1,80,4|8,1:2|0:1,0:0:0:0:
114,230,19538,2,0,P|97:166|107:138,1,80,0|8,1:0|0:1,0:0:0:0:
110,111,19919,2,0,P|172:108|224:84,1,120,0|8,1:0|0:1,0:0:0:0:
296,33,20555,1,0,1:0:0:0:
370,79,20809,1,8,0:1:0:0:
342,162,21063,6,0,L|346:251,1,80,0|8,1:0|0:1,0:0:0:0:
257,250,21572,2,0,L|253:161,1,80,0|8,1:0|0:1,0:0:0:0:
224,136,21953,2,0,P|187:113|107:148,1,120,2|10,1:2|0:1,0:0:0:0:
48,188,22589,2,0,L|54:274,1,80,2|10,1:2|0:1,0:0:0:0:
132,307,23097,6,0,P|192:289|223:293,1,80,2|8,1:2|0:1,0:0:0:0:
285,333,23606,1,0,1:0:0:0:
349,272,23860,1,8,0:1:0:0:
349,272,23987,2,0,P|415:288|474:268,1,120,0|8,1:0|0:1,0:0:0:0:
495,191,24623,1,0,1:0:0:0:
428,132,24877,1,8,0:1:0:0:
345,161,25131,6,0,P|290:166|175:154,1,160,0|0,1:0|1:0,0:0:0:0:
111,109,25894,1,8,0:1:0:0:
111,109,26021,2,0,P|98:160|110:238,1,120,2|8,1:2|0:1,0:0:0:0:
175,280,26657,2,0,L|254:281,1,80,0|10,0:0|0:1,0:0:0:0:
338,307,27165,5,4,1:2:0:0:
406,251,27419,2,0,P|398:210|396:155,1,80,8|0,0:1|1:0,0:0:0:0:
414,85,27928,1,8,0:1:0:0:
414,85,28055,2,0,P|371:75|289:78,1,120,0|8,1:0|0:1,0:0:0:0:
222,126,28691,1,0,1:0:0:0:
141,90,28945,1,8,0:1:0:0:
66,136,29199,6,0,L|69:221,1,80,0|8,1:0|0:1,0:0:0:0:
121,287,29708,2,0,L|206:290,1,80,0|8,1:0|0:1,0:0:0:0:
224,252,30089,2,0,P|249:199|226:145,1,120,2|10,1:2|0:1,0:0:0:0:
168,80,30724,1,2,1:2:0:0:
219,8,30979,1,10,0:1:0:0:
297,47,31233,6,0,B|371:73|371:14|459:44,1,160,2|0,1:2|1:0,0:0:0:0:
487,122,31996,1,8,0:1:0:0:
433,191,32250,2,0,B|416:232|416:232|428:312,2,120,2|2|10,0:0|0:0|0:1,0:0:0:0:
359,141,33267,6,0,L|187:154,1,160,6|0,1:2|1:0,0:0:0:0:
112,165,34030,1,8,0:1:0:0:
112,165,34157,2,0,P|125:220|92:290,1,120,4|8,1:2|3:1,0:0:0:0:
81,362,34792,2,0,L|174:354,1,80,8|4,3:0|3:0,0:0:0:0:
238,312,35301,6,0,L|317:318,2,80,4|8|0,1:2|0:0|1:0,0:0:0:0:
204,230,36063,1,8,0:0:0:0:
204,230,36191,2,0,P|229:165|219:107,1,120,0|8,1:0|0:0,0:0:0:0:
194,32,36826,2,0,L|114:38,1,80,0|8,1:0|0:0,0:0:0:0:
80,120,37335,6,0,L|0:113,2,80,0|8|0,1:0|0:0|1:0,0:0:0:0:
140,186,38097,1,8,0:0:0:0:
207,129,38352,2,0,P|250:106|290:106,1,80,2|8,0:0|0:0,0:0:0:0:
345,163,38860,2,0,P|378:183|418:187,1,80,2|8,1:2|0:0,0:0:0:0:
484,128,39369,6,0,B|512:175|512:175|493:290,1,160,2|0,1:2|1:0,0:0:0:0:
483,366,40131,1,8,0:0:0:0:
409,315,40386,2,0,P|376:295|336:291,1,80,0|8,0:0|0:0,0:0:0:0:
257,331,40894,2,0,P|223:351|184:354,1,80,0|8,1:0|0:0,0:0:0:0:
107,313,41402,6,0,B|79:266|79:266|98:151,1,160,0|0,1:0|1:0,0:0:0:0:
109,74,42165,1,8,0:0:0:0:
194,94,42419,2,0,L|276:111,1,80,0|8,1:0|0:0,0:0:0:0:
345,60,42928,2,0,L|423:43,1,80,8|4,3:0|3:0,0:0:0:0:
481,109,43436,6,0,L|469:238,2,120,0|0|0,1:0|1:0|1:0,0:0:0:0:
325,191,44708,1,0,1:0:0:0:
325,191,44962,2,0,L|332:272,1,80,8|0,0:1|0:0,0:0:0:0:
265,328,45470,6,0,L|136:316,2,120,0|0|0,1:0|1:0|1:0,0:0:0:0:
422,247,46742,1,0,1:0:0:0:
422,247,46996,2,0,L|503:240,1,80,8|0,0:1|1:0,0:0:0:0:
480,154,47504,6,0,B|406:128|406:187|318:157,1,160,4|8,1:2|0:1,0:0:0:0:
250,110,48267,1,0,0:0:0:0:
200,182,48521,2,0,L|204:271,1,80,4|0,1:2|0:0,0:0:0:0:
150,332,49030,2,0,P|102:342|64:335,1,80,8|8,0:1|0:1,0:0:0:0:
36,257,49538,6,0,B|56:164|56:164|36:89,1,160,4|0,1:2|1:0,0:0:0:0:
11,17,50301,1,8,0:1:0:0:
96,38,50555,2,0,B|170:64|170:5|258:35,1,160,0|8,1:0|3:0,0:0:0:0:
288,113,51318,1,4,3:0:0:0:
230,179,51572,6,0,B|202:217|202:217|213:304,1,120,8|8,1:0|1:0,0:0:0:0:
318,366,52335,1,8,1:0:0:0:
391,317,52589,1,8,1:0:0:0:
391,317,53606,6,0,L|383:225,1,80,4|8,1:2|0:0,0:0:0:0:
315,181,54114,2,0,P|256:177|228:188,1,80,0|8,1:0|0:0,0:0:0:0:
206,215,54496,2,0,B|170:236|170:236|82:221,1,120,0|8,1:0|0:0,0:0:0:0:
34,157,55131,2,0,L|42:65,1,80,0|8,1:0|0:0,0:0:0:0:
121,41,55640,6,0,B|195:15|195:74|283:44,1,160,0|0,1:0|1:0,0:0:0:0:
361,22,56402,1,8,0:0:0:0:
361,22,56530,2,0,P|369:68|362:140,1,120,0|8,1:0|0:0,0:0:0:0:
285,183,57165,2,0,L|288:269,1,80,0|8,1:0|0:0,0:0:0:0:
343,331,57674,6,0,P|381:339|420:333,1,80,0|8,1:0|0:0,0:0:0:0:
482,270,58182,2,0,L|485:184,1,80,0|8,1:0|0:0,0:0:0:0:
487,146,58563,2,0,B|451:125|451:125|363:140,1,120,0|8,1:0|0:0,0:0:0:0:
310,200,59199,2,0,L|224:191,1,80,0|8,1:0|0:0,0:0:0:0:
148,159,59708,6,0,B|122:233|181:233|151:321,1,160,0|0,1:0|1:0,0:0:0:0:
75,356,60470,1,8,0:0:0:0:
21,285,60724,2,0,P|38:230|38:201,1,80,0|8,1:0|0:0,0:0:0:0:
6,125,61233,2,0,P|28:71|46:49,1,80,0|8,1:0|0:0,0:0:0:0:
127,71,61741,6,0,P|192:87|290:42,1,160,4|0,1:2|1:0,0:0:0:0:
347,4,62504,1,8,0:0:0:0:
390,80,62758,2,0,P|407:135|407:164,1,80,0|8,1:0|0:0,0:0:0:0:
333,204,63267,2,0,P|316:259|316:288,1,80,0|8,1:0|0:0,0:0:0:0:
350,361,63775,6,0,B|276:387|276:328|188:358,1,160,0|0,1:0|1:0,0:0:0:0:
107,374,64538,1,8,0:0:0:0:
107,374,64666,2,0,P|99:328|106:256,1,120,0|8,1:0|0:0,0:0:0:0:
158,184,65301,2,0,P|208:191|237:183,1,80,0|8,1:0|0:0,0:0:0:0:
300,123,65809,6,0,L|289:-4,2,120,0|0|8,1:0|0:0|0:0,0:0:0:0:
367,179,66826,2,0,L|356:306,2,120,0|0|8,0:0|0:0|0:0,0:0:0:0:
436,124,67843,5,2,1:0:0:0:
292,21,68352,1,2,1:0:0:0:
122,68,68860,1,2,1:0:0:0:
100,242,69369,2,0,L|95:294,2,40,2|10|8,1:2|3:2|3:2,0:0:0:0:
166,184,69877,6,0,P|212:210|255:206,1,80,4|8,1:0|0:0,0:0:0:0:
310,160,70386,2,0,P|356:134|399:138,1,80,0|8,1:0|0:0,0:0:0:0:
419,156,70767,2,0,B|440:192|440:192|425:280,1,120,0|8,1:0|0:0,0:0:0:0:
366,333,71402,2,0,L|270:316,1,80,0|8,1:0|0:0,0:0:0:0:
235,247,71911,6,0,B|153:219|153:278|79:252,1,160,0|0,1:0|1:0,0:0:0:0:
6,202,72674,1,8,0:0:0:0:
6,202,72801,2,0,P|41:168|51:83,1,120,0|8,1:0|0:0,0:0:0:0:
7,26,73436,2,0,P|49:13|96:22,1,80,0|8,1:0|0:0,0:0:0:0:
151,74,73945,6,0,L|236:68,1,80,0|8,1:0|0:0,0:0:0:0:
302,18,74453,2,0,L|387:24,1,80,0|8,1:0|0:0,0:0:0:0:
425,29,74835,2,0,B|446:65|446:65|431:153,1,120,0|8,1:0|0:0,0:0:0:0:
366,200,75470,2,0,L|381:286,1,80,0|8,1:0|0:0,0:0:0:0:
402,364,75979,5,0,1:0:0:0:
316,343,76233,2,0,P|269:334|232:337,1,80,8|0,0:0|1:0,0:0:0:0:
153,364,76741,1,8,0:0:0:0:
167,276,76996,2,0,L|179:186,1,80,0|8,1:0|0:0,0:0:0:0:
256,158,77504,2,0,L|244:68,1,80,0|8,1:0|0:0,0:0:0:0:
172,28,78013,6,0,P|113:20|68:106,1,160,4|0,1:2|1:0,0:0:0:0:
121,165,78775,1,8,0:0:0:0:
79,243,79030,2,0,L|-7:231,2,80,0|8|0,1:0|0:0|1:0,0:0:0:0:
147,298,79792,1,8,0:0:0:0:
218,246,80047,5,4,1:2:0:0:
374,326,80555,1,4,1:2:0:0:
497,200,81063,1,4,1:2:0:0:
384,64,81572,2,0,L|391:13,2,40,4|0|8,1:2|0:0|0:0,0:0:0:0:
304,101,82080,6,0,B|278:175|337:175|307:263,1,160,4|0,1:2|1:0,0:0:0:0:
274,337,82843,1,8,0:0:0:0:
274,337,82970,2,0,P|211:314|159:320,1,120,0|8,1:0|0:0,0:0:0:0:
73,338,83606,2,0,L|81:252,1,80,0|8,1:0|0:0,0:0:0:0:
153,208,84114,6,0,L|144:78,1,120,2|2,1:2|0:0,0:0:0:0:
195,15,84750,1,2,0:0:0:0:
273,53,85004,2,0,P|319:67|393:48,1,120,2|10,1:2|0:0,0:0:0:0:
467,13,85640,5,8,3:0:0:0:
504,92,85894,1,4,3:0:0:0:
460,168,86148,1,4,1:2:0:0:
460,168,87928,1,0,3:2:0:0:
460,168,88182,6,0,L|478:333,1,160,2|2,3:2|3:2,0:0:0:0:
317,253,89199,2,0,L|335:88,1,160,2|4,3:2|3:0,0:0:0:0:
271,32,89962,1,4,3:0:0:0:
199,83,90216,6,0,P|156:96|118:89,1,80,4|8,1:2|0:0,0:0:0:0:
37,65,90724,2,0,P|27:102|28:148,1,80,2|8,1:0|0:0,0:0:0:0:
55,178,91106,2,0,B|78:213|78:213|69:300,1,120,2|8,1:0|0:0,0:0:0:0:
61,378,91741,1,0,1:0:0:0:
141,340,91996,1,10,0:0:0:0:
222,372,92250,6,0,P|264:378|307:368,1,80,2|8,1:0|0:0,0:0:0:0:
375,324,92758,2,0,L|368:243,1,80,2|8,1:0|0:0,0:0:0:0:
397,161,93267,2,0,B|323:135|323:194|235:164,1,160,2|0,0:0|1:0,0:0:0:0:
182,100,94030,1,10,0:0:0:0:
120,162,94284,6,0,L|127:300,2,120,4|0|0,1:2|1:0|1:0,0:0:0:0:
42,119,95301,2,0,L|49:-19,2,120,8|8|4,0:1|3:0|3:0,0:0:0:0:
120,162,96318,6,0,P|182:174|232:130,1,130,4|0,1:2|1:0,0:0:0:0:
197,17,97080,1,4,1:2:0:0:
256,192,97208,12,0,100386,0:0:0:0:
