osu file format v14

[General]
AudioFilename: Audio.mp3
AudioLeadIn: 0
PreviewTime: 129939
Countdown: 0
SampleSet: Soft
StackLeniency: 0.5
Mode: 0
LetterboxInBreaks: 0
WidescreenStoryboard: 1

[Editor]
Bookmarks: 169346
DistanceSpacing: 1.6
BeatDivisor: 4
GridSize: 16
TimelineZoom: 2.5

[Metadata]
Title:Girls' Carnival
TitleUnicode:Girls' Carnival
Artist:Yuuka
ArtistUnicode:ユウカ
Creator:Dored
Version:Laura's Light Insane
Source:Making*Lovers
Tags:Eir joker- Making Lovers Eroge Visual Novel Galgame Full Version Opening SMEE Garden PinkHeart -Laura- Akitoshi Corinn
BeatmapID:1763187
BeatmapSetID:827286

[Difficulty]
HPDrainRate:5.7
CircleSize:3.8
OverallDifficulty:7
ApproachRate:9
SliderMultiplier:1.34999990463257
SliderTickRate:1

[Events]
//Background and Video events
0,0,"Mashiro.jpg",0,0
//Break Periods
2,163444,168746
//Storyboard Layer 0 (Background)
//Storyboard Layer 1 (Fail)
//Storyboard Layer 2 (Pass)
//Storyboard Layer 3 (Foreground)
//Storyboard Sound Samples

[TimingPoints]
533,254.237288135593,4,2,1,40,1,0
533,-125,4,2,1,40,0,0
4600,-117.647058823529,4,2,1,40,0,0
6634,-111.111111111111,4,2,2,50,0,0
7778,-111.111111111111,4,2,2,40,0,0
7905,-111.111111111111,4,2,1,40,0,0
8032,-111.111111111111,4,2,2,40,0,0
8160,-111.111111111111,4,2,1,30,0,0
8287,-111.111111111111,4,2,1,40,0,0
8414,-111.111111111111,4,2,1,50,0,0
8541,-111.111111111111,4,2,1,60,0,0
8668,-100,4,2,2,70,0,0
23414,-100,4,2,2,60,0,0
23922,-100,4,2,2,50,0,0
24939,-100,4,2,2,70,0,0
25702,-100,4,2,2,60,0,0
26465,-100,4,2,2,50,0,0
26973,-100,4,2,2,60,0,0
43244,-100,4,2,3,50,0,0
51380,-125,4,2,2,50,0,0
57482,-100,4,2,2,50,0,0
59516,-125,4,2,2,60,0,0
59897,-111.111111111111,4,2,2,70,0,0
60278,-111.111111111111,4,2,2,80,0,0
60469,-111.111111111111,4,2,2,5,0,0
60532,-100,4,2,2,80,0,0
60914,-100,4,2,2,50,0,0
61168,-100,4,2,1,50,0,0
61486,-100,4,2,1,5,0,0
61549,-90.9090909090909,4,2,2,80,0,1
67588,-90.9090909090909,4,2,2,5,0,1
67651,-90.9090909090909,4,2,2,80,0,1
77439,-90.9090909090909,4,2,2,70,0,1
77757,-90.9090909090909,4,2,2,5,0,1
77821,-90.9090909090909,4,2,2,80,0,1
85893,-90.9090909090909,4,2,2,5,0,1
85956,-90.9090909090909,4,2,2,80,0,1
87990,-90.9090909090909,4,2,2,70,0,1
88499,-90.9090909090909,4,2,2,60,0,1
89007,-90.9090909090909,4,2,2,50,0,1
89516,-90.9090909090909,4,2,2,60,0,1
90024,-90.9090909090909,4,2,2,80,0,1
92058,-100,4,2,2,60,0,0
93075,-90.9090909090909,4,2,2,60,0,0
94092,-100,4,2,2,60,0,0
110363,-100,4,2,3,50,0,0
118499,-125,4,2,2,50,0,0
122566,-100,4,2,2,60,0,0
126316,-100,4,2,2,5,0,0
126380,-100,4,2,2,60,0,0
126634,-100,4,2,2,60,0,0
128668,-125,4,2,2,60,0,0
129049,-111.111111111111,4,2,2,70,0,0
129431,-111.111111111111,4,2,2,80,0,0
129621,-111.111111111111,4,2,2,5,0,0
129685,-100,4,2,2,80,0,0
130066,-100,4,2,2,50,0,0
130321,-100,4,2,1,50,0,0
130702,-90.9090909090909,4,2,2,80,0,1
136740,-90.9090909090909,4,2,2,5,0,1
136804,-90.9090909090909,4,2,2,80,0,1
146592,-90.9090909090909,4,2,2,70,0,1
146910,-90.9090909090909,4,2,2,5,0,1
146973,-90.9090909090909,4,2,2,80,0,1
153011,-90.9090909090909,4,2,2,5,0,1
153075,-90.9090909090909,4,2,2,80,0,1
155045,-90.9090909090909,4,2,2,5,0,1
155109,-90.9090909090909,4,2,2,80,0,1
157143,-90.9090909090909,4,2,2,70,0,1
157651,-90.9090909090909,4,2,2,60,0,1
158160,-90.9090909090909,4,2,2,50,0,1
158668,-90.9090909090909,4,2,2,60,0,1
159177,-90.9090909090909,4,2,2,80,0,1
163244,-125,4,2,2,50,0,0
170363,-100,4,2,2,50,0,0
171380,-111.111111111111,4,2,2,50,0,0
177482,-111.111111111111,4,2,2,60,0,0
179516,-100,4,2,2,70,0,0
189621,-100,4,2,2,5,0,0
189685,-100,4,2,2,70,0,0
191655,-100,4,2,2,5,0,0
191719,-100,4,2,2,70,0,0
192164,-100,4,2,2,5,0,0
192227,-100,4,2,2,70,0,0
195151,-100,4,2,2,50,0,0
195787,-125,4,2,2,50,0,0
196168,-111.111111111111,4,2,2,60,0,0
196549,-111.111111111111,4,2,2,70,0,0
196804,-100,4,2,2,70,0,0
197185,-100,4,2,2,50,0,0
197439,-100,4,2,1,50,0,0
197821,-125,4,2,2,70,0,0
200109,-111.111111111111,4,2,2,80,0,0
201253,-111.111111111111,4,2,2,50,0,0
201888,-111.111111111111,4,2,2,70,0,0
203922,-111.111111111111,4,2,2,60,0,0
205066,-111.111111111111,4,2,2,50,0,0
212058,-100,4,2,2,50,0,0
213075,-100,4,2,2,70,0,0
213710,-100,4,2,2,70,0,0
214092,-90.9090909090909,4,2,2,90,0,1
224261,-90.9090909090909,4,2,2,80,0,1
224770,-90.9090909090909,4,2,2,70,0,1
225278,-90.9090909090909,4,2,2,60,0,1
225787,-90.9090909090909,4,2,2,70,0,1
226295,-90.9090909090909,4,2,2,90,0,1
230363,-142.857142857143,4,2,2,70,0,0
232397,-142.857142857143,4,2,2,60,0,0
233922,-142.857142857143,4,2,2,50,0,0
234431,-100,4,2,2,70,0,0
238499,-125,4,2,2,70,0,0
239516,-125,4,2,2,50,0,0
240532,-125,4,2,2,60,0,0
241422,-125,4,2,2,60,0,0
244600,-125,4,2,2,5,0,0

[Colours]
Combo1 : 124,207,194
Combo2 : 246,130,152
Combo3 : 255,185,71
Combo4 : 167,144,200
Combo5 : 205,190,153

[HitObjects]
213,196,533,5,2,0:0:0:0:
235,214,787,1,0,1:2:0:0:
257,232,1041,2,0,L|250:290,2,53.9999961853028,2|2|2,2:3|0:0|1:2,0:0:0:0:
289,146,1422,6,0,P|340:140|410:135,1,107.999992370606,2|2,1:2|0:0,0:0:0:0:
445,57,1804,2,0,P|397:48|377:45,1,53.9999961853028,2|2,1:2|3:2,0:0:0:0:
309,22,2058,1,2,3:2:0:0:
309,22,2185,2,0,P|261:31|241:34,2,53.9999961853028,2|2|2,0:0|1:2|1:2,0:0:0:0:
270,132,2566,5,2,0:0:0:0:
257,156,2821,1,2,1:2:0:0:
244,180,3075,2,0,P|253:211|250:243,2,53.9999961853028,2|2|2,2:3|0:0|1:2,0:0:0:0:
166,131,3456,6,0,P|110:134|50:139,1,107.999992370606,2|2,1:2|0:0,0:0:0:0:
15,220,3838,2,0,P|44:223|75:229,1,53.9999961853028,2|2,1:2|3:2,0:0:0:0:
142,291,4092,1,2,3:2:0:0:
142,291,4219,2,0,P|171:288|202:282,2,53.9999961853028,2|2|2,0:0|1:2|1:2,0:0:0:0:
280,329,4600,6,0,P|288:298|288:258,1,57.3749970412254,2|0,0:0|0:0,0:0:0:0:
375,225,4855,2,0,P|376:253|384:281,1,57.3749970412254,10|0,0:0|0:0,0:0:0:0:
479,229,5109,1,2,2:3:0:0:
479,229,5236,1,2,0:0:0:0:
430,144,5363,1,10,0:0:0:0:
430,144,5490,6,0,P|374:127|307:154,1,114.749994082451,2|2,1:2|0:0,0:0:0:0:
232,181,5871,2,0,P|226:152|220:124,1,57.3749970412254,10|2,0:0|3:2,0:0:0:0:
147,59,6126,1,2,3:2:0:0:
147,59,6253,1,2,0:0:0:0:
75,125,6380,2,0,P|69:153|63:181,1,57.3749970412254,8|2,0:0|1:2,0:0:0:0:
53,283,6634,6,0,B|77:306|77:306|183:291,1,121.499987709046,2|0,0:0|0:0,0:0:0:0:
343,170,7143,2,0,B|319:193|319:193|213:178,1,121.499987709046,2|0,0:0|0:0,0:0:0:0:
413,59,7651,5,2,0:0:0:0:
488,128,7778,1,8,0:0:0:0:
488,128,7905,2,0,L|479:203,1,60.749993854523,8|2,0:0|0:0,0:0:0:0:
418,271,8160,6,0,L|421:298,14,15.1874984636307,2|0|0|0|4|0|0|0|8|0|0|0|4|0|0,2:3|0:0|0:0|0:0|3:0|0:0|0:0|0:0|0:0|0:0|0:0|0:0|3:0|0:0|0:0,0:0:0:0:
425,314,8668,6,0,B|383:312|383:312|339:327|339:327|277:322,1,134.999990463257,6|8,0:0|0:0,0:0:0:0:
203,250,9049,1,0,0:0:0:0:
203,250,9177,2,0,P|195:208|205:172,1,67.4999952316285,2|0,3:2|0:0,0:0:0:0:
231,73,9431,1,8,0:0:0:0:
331,128,9558,6,0,P|394:133|469:140,1,134.999990463257,2|2,0:0|0:0,0:0:0:0:
403,236,9939,2,0,P|367:236|330:222,1,67.4999952316285,8|0,0:0|0:0,0:0:0:0:
322,341,10194,2,0,P|296:316|280:279,1,67.4999952316285,2|0,3:2|0:0,0:0:0:0:
192,356,10448,2,0,P|191:320|205:283,1,67.4999952316285,8|0,0:0|3:0,0:0:0:0:
226,178,10702,6,0,B|154:165|166:210|75:188,1,134.999990463257,2|8,3:2|0:0,0:0:0:0:
27,98,11083,1,0,0:0:0:0:
27,98,11210,2,0,P|75:90|101:88,1,67.4999952316285,2|0,3:2|0:0,0:0:0:0:
209,81,11465,1,8,0:0:0:0:
261,183,11592,6,0,B|301:209|301:209|412:192,1,134.999990463257,2|2,0:0|0:0,0:0:0:0:
486,137,11973,2,0,P|478:86|474:59,1,67.4999952316285,8|0,0:0|0:0,0:0:0:0:
375,24,12227,1,2,3:2:0:0:
375,24,12355,1,0,3:0:0:0:
375,24,12482,2,0,P|369:57|364:90,1,67.4999952316285,8|0,0:0|3:0,0:0:0:0:
254,121,12736,6,0,P|207:105|182:102,1,67.4999952316285,2|0,3:2|0:0,0:0:0:0:
246,220,12990,2,0,P|197:229|174:239,1,67.4999952316285,8|0,0:0|0:0,0:0:0:0:
280,321,13244,2,0,P|237:346|219:363,1,67.4999952316285,2|0,3:2|0:0,0:0:0:0:
115,384,13499,1,8,0:0:0:0:
28,312,13626,6,0,P|36:241|43:163,1,134.999990463257,2|2,0:0|0:0,0:0:0:0:
129,103,14007,2,0,P|187:93|207:97,1,67.4999952316285,8|0,0:0|0:0,0:0:0:0:
176,208,14261,2,0,P|224:241|235:258,1,67.4999952316285,2|0,3:2|3:0,0:0:0:0:
136,317,14516,2,0,P|146:375|142:395,1,67.4999952316285,8|0,0:0|3:0,0:0:0:0:
52,236,14770,6,0,P|109:202|176:208,1,134.999990463257,2|8,3:2|0:0,0:0:0:0:
247,118,15151,1,0,0:0:0:0:
247,118,15278,2,0,P|203:117|170:103,1,67.4999952316285,2|0,3:2|0:0,0:0:0:0:
230,5,15532,1,8,0:0:0:0:
337,46,15660,6,0,P|345:112|354:189,1,134.999990463257,2|2,0:0|0:0,0:0:0:0:
363,294,16041,2,0,P|412:298|443:289,1,67.4999952316285,8|0,0:0|0:0,0:0:0:0:
261,237,16295,1,2,3:2:0:0:
261,237,16422,1,4,3:0:0:0:
178,316,16549,2,0,L|187:382,1,67.4999952316285,4|4,3:0|3:0,0:0:0:0:
62,277,16804,6,0,P|66:226|72:160,1,101.249992847443,6|0,0:0|0:0,0:0:0:0:
87,150,17058,2,0,P|85:113|83:68,1,67.4999952316285,8|0,0:0|0:0,0:0:0:0:
181,165,17312,2,0,P|179:198|177:232,1,67.4999952316285,2|0,3:2|0:0,0:0:0:0:
252,318,17566,1,8,0:0:0:0:
338,241,17694,6,0,B|414:233|390:279|474:269,1,134.999990463257,2|2,0:0|0:0,0:0:0:0:
511,164,18075,2,0,P|510:126|491:87,1,67.4999952316285,8|0,0:0|0:0,0:0:0:0:
397,151,18329,2,0,P|369:124|328:110,1,67.4999952316285,2|0,3:2|0:0,0:0:0:0:
314,224,18583,2,0,P|276:224|236:243,1,67.4999952316285,8|0,0:0|3:0,0:0:0:0:
154,302,18838,6,0,P|82:293|38:289,1,101.249992847443,2|0,3:2|0:0,0:0:0:0:
23,285,19092,2,0,P|17:247|24:215,1,67.4999952316285,8|0,0:0|0:0,0:0:0:0:
116,141,19346,2,0,P|121:174|115:207,1,67.4999952316285,2|0,3:2|3:0,0:0:0:0:
24,98,19600,1,8,0:0:0:0:
120,35,19727,6,0,B|159:54|159:54|256:39,1,134.999990463257,2|2,0:0|0:0,0:0:0:0:
305,140,20109,2,0,P|264:137|234:135,1,67.4999952316285,8|0,0:0|0:0,0:0:0:0:
159,218,20363,1,2,3:2:0:0:
159,218,20490,1,0,0:0:0:0:
253,282,20617,2,0,P|261:317|251:362,1,67.4999952316285,8|0,0:0|3:0,0:0:0:0:
146,380,20871,6,0,L|137:294,1,67.4999952316285,2|0,3:2|0:0,0:0:0:0:
28,280,21126,2,0,L|19:366,1,67.4999952316285,8|0,0:0|0:0,0:0:0:0:
128,225,21380,2,0,L|119:139,1,67.4999952316285,2|0,3:2|0:0,0:0:0:0:
113,43,21634,1,8,0:0:0:0:
219,86,21761,6,0,P|276:102|360:59,1,134.999990463257,2|2,0:0|0:0,0:0:0:0:
435,5,22143,2,0,P|443:44|449:79,1,67.4999952316285,8|0,0:0|0:0,0:0:0:0:
500,172,22397,2,0,P|494:233|487:290,1,101.249992847443,2|0,3:2|0:0,0:0:0:0:
482,302,22651,2,0,P|428:310|395:299,1,67.4999952316285,8|0,0:0|0:0,0:0:0:0:
289,259,22905,6,0,B|253:241|253:241|277:351,1,134.999990463257,6|8,0:0|0:0,0:0:0:0:
311,134,23414,2,0,P|241:109|180:135,1,134.999990463257,2|8,3:2|0:0,0:0:0:0:
94,197,23795,1,0,0:0:0:0:
94,197,23922,6,0,L|26:191,1,67.4999952316285,2|0,3:2|0:0,0:0:0:0:
56,302,24177,2,0,L|124:296,1,67.4999952316285,8|0,0:0|0:0,0:0:0:0:
237,287,24431,1,2,0:0:0:0:
237,287,24558,1,2,0:0:0:0:
296,188,24685,2,0,P|301:145|294:118,1,67.4999952316285,10|0,0:0|3:0,0:0:0:0:
159,82,24939,6,0,P|201:106|295:86,1,134.999990463257,6|0,0:0|3:0,0:0:0:0:
399,22,25321,2,0,L|415:164,1,134.999990463257,2|0,0:0|0:0,0:0:0:0:
293,216,25702,2,0,P|228:200|168:228,1,134.999990463257,2|0,3:2|0:0,0:0:0:0:
292,321,26083,5,2,0:0:0:0:
292,321,26210,2,0,P|325:331|384:316,1,67.4999952316285,2|2,0:0|0:0,0:0:0:0:
465,287,26465,1,4,3:0:0:0:
465,287,26592,1,4,3:0:0:0:
465,287,26719,2,0,P|468:247|471:203,1,67.4999952316285,4|4,3:0|3:0,0:0:0:0:
406,124,26973,6,0,P|370:161|364:258,1,134.999990463257,6|8,0:0|0:0,0:0:0:0:
202,371,27482,2,0,P|197:304|154:253,1,134.999990463257,2|8,3:2|0:0,0:0:0:0:
89,175,27863,6,0,P|157:169|245:162,1,134.999990463257,2|2,0:0|0:0,0:0:0:0:
306,106,28244,2,0,P|339:88|433:109,1,134.999990463257,8|2,0:0|3:2,0:0:0:0:
495,192,28626,1,0,0:0:0:0:
495,192,28753,2,0,L|489:271,1,67.4999952316285,8|0,0:0|0:0,0:0:0:0:
445,350,29007,6,0,P|354:334|295:330,1,134.999990463257,2|8,3:2|0:0,0:0:0:0:
130,238,29516,2,0,P|221:222|280:218,1,134.999990463257,2|8,3:2|0:0,0:0:0:0:
351,168,29897,6,0,B|377:138|377:138|353:33,1,134.999990463257,2|2,0:0|0:0,0:0:0:0:
258,17,30278,2,0,L|247:97,1,67.4999952316285,8|0,0:0|0:0,0:0:0:0:
159,37,30532,2,0,L|148:117,1,67.4999952316285,2|0,3:2|0:0,0:0:0:0:
58,57,30787,2,0,L|47:137,1,67.4999952316285,8|0,0:0|0:0,0:0:0:0:
39,224,31041,6,0,P|100:229|158:294,1,134.999990463257,2|8,3:2|0:0,0:0:0:0:
354,277,31549,2,0,P|293:282|235:347,1,134.999990463257,2|8,3:2|0:0,0:0:0:0:
331,377,31931,6,0,P|396:371|473:365,1,134.999990463257,2|2,0:0|0:0,0:0:0:0:
500,270,32312,2,0,P|502:231|493:201,1,67.4999952316285,8|0,0:0|0:0,0:0:0:0:
393,195,32566,2,0,P|366:166|339:151,1,67.4999952316285,2|0,3:2|0:0,0:0:0:0:
260,213,32821,2,0,P|221:211|191:220,1,67.4999952316285,8|0,0:0|0:0,0:0:0:0:
99,255,33075,6,0,P|94:195|89:113,2,134.999990463257,2|8|2,3:2|0:0|3:2,0:0:0:0:
293,313,33838,1,8,0:0:0:0:
293,313,33965,6,0,B|370:319|347:359|431:366,1,134.999990463257,2|2,0:0|0:0,0:0:0:0:
490,296,34346,1,8,0:0:0:0:
490,296,34473,1,0,0:0:0:0:
490,296,34600,2,0,P|487:257|484:219,1,67.4999952316285,2|0,3:2|0:0,0:0:0:0:
411,157,34855,1,8,0:0:0:0:
411,157,34982,1,0,3:0:0:0:
313,198,35109,6,0,P|242:185|175:177,1,134.999990463257,6|8,3:2|0:0,0:0:0:0:
6,72,35617,2,0,P|72:63|139:51,1,134.999990463257,2|8,3:2|0:0,0:0:0:0:
239,32,35999,6,0,P|294:68|379:42,1,134.999990463257,2|2,0:0|0:0,0:0:0:0:
444,2,36380,2,0,P|408:57|434:142,1,134.999990463257,8|2,0:0|3:2,0:0:0:0:
482,208,36761,1,0,0:0:0:0:
482,208,36888,2,0,L|474:293,1,67.4999952316285,8|0,0:0|0:0,0:0:0:0:
400,343,37143,6,0,P|334:322|260:337,1,134.999990463257,2|8,3:2|0:0,0:0:0:0:
101,220,37651,2,0,P|167:241|241:226,1,134.999990463257,2|8,3:2|0:0,0:0:0:0:
316,177,38032,6,0,B|332:139|332:139|309:45,1,134.999990463257,2|2,0:0|0:0,0:0:0:0:
213,15,38414,2,0,P|190:51|185:78,1,67.4999952316285,8|0,0:0|0:0,0:0:0:0:
84,77,38668,2,0,P|93:118|108:141,1,67.4999952316285,2|0,3:2|0:0,0:0:0:0:
36,211,38922,2,0,P|72:234|99:239,1,67.4999952316285,8|0,0:0|3:0,0:0:0:0:
224,195,39177,6,0,P|280:183|363:210,2,134.999990463257,2|8|2,3:2|0:0|3:2,0:0:0:0:
121,369,39939,2,0,P|180:363|203:362,1,67.4999952316285,8|2,0:0|0:0,0:0:0:0:
284,329,40194,6,0,B|347:334|381:337|381:337|419:307,1,134.999990463257,2|8,3:2|0:0,0:0:0:0:
451,221,40575,2,0,P|449:165|390:100,1,134.999990463257
300,114,40956,2,0,P|288:53|286:35,1,67.4999952316285,8|0,0:0|0:0,0:0:0:0:
159,23,41210,5,6,0:0:0:0:
159,23,41338,1,0,0:0:0:0:
159,23,41465,2,0,P|153:56|146:89,1,67.4999952316285,8|0,0:0|0:0,0:0:0:0:
38,129,41719,2,0,P|44:162|51:195,1,67.4999952316285,2|0,3:2|0:0,0:0:0:0:
127,281,41973,1,8,0:0:0:0:
222,217,42100,6,0,P|268:210|339:261,1,134.999990463257,6|2,0:0|0:0,0:0:0:0:
416,357,42482,1,8,0:0:0:0:
416,357,42609,1,4,3:0:0:0:
416,357,42736,2,0,L|512:349,1,67.4999952316285,2|2,3:2|3:2,0:0:0:0:
497,237,42990,1,2,3:2:0:0:
497,237,43117,1,2,3:2:0:0:
398,178,43244,6,0,B|360:204|360:204|261:189,2,134.999990463257,6|8|2,0:0|0:0|3:2,0:0:0:0:
212,41,44007,6,0,P|148:41|89:86,1,134.999990463257,8|2,0:0|0:3,0:0:0:0:
41,184,44388,1,2,0:0:0:0:
41,184,44516,2,0,L|51:255,1,67.4999952316285,8|0,0:0|0:0,0:0:0:0:
149,308,44770,2,0,L|158:241,1,67.4999952316285,2|0,0:0|0:0,0:0:0:0:
235,156,45024,1,8,0:0:0:0:
235,156,45151,1,0,3:0:0:0:
235,156,45278,6,0,P|293:181|380:155,2,134.999990463257,2|8|2,3:2|0:0|3:2,0:0:0:0:
421,21,46041,1,8,0:0:0:0:
421,21,46168,1,0,0:0:0:0:
491,111,46295,6,0,L|476:264,1,134.999990463257,2|8,0:3|0:0,0:0:0:0:
375,299,46677,1,0,0:0:0:0:
375,299,46804,2,0,P|361:252|368:217,1,67.4999952316285,2|0,3:2|0:0,0:0:0:0:
387,128,47058,1,8,0:0:0:0:
387,128,47185,1,0,0:0:0:0:
387,128,47312,6,0,P|322:123|228:118,2,134.999990463257,2|8|2,3:2|0:0|3:2,0:0:0:0:
465,347,48075,2,0,P|426:350|371:353,1,67.4999952316285,8|2,0:0|0:0,0:0:0:0:
287,323,48329,6,0,P|225:292|149:303,1,134.999990463257,2|8,0:3|0:0,0:0:0:0:
51,329,48710,1,0,0:0:0:0:
51,329,48838,2,0,L|56:255,1,67.4999952316285,2|0,3:2|0:0,0:0:0:0:
143,187,49092,2,0,L|138:113,1,67.4999952316285,8|0,0:0|0:0,0:0:0:0:
64,32,49346,6,0,P|28:87|30:155,2,134.999990463257,2|8|2,3:2|0:0|3:2,0:0:0:0:
293,19,50109,2,0,L|301:103,1,67.4999952316285,8|2,0:0|0:0,0:0:0:0:
306,200,50363,6,0,P|360:225|443:200,1,134.999990463257,2|8,0:3|0:0,0:0:0:0:
495,113,50744,1,0,0:0:0:0:
398,51,50871,1,2,3:2:0:0:
398,51,50999,1,4,0:3:0:0:
398,51,51126,2,0,L|280:59,1,101.249992847443,4|0,0:3|0:0,0:0:0:0:
268,67,51380,6,0,P|211:44|119:112,1,161.999988555908,6|2,0:0|0:0,0:0:0:0:
82,162,51888,2,0,L|94:271,1,107.999992370606,2|2,3:2|3:2,0:0:0:0:
227,379,52397,5,2,0:3:0:0:
279,214,52651,1,2,3:2:0:0:
397,340,52905,1,2,3:2:0:0:
397,340,53032,2,0,P|451:358|504:341,1,107.999992370606,0|0,0:0|0:0,0:0:0:0:
512,259,53414,6,0,P|505:180|498:89,1,161.999988555908,2|2,0:3|0:0,0:0:0:0:
442,31,53922,2,0,P|417:66|428:150,1,107.999992370606,2|2,3:2|0:0,0:0:0:0:
322,274,54431,5,2,3:0:0:0:
239,122,54685,1,2,3:2:0:0:
149,269,54939,1,2,3:2:0:0:
149,269,55066,1,0,0:0:0:0:
149,269,55194,1,2,0:0:0:0:
239,122,55448,6,0,B|326:97|318:157|419:128,1,161.999988555908,6|0,0:0|0:0,0:0:0:0:
474,74,55956,2,0,P|424:111|476:196,1,161.999988555908,2|0,3:2|3:0,0:0:0:0:
494,281,56465,6,0,B|407:256|415:316|314:287,1,161.999988555908,6|0,0:0|0:0,0:0:0:0:
254,238,56973,2,0,L|183:243,1,53.9999961853028,2|0,3:2|0:0,0:0:0:0:
103,250,57227,1,8,0:0:0:0:
103,250,57355,1,8,0:0:0:0:
38,180,57482,6,0,P|20:117|65:41,1,134.999990463257,6|8,0:0|0:0,0:0:0:0:
155,17,57863,1,0,0:0:0:0:
155,17,57990,2,0,P|158:52|163:98,1,67.4999952316285,2|0,0:0|0:0,0:0:0:0:
242,165,58244,2,0,P|239:200|234:246,1,67.4999952316285,8|2,0:0|0:0,0:0:0:0:
219,346,58499,6,0,P|279:374|369:351,1,134.999990463257,2|8,0:3|0:0,0:0:0:0:
451,321,58880,1,0,0:0:0:0:
394,221,59007,1,2,0:0:0:0:
394,221,59134,1,4,0:3:0:0:
394,221,59261,2,0,L|310:213,1,67.4999952316285,4|4,0:3|0:3,0:0:0:0:
256,154,59516,6,0,P|208:126|152:138,1,107.999992370606,2|0,0:0|0:0,0:0:0:0:
181,302,59897,6,0,B|192:204|192:204|168:229,1,121.499987709046,2|0,0:0|0:0,0:0:0:0:
261,335,60278,6,0,L|268:270,1,60.749993854523,2|0,0:0|0:0,0:0:0:0:
308,78,60532,6,0,B|335:66|359:65|359:65|388:71|412:89|412:89|444:71|500:66|500:66|468:89|444:124,1,269.999980926514,6|4,0:0|3:0,0:0:0:0:
452,112,61549,6,0,P|450:151|448:206,1,74.2499970207214,6|0,0:0|0:0,0:2:0:0:
354,260,61804,2,0,P|352:222|350:185,1,74.2499970207214,8|0,0:0|0:0,0:2:0:0:
256,112,62058,2,0,P|254:151|252:206,1,74.2499970207214,2|0,0:0|0:0,0:2:0:0:
181,281,62312,1,8,0:0:0:0:
72,232,62439,6,0,P|41:178|65:91,1,148.499994041443,2|2,0:0|0:0,0:0:0:0:
152,21,62821,2,0,L|160:105,1,74.2499970207214,8|0,0:0|3:0,0:0:0:0:
263,38,63075,2,0,L|255:122,1,74.2499970207214,2|0,0:0|0:0,0:0:0:0:
363,21,63329,2,0,L|371:105,1,74.2499970207214,8|0,0:0|0:0,0:0:0:0:
379,213,63583,6,0,B|477:226|477:226|501:208|511:171,2,148.499994041443,2|8|2,0:0|0:0|3:2,0:0:0:0:
259,201,64219,1,0,0:0:0:0:
259,201,64346,1,8,0:0:0:0:
285,316,64473,6,0,P|346:353|435:343,1,148.499994041443,2|2,0:0|0:0,0:0:0:0:
502,260,64855,2,0,L|506:180,1,74.2499970207214,8|0,0:0|0:0,0:0:0:0:
383,140,65109,2,0,B|373:175|373:175|381:225,1,74.2499970207214,2|0,0:0|0:0,0:0:0:0:
268,102,65363,2,0,B|278:67|278:67|270:17,1,74.2499970207214,8|0,0:0|0:0,0:0:0:0:
121,123,65617,6,0,L|249:106,1,111.374995531082,2|0,0:0|0:0,0:0:0:0:
268,102,65871,2,0,B|278:137|278:137|270:187,1,74.2499970207214,8|0,0:0|0:0,0:0:0:0:
185,277,66126,2,0,B|175:242|175:242|183:192,1,74.2499970207214,2|0,0:0|0:0,0:0:0:0:
281,293,66380,1,8,0:0:0:0:
194,374,66507,6,0,P|120:351|88:273,1,148.499994041443,2|2,0:0|0:0,0:0:0:0:
85,172,66888,2,0,L|1:162,1,74.2499970207214,8|0,0:0|0:0,0:0:0:0:
86,69,67143,1,2,0:0:0:0:
86,69,67270,1,0,0:0:0:0:
86,69,67397,2,0,L|170:58,1,74.2499970207214,8|0,0:0|0:0,0:0:0:0:
275,35,67651,6,0,P|355:13|426:45,2,148.499994041443,2|8|2,0:0|0:0|0:0,0:0:0:0:
226,144,68287,1,0,0:0:0:0:
226,144,68414,2,0,P|233:197|237:227,1,74.2499970207214,8|2,0:0|0:0,0:0:0:0:
397,213,68668,6,0,P|359:196|324:194,1,74.2499970207214,0|2,0:0|0:0,0:0:0:0:
384,303,68922,2,0,P|420:299|454:283,1,74.2499970207214,8|0,0:0|0:0,0:0:0:0:
504,175,69177,2,0,L|493:86,1,74.2499970207214,2|0,3:2|0:0,0:0:0:0:
399,30,69431,2,0,L|388:119,1,74.2499970207214,8|0,0:0|0:0,0:0:0:0:
305,216,69685,6,0,P|231:188|161:209,2,148.499994041443,6|8|2,0:0|0:0|3:2,0:0:0:0:
328,333,70321,1,0,0:0:0:0:
328,333,70448,2,0,P|263:327|244:325,1,74.2499970207214,8|2,0:0|0:0,0:0:0:0:
136,311,70702,6,0,P|96:310|60:325,1,74.2499970207214,0|2,0:0|0:0,0:0:0:0:
146,217,70956,2,0,P|111:196|73:191,1,74.2499970207214,8|0,0:0|0:0,0:0:0:0:
201,139,71210,2,0,P|181:103|150:80,1,74.2499970207214,2|0,0:0|0:0,0:0:0:0:
288,102,71465,2,0,P|289:61|274:26,1,74.2499970207214,8|0,0:0|0:0,0:0:0:0:
214,161,71719,6,0,P|276:196|350:173,2,148.499994041443,2|8|2,0:0|0:0|3:2,0:0:0:0:
140,66,72355,1,0,0:0:0:0:
140,66,72482,1,8,0:0:0:0:
57,150,72609,6,0,P|64:228|72:311,1,148.499994041443,2|2,0:0|0:0,0:0:0:0:
156,380,72990,2,0,P|179:349|189:305,1,74.2499970207214,8|0,0:0|0:0,0:0:0:0:
304,291,73244,2,0,P|288:255|255:224,1,74.2499970207214,2|0,0:0|0:0,0:0:0:0:
156,192,73499,1,8,0:0:0:0:
156,192,73626,1,0,0:0:0:0:
250,119,73753,6,0,B|341:112|310:159|395:153,1,148.499994041443,2|8,0:0|0:0,0:0:0:0:
426,37,74134,2,0,P|372:93|402:162,1,148.499994041443,0|0,0:0|0:0,0:0:0:0:
490,221,74516,1,8,0:0:0:0:
490,221,74643,1,2,0:0:0:0:
388,282,74770,6,0,P|324:269|240:260,1,148.499994041443,0|8,0:0|0:0,0:0:0:0:
123,242,75151,2,0,P|90:196|114:91,1,148.499994041443,0|0,0:0|0:0,0:0:0:0:
190,162,75532,1,8,0:0:0:0:
190,162,75660,1,0,0:0:0:0:
134,266,75787,6,0,L|127:359,1,74.2499970207214,2|0,0:0|0:0,0:0:0:0:
247,334,76041,2,0,L|240:241,1,74.2499970207214,8|0,0:0|0:0,0:0:0:0:
360,265,76295,2,0,L|353:358,1,74.2499970207214,2|0,3:2|0:0,0:0:0:0:
264,240,76549,1,8,0:0:0:0:
343,150,76677,6,0,B|392:144|431:172|431:172|482:151,1,148.499994041443,2|2,0:0|0:0,0:0:0:0:
502,33,77058,2,0,L|411:22,1,74.2499970207214,8|0,0:0|0:0,0:0:0:0:
315,11,77312,1,2,3:2:0:0:
334,128,77439,1,0,0:0:0:0:
315,11,77566,2,0,L|241:19,1,74.2499970207214,2|0,0:0|0:0,0:0:0:0:
96,58,77821,6,0,P|81:97|92:152,1,74.2499970207214,6|0,0:0|0:0,0:2:0:0:
224,154,78075,2,0,P|202:125|170:108,1,74.2499970207214,8|0,0:0|0:0,0:2:0:0:
78,216,78329,2,0,P|114:212|146:193,1,74.2499970207214,2|0,0:0|0:0,0:2:0:0:
249,253,78584,1,8,0:0:0:0:
178,348,78711,6,0,P|90:360|25:313,1,148.499994041443,2|2,0:0|0:0,0:0:0:0:
78,216,79092,2,0,P|114:212|146:193,1,74.2499970207214,8|0,0:0|0:0,0:2:0:0:
249,253,79346,2,0,P|271:223|280:187,1,74.2499970207214,2|0,0:0|0:0,0:2:0:0:
395,159,79600,2,0,P|390:122|371:91,1,74.2499970207214,8|0,0:0|0:0,0:2:0:0:
266,32,79855,6,0,B|230:9|193:15|193:15|168:48|113:42,2,148.499994041443,2|8|2,0:0|0:0|3:2,0:0:0:0:
284,150,80491,1,0,0:0:0:0:
284,150,80618,1,8,0:0:0:0:
171,189,80745,6,0,P|96:181|19:175,1,148.499994041443,2|2,0:0|0:0,0:0:0:0:
1,292,81127,2,0,P|36:290|85:287,1,74.2499970207214,8|0,0:0|0:0,0:0:0:0:
192,280,81380,2,0,B|202:315|202:315|194:365,1,74.2499970207214,2|0,0:0|0:0,0:0:0:0:
307,242,81635,2,0,B|297:207|297:207|305:157,1,74.2499970207214,8|0,0:0|0:0,0:0:0:0:
454,263,81889,6,0,L|326:246,1,111.374995531082,2|0,0:0|0:0,0:0:0:0:
307,242,82143,2,0,B|297:277|297:277|305:327,1,74.2499970207214,8|0,0:0|0:0,0:0:0:0:
204,192,82398,2,0,B|214:157|214:157|206:107,1,74.2499970207214,2|0,0:0|0:0,0:0:0:0:
149,16,82652,1,8,0:0:0:0:
47,76,82779,6,0,P|54:139|66:231,1,148.499994041443,2|2,0:0|0:0,0:0:0:0:
82,340,83160,2,0,L|-2:330,1,74.2499970207214,8|0,0:0|0:0,0:0:0:0:
173,272,83415,1,2,0:0:0:0:
173,272,83542,1,0,0:0:0:0:
173,272,83668,2,0,L|257:262,1,74.2499970207214,8|0,0:0|0:0,0:0:0:0:
378,194,83922,6,0,L|304:185,1,74.2499970207214,2|0,0:0|0:0,0:0:0:0:
244,81,84177,2,0,P|284:55|391:68,1,148.499994041443,8|2,0:0|0:0,0:0:0:0:
477,132,84559,1,0,0:0:0:0:
398,220,84685,2,0,L|486:229,1,74.2499970207214,8|4,0:0|0:0,0:0:0:0:
383,320,84940,6,0,P|345:337|310:339,1,74.2499970207214,0|2,0:0|0:0,0:0:0:0:
261,232,85194,2,0,P|222:217|195:193,1,74.2499970207214,8|0,0:0|0:0,0:0:0:0:
88,149,85448,2,0,L|99:238,1,74.2499970207214,2|0,0:0|0:0,0:0:0:0:
184,87,85703,2,0,L|195:-2,1,74.2499970207214,8|0,0:0|0:0,0:0:0:0:
346,67,85957,6,0,P|326:133|261:94,2,148.499994041443,6|8|2,0:0|0:0|0:0,0:0:0:0:
463,42,86593,1,0,0:0:0:0:
463,42,86720,2,0,P|476:97|473:131,1,74.2499970207214,8|2,0:0|0:0,0:0:0:0:
434,224,86973,6,0,L|444:316,1,74.2499970207214,0|2,0:0|0:0,0:0:0:0:
331,224,87227,2,0,L|321:316,1,74.2499970207214,8|0,0:0|0:0,0:0:0:0:
211,224,87482,2,0,L|221:316,1,74.2499970207214,2|0,0:0|0:0,0:0:0:0:
108,340,87736,1,8,0:0:0:0:
108,340,87863,1,2,3:2:0:0:
20,259,87990,6,0,B|1:160|1:160|29:104,1,148.499994041443,6|8,0:0|0:0,0:0:0:0:
22,117,88371,1,0,0:0:0:0:
175,128,88499,6,0,P|212:77|159:89,1,148.499994041443,6|8,0:0|0:0,0:0:0:0:
161,83,88880,1,0,0:0:0:0:
276,178,89007,6,0,P|303:136|282:31,1,148.499994041443,6|8,0:0|0:0,0:0:0:0:
290,42,89388,1,0,0:0:0:0:
419,72,89516,5,6,0:0:0:0:
418,198,89643,1,0,0:0:0:0:
439,87,89770,2,0,L|521:77,1,74.2499970207214,8|2,0:0|0:0,0:0:0:0:
422,227,90024,6,0,P|356:210|270:203,1,148.499994041443,6|8,0:0|0:0,0:0:0:0:
157,177,90405,2,0,B|119:164|119:164|141:275,1,148.499994041443,2|0,0:0|0:0,0:0:0:0:
228,359,90787,1,8,0:0:0:0:
228,359,90914,1,2,0:0:0:0:
333,304,91041,6,0,P|369:299|410:293,1,74.2499970207214,0|2,0:0|0:0,0:0:0:0:
495,212,91295,2,0,P|459:207|418:201,1,74.2499970207214,8|0,0:0|0:0,0:0:0:0:
333,121,91549,2,0,P|369:116|410:110,1,74.2499970207214,2|0,0:0|0:0,0:0:0:0:
322,25,91804,1,8,0:0:0:0:
322,25,91931,1,2,3:2:0:0:
322,25,92058,6,0,B|288:33|272:47|272:47|245:35|197:35,1,101.249992847443,0|0,0:0|0:0,0:0:0:0:
193,40,92312,2,0,L|186:130,1,67.4999952316285,6|0,0:0|0:0,0:0:0:0:
177,218,92566,2,0,L|181:264,2,33.7499976158142,4|0|4,3:0|0:0|3:0,0:0:0:0:
87,157,92821,2,0,P|48:153|10:168,1,67.4999952316285,2|0,0:0|0:0,0:0:0:0:
206,203,93075,6,0,B|260:196|260:196|291:213|291:213|358:204,1,148.499994041443,6|2,0:0|0:0,0:0:0:0:
481,182,93456,2,0,B|436:156|436:156|462:255,1,148.499994041443,6|2,0:0|0:0,0:0:0:0:
386,335,93838,2,0,P|332:354|262:335,1,111.374995531082,4|0,3:0|0:0,0:0:0:0:
246,336,94092,6,0,P|251:270|257:186,1,134.999990463257,6|8,0:0|0:0,0:0:0:0:
152,27,94600,2,0,P|156:94|161:161,1,134.999990463257,2|8,3:2|0:0,0:0:0:0:
256,201,94982,6,0,P|324:186|393:211,1,134.999990463257,2|2,0:0|0:0,0:0:0:0:
416,301,95363,2,0,B|346:295|358:344|272:333,1,134.999990463257,8|2,0:0|3:2,0:0:0:0:
202,288,95745,1,0,0:0:0:0:
202,288,95872,2,0,L|123:294,1,67.4999952316285,8|0,0:0|3:0,0:0:0:0:
35,273,96126,6,0,P|9:205|27:133,1,134.999990463257,2|8,3:2|0:0,0:0:0:0:
183,25,96634,2,0,P|254:36|308:88,1,134.999990463257,2|8,3:2|0:0,0:0:0:0:
366,153,97016,6,0,B|397:175|397:175|441:138|501:155,1,134.999990463257,2|2,0:0|0:0,0:0:0:0:
462,249,97397,2,0,L|451:329,1,67.4999952316285,8|0,0:0|0:0,0:0:0:0:
363,269,97651,2,0,L|352:349,1,67.4999952316285,2|0,3:2|0:0,0:0:0:0:
262,289,97906,2,0,L|251:369,1,67.4999952316285,8|0,0:0|0:0,0:0:0:0:
134,256,98160,6,0,B|213:249|197:296|287:289,1,134.999990463257,2|8,3:2|0:0,0:0:0:0:
401,142,98668,2,0,B|322:135|338:182|248:175,1,134.999990463257,2|8,3:2|0:0,0:0:0:0:
171,165,99050,6,0,P|156:110|186:30,1,134.999990463257,2|2,0:0|0:0,0:0:0:0:
275,4,99431,2,0,P|280:51|283:81,1,67.4999952316285,8|0,0:0|0:0,0:0:0:0:
417,10,99685,2,0,P|387:46|368:70,1,67.4999952316285,2|0,3:2|0:0,0:0:0:0:
511,119,99939,2,0,P|464:123|434:126,1,67.4999952316285,8|0,2:0|2:0,0:0:0:0:
366,237,100194,6,0,B|434:252|433:206|508:225,2,134.999990463257,2|8|2,3:2|0:0|3:2,0:0:0:0:
188,147,100957,1,8,0:0:0:0:
188,147,101083,6,0,B|120:132|121:178|46:159,1,134.999990463257,2|2,0:0|0:0,0:0:0:0:
13,257,101465,1,8,0:0:0:0:
13,257,101592,1,0,0:0:0:0:
13,257,101719,2,0,P|16:296|19:334,1,67.4999952316285,2|0,3:2|0:0,0:0:0:0:
116,367,101974,1,8,0:0:0:0:
116,367,102101,1,0,3:0:0:0:
313,198,102228,6,0,P|242:185|175:177,1,134.999990463257,6|8,0:0|0:0,0:0:0:0:
6,72,102736,2,0,P|72:63|139:51,1,134.999990463257,2|8,3:2|0:0,0:0:0:0:
239,32,103118,6,0,P|294:68|379:42,1,134.999990463257,2|2,0:0|0:0,0:0:0:0:
444,2,103499,2,0,P|408:57|434:142,1,134.999990463257,8|2,0:0|3:2,0:0:0:0:
482,208,103880,1,0,0:0:0:0:
482,208,104007,2,0,L|474:293,1,67.4999952316285,8|0,0:0|0:0,0:0:0:0:
400,343,104262,6,0,P|334:322|260:337,1,134.999990463257,2|8,3:2|0:0,0:0:0:0:
101,220,104770,2,0,P|167:241|241:226,1,134.999990463257,2|8,2:3|0:0,0:0:0:0:
316,177,105151,6,0,B|332:139|332:139|309:45,1,134.999990463257,2|2,0:0|0:0,0:0:0:0:
213,15,105533,2,0,P|190:51|185:78,1,67.4999952316285,8|0,0:0|0:0,0:0:0:0:
84,77,105787,2,0,P|93:118|108:141,1,67.4999952316285,2|0,3:2|0:0,0:0:0:0:
36,211,106041,2,0,P|72:234|99:239,1,67.4999952316285,8|0,0:0|0:0,0:0:0:0:
216,176,106296,6,0,P|262:149|356:166,2,134.999990463257,2|8|2,3:2|0:0|3:2,0:0:0:0:
223,378,107058,2,0,P|282:372|305:371,1,67.4999952316285,8|2,0:0|0:0,0:0:0:0:
369,307,107313,6,0,B|432:312|466:315|466:315|504:285,1,134.999990463257,2|8,3:2|0:0,0:0:0:0:
510,191,107694,2,0,P|479:156|377:138,1,134.999990463257
295,125,108075,2,0,P|283:64|281:46,1,67.4999952316285,8|0,0:0|0:0,0:0:0:0:
174,23,108329,5,6,0:0:0:0:
174,23,108457,1,0,0:0:0:0:
174,23,108584,2,0,P|168:56|161:89,1,67.4999952316285,8|0,0:0|0:0,0:0:0:0:
50,120,108838,2,0,P|56:153|63:186,1,67.4999952316285,0|0,3:2|0:0,0:0:0:0:
127,281,109092,1,8,0:0:0:0:
222,217,109219,6,0,P|268:210|339:261,1,134.999990463257,6|2,0:0|0:0,0:0:0:0:
416,357,109601,1,8,0:0:0:0:
416,357,109728,1,4,3:0:0:0:
416,357,109855,2,0,L|512:349,1,67.4999952316285,2|4,3:2|3:0,0:0:0:0:
497,237,110109,1,4,3:0:0:0:
497,237,110236,1,4,3:0:0:0:
398,178,110363,6,0,B|360:204|360:204|261:189,2,134.999990463257,6|8|2,0:0|0:0|3:2,0:0:0:0:
216,86,111126,2,0,L|140:94,1,67.4999952316285,8|0,0:0|0:0,0:0:0:0:
70,157,111380,6,0,P|61:194|70:245,1,67.4999952316285,2|2,3:0|0:0,0:0:0:0:
161,200,111634,2,0,P|180:232|223:262,1,67.4999952316285,8|0,0:0|0:0,0:0:0:0:
325,173,111888,2,0,P|291:175|259:167,1,67.4999952316285,2|0,3:2|0:0,0:0:0:0:
303,75,112143,1,8,0:0:0:0:
303,75,112270,1,0,0:0:0:0:
362,156,112397,6,0,P|447:165|513:173,2,134.999990463257,2|8|2,3:2|0:0|3:2,0:0:0:0:
159,140,113160,5,8,0:0:0:0:
159,140,113287,2,0,B|134:182|134:182|154:276,1,134.999990463257,0|2,0:0|0:0,0:0:0:0:
241,313,113668,2,0,P|255:277|254:242,1,67.4999952316285,8|0,0:0|0:0,0:0:0:0:
349,211,113922,2,0,P|350:244|363:275,1,67.4999952316285,2|0,3:2|0:0,0:0:0:0:
428,360,114177,1,8,0:0:0:0:
428,360,114304,1,0,0:0:0:0:
487,278,114431,6,0,B|474:201|515:218|504:136,2,134.999990463257,2|8|2,3:2|0:0|3:2,0:0:0:0:
304,367,115194,2,0,P|251:355|226:355,1,67.4999952316285,8|2,0:0|0:0,0:0:0:0:
136,351,115448,6,0,P|100:290|121:213,1,134.999990463257,2|8,3:0|0:0,0:0:0:0:
199,182,115829,1,0,0:0:0:0:
199,182,115956,2,0,P|205:139|210:106,1,67.4999952316285,2|0,3:2|0:0,0:0:0:0:
298,69,116210,2,0,P|304:112|309:145,1,67.4999952316285,8|0,0:0|3:0,0:0:0:0:
332,234,116465,6,0,P|397:212|477:230,2,134.999990463257,2|8|2,3:2|0:0|3:2,0:0:0:0:
145,313,117227,2,0,L|74:304,1,67.4999952316285,2|2,0:0|0:0,0:0:0:0:
18,221,117482,5,2,3:0:0:0:
18,221,117609,2,0,B|12:189|12:189|25:156,1,67.4999952316285,2|8,0:0|0:0,0:0:0:0:
115,111,117863,2,0,L|122:184,1,67.4999952316285,2|2,3:0|3:2,0:0:0:0:
219,220,118117,1,4,3:0:0:0:
219,220,118244,2,0,L|226:147,1,67.4999952316285,8|0,0:0|0:0,0:0:0:0:
238,45,118499,6,0,B|345:28|295:81|402:63,1,161.999988555908,6|2,0:0|0:0,0:0:0:0:
480,55,119007,2,0,L|474:132,1,53.9999961853028,2|0,3:2|0:0,0:0:0:0:
413,168,119261,2,0,L|419:245,1,53.9999961853028,2|0,3:2|0:0,0:0:0:0:
421,308,119516,6,0,P|368:295|291:282,1,107.999992370606,2|2,3:0|3:2,0:0:0:0:
230,270,119897,1,0,0:0:0:0:
184,196,120024,1,2,3:2:0:0:
184,196,120151,2,0,B|202:166|202:166|191:94,1,107.999992370606,0|0,0:0|0:0,0:0:0:0:
127,35,120532,6,0,B|88:13|52:13|52:13|8:46|9:95,1,161.999988555908,2|2,3:0|0:0,0:0:0:0:
1,168,121041,2,0,P|51:157|113:147,1,107.999992370606,2|2,3:2|0:0,0:0:0:0:
184,196,121422,1,0,0:0:0:0:
184,196,121549,6,0,P|227:207|255:212,1,53.9999961853028,2|0,3:0|0:0,0:0:0:0:
273,287,121804,2,0,P|230:298|202:303,1,53.9999961853028,2|0,3:2|0:0,0:0:0:0:
134,301,122058,1,2,3:2:0:0:
58,259,122185,1,0,0:0:0:0:
58,259,122312,2,0,P|51:232|58:191,1,53.9999961853028,2|0,0:0|0:0,0:0:0:0:
178,129,122566,6,0,L|185:205,1,67.4999952316285,6|0,0:0|0:0,0:0:0:0:
281,154,122821,1,8,0:0:0:0:
281,154,122948,1,0,0:0:0:0:
281,154,123075,2,0,L|288:78,1,67.4999952316285,2|0,3:2|0:0,0:0:0:0:
367,25,123329,1,8,0:0:0:0:
367,25,123456,1,2,0:0:0:0:
452,79,123583,6,0,P|464:114|459:155,1,67.4999952316285,2|0,3:2|0:0,0:0:0:0:
395,220,123838,1,8,0:0:0:0:
395,220,123965,1,0,0:0:0:0:
395,220,124092,2,0,P|383:255|388:296,1,67.4999952316285,2|0,3:2|0:0,0:0:0:0:
322,364,124346,1,8,0:0:0:0:
322,364,124473,1,0,0:0:0:0:
223,341,124600,6,0,P|165:362|86:329,2,134.999990463257,2|8|2,3:2|0:0|3:2,0:0:0:0:
162,258,125236,1,0,0:0:0:0:
162,258,125363,2,0,P|108:253|83:251,1,67.4999952316285,8|2,0:0|0:0,0:0:0:0:
39,167,125617,6,0,B|125:145|125:145|173:167,1,134.999990463257,2|8,3:0|0:0,0:0:0:0:
257,211,125999,1,0,0:0:0:0:
257,211,126126,2,0,P|268:168|270:138,1,67.4999952316285,2|0,3:2|0:0,0:0:0:0:
267,43,126380,1,8,0:0:0:0:
267,43,126507,1,2,3:2:0:0:
359,83,126634,6,0,P|410:70|493:61,1,134.999990463257,6|4,0:0|3:0,0:0:0:0:
399,200,127016,2,0,P|348:187|265:178,1,134.999990463257,4|4,3:0|3:0,0:0:0:0:
170,209,127397,2,0,B|158:242|158:242|167:284,1,67.4999952316285,6|0,0:0|0:0,0:0:0:0:
226,353,127651,6,0,B|152:344|165:386|87:366,1,134.999990463257,4|2,3:0|3:2,0:0:0:0:
7,316,128032,2,0,L|12:237,1,67.4999952316285,4|8,3:0|0:0,0:0:0:0:
78,172,128287,1,4,3:0:0:0:
78,172,128414,2,0,L|73:93,1,67.4999952316285,4|4,3:0|3:0,0:0:0:0:
137,38,128668,6,0,P|191:29|259:63,1,107.999992370606,2|0,0:0|0:0,0:0:0:0:
373,132,129049,6,0,P|319:123|251:157,1,121.499987709046,2|0,0:0|0:0,0:0:0:0:
327,285,129431,6,0,P|333:255|330:226,1,60.749993854523,2|0,0:0|0:0,0:0:0:0:
150,302,129685,6,0,B|194:300|225:317|225:317|280:299|280:299|305:317|365:313|365:313|346:305|314:271,1,269.999980926514,6|4,0:0|3:0,0:0:0:0:
328,285,130702,6,0,P|367:283|422:281,1,74.2499970207214,6|0,0:0|0:0,0:2:0:0:
476,187,130957,2,0,P|438:185|401:183,1,74.2499970207214,8|0,0:0|0:0,0:2:0:0:
328,89,131211,2,0,P|367:87|422:85,1,74.2499970207214,2|0,0:0|0:0,0:2:0:0:
241,20,131465,1,8,0:0:0:0:
137,78,131592,6,0,P|109:157|147:243,1,148.499994041443,2|2,0:0|0:0,0:0:0:0:
221,288,131974,2,0,L|229:372,1,74.2499970207214,8|0,0:0|0:0,0:0:0:0:
332,305,132228,2,0,L|324:389,1,74.2499970207214,2|0,0:0|0:0,0:0:0:0:
432,288,132482,2,0,L|440:372,1,74.2499970207214,8|0,0:0|0:0,0:0:0:0:
460,188,132736,6,0,B|415:180|385:197|385:197|350:200|318:175,2,148.499994041443,2|8|2,0:0|0:0|3:2,0:0:0:0:
510,79,133372,1,0,0:0:0:0:
510,79,133499,1,8,0:0:0:0:
411,12,133626,6,0,P|334:18|246:26,1,148.499994041443,2|2,0:0|0:0,0:0:0:0:
175,106,134008,2,0,P|166:144|179:186,1,74.2499970207214,8|0,0:0|0:0,0:0:0:0:
63,221,134262,2,0,B|73:186|73:186|65:136,1,74.2499970207214,2|0,0:0|0:0,0:0:0:0:
161,293,134516,2,0,B|151:328|151:328|159:378,1,74.2499970207214,8|0,0:0|0:0,0:0:0:0:
295,262,134770,6,0,L|281:133,1,111.374995531082,2|0,0:0|0:0,0:0:0:0:
280,113,135024,2,0,B|315:103|315:103|365:111,1,74.2499970207214,8|0,0:0|0:0,0:0:0:0:
431,19,135279,2,0,B|396:29|396:29|346:21,1,74.2499970207214,2|0,0:0|0:0,0:0:0:0:
241,1,135533,1,8,0:0:0:0:
156,84,135660,6,0,P|163:154|174:247,1,148.499994041443,2|2,0:0|0:0,0:0:0:0:
175,350,136041,2,0,L|91:340,1,74.2499970207214,8|0,0:0|0:0,0:0:0:0:
281,290,136296,1,2,0:0:0:0:
281,290,136423,1,0,0:0:0:0:
281,290,136550,2,0,L|365:279,1,74.2499970207214,8|0,0:0|0:0,0:0:0:0:
444,202,136804,6,0,B|464:124|409:129|434:54,2,148.499994041443,2|8|2,0:0|0:0|0:0,0:0:0:0:
338,146,137440,1,0,0:0:0:0:
338,146,137567,2,0,P|329:103|333:60,1,74.2499970207214,8|2,0:0|0:0,0:0:0:0:
225,18,137821,6,0,P|186:15|145:11,1,74.2499970207214,0|2,0:0|0:0,0:0:0:0:
225,123,138075,2,0,P|186:126|145:130,1,74.2499970207214,8|0,0:0|0:0,0:0:0:0:
59,206,138330,2,0,P|50:246|60:290,1,74.2499970207214,2|0,0:0|0:0,0:0:0:0:
169,306,138583,2,0,P|174:269|165:233,1,74.2499970207214,8|0,0:0|0:0,0:0:0:0:
60,123,138838,6,0,B|34:82|52:18|52:18|-1:63,2,148.499994041443,6|8|2,0:0|0:0|3:2,0:0:0:0:
146,216,139474,1,0,0:0:0:0:
146,216,139601,2,0,P|211:210|230:208,1,74.2499970207214,8|2,0:0|0:0,0:0:0:0:
299,121,139855,6,0,P|303:78|307:36,1,74.2499970207214,0|2,0:0|0:0,0:0:0:0:
364,191,140109,2,0,P|388:155|413:121,1,74.2499970207214,8|0,0:0|0:0,0:0:0:0:
390,285,140363,2,0,P|429:266|467:249,1,74.2499970207214,2|0,0:0|0:0,0:0:0:0:
361,377,140617,2,0,P|398:380|435:383,1,74.2499970207214,8|0,0:0|0:0,0:0:0:0:
284,301,140872,6,0,B|205:313|205:313|169:304|147:264,2,148.499994041443,2|8|2,0:0|0:0|3:2,0:0:0:0:
344,197,141508,1,0,0:0:0:0:
344,197,141635,1,8,0:0:0:0:
251,122,141762,6,0,B|166:117|193:168|92:163,1,148.499994041443,2|2,0:0|0:0,0:0:0:0:
79,48,142143,2,0,P|117:46|167:42,1,74.2499970207214,8|0,0:0|0:0,0:0:0:0:
82,161,142397,2,0,P|44:158|7:156,1,74.2499970207214,2|0,0:0|0:0,0:0:0:0:
44,270,142652,1,8,0:0:0:0:
44,270,142779,1,0,0:0:0:0:
160,249,142906,6,0,P|213:293|305:283,1,148.499994041443,2|8,0:0|0:0,0:0:0:0:
392,232,143287,2,0,P|386:306|382:380,1,148.499994041443,0|0,0:0|0:0,0:0:0:0:
490,299,143669,1,8,0:0:0:0:
490,299,143796,1,2,0:0:0:0:
410,211,143923,6,0,P|341:184|266:207,1,148.499994041443,0|8,0:0|0:0,0:0:0:0:
160,249,144304,2,0,B|134:215|134:215|145:100,1,148.499994041443,0|0,0:0|0:0,0:0:0:0:
234,32,144685,1,8,0:0:0:0:
234,32,144813,1,0,0:0:0:0:
309,123,144940,6,0,P|274:144|234:149,1,74.2499970207214,2|0,0:0|0:0,0:0:0:0:
183,252,145194,2,0,P|219:258|250:278,1,74.2499970207214,8|0,0:0|0:0,0:0:0:0:
334,361,145448,2,0,L|427:351,1,74.2499970207214,2|0,3:2|0:0,0:0:0:0:
502,281,145702,1,8,0:0:0:0:
405,207,145830,6,0,B|391:168|391:168|428:130|410:69,1,148.499994041443,2|2,0:0|0:0,0:0:0:0:
300,22,146211,2,0,P|263:17|216:31,1,74.2499970207214,8|0,0:0|0:0,0:0:0:0:
155,119,146465,1,2,3:2:0:0:
271,141,146592,1,0,0:0:0:0:
155,119,146719,2,0,P|110:122|64:126,1,74.2499970207214,2|0,0:0|0:0,0:0:0:0:
21,227,146973,6,0,P|54:242|101:242,1,74.2499970207214,6|0,0:0|0:0,0:0:0:0:
182,320,147227,2,0,P|155:344|121:358,1,74.2499970207214,8|0,0:0|0:0,0:0:0:0:
285,383,147482,2,0,P|300:350|300:303,1,74.2499970207214,2|0,0:0|0:0,0:0:0:0:
254,202,147737,1,8,0:0:0:0:
346,127,147864,6,0,B|435:118|408:170|506:155,1,148.499994041443,2|2,0:0|0:0,0:0:0:0:
352,36,148245,2,0,P|316:40|284:59,1,74.2499970207214,8|0,0:0|0:0,0:2:0:0:
171,20,148499,2,0,P|148:48|139:84,1,74.2499970207214,2|0,0:0|0:0,0:2:0:0:
24,113,148753,2,0,P|28:148|46:180,1,74.2499970207214,8|0,0:0|0:0,0:2:0:0:
133,262,149007,6,0,P|85:311|2:316,2,148.499994041443,2|8|2,0:0|0:0|3:2,0:0:0:0:
236,198,149644,1,0,0:0:0:0:
236,198,149771,1,8,0:0:0:0:
317,284,149898,6,0,B|417:300|417:300|469:270,1,148.499994041443,2|2,0:0|0:0,0:0:0:0:
502,165,150278,2,0,P|467:167|418:170,1,74.2499970207214,8|0,0:0|0:0,0:0:0:0:
324,113,150533,2,0,B|314:78|314:78|322:28,1,74.2499970207214,2|0,0:0|0:0,0:0:0:0:
198,97,150788,2,0,B|208:132|208:132|200:182,1,74.2499970207214,8|0,0:0|0:0,0:0:0:0:
157,295,151042,6,0,L|28:281,1,111.374995531082,2|0,0:0|0:0,0:0:0:0:
9,279,151296,2,0,B|3:241|3:241|13:206,1,74.2499970207214,8|0,0:0|0:0,0:0:0:0:
119,124,151549,2,0,B|129:159|129:159|123:196,1,74.2499970207214
16,63,151805,1,8,0:0:0:0:
122,11,151931,6,0,P|185:32|228:98,1,148.499994041443,2|2,0:0|0:0,0:0:0:0:
225,218,152313,2,0,L|309:208,1,74.2499970207214,8|0,0:0|0:0,0:0:0:0:
169,313,152566,1,0,0:0:0:0:
169,313,152695,1,0,0:0:0:0:
169,313,152821,2,0,L|85:303,1,74.2499970207214,8|0,0:0|0:0,0:0:0:0:
17,214,153075,6,0,P|9:178|18:133,1,74.2499970207214,2|0,0:0|0:0,0:0:0:0:
90,48,153330,2,0,B|167:40|153:83|247:71,1,148.499994041443,8|2,0:0|0:0,0:0:0:0:
351,48,153710,1,0,0:0:0:0:
462,85,153838,2,0,P|473:123|466:172,1,74.2499970207214,8|4,0:0|0:0,0:0:0:0:
396,253,154093,6,0,P|400:291|407:350,1,74.2499970207214,0|2,0:0|0:0,0:0:0:0:
277,242,154346,2,0,P|281:205|285:168,1,74.2499970207214,8|0,0:0|0:0,0:0:0:0:
216,71,154600,2,0,P|175:69|129:83,1,74.2499970207214,2|0,0:0|0:0,0:0:0:0:
86,182,154855,2,0,P|122:190|159:187,1,74.2499970207214,8|0,0:0|0:0,0:0:0:0:
313,159,155110,6,0,B|356:189|356:189|465:180,2,148.499994041443,6|8|2,0:0|0:0|0:0,0:0:0:0:
256,57,155744,1,0,0:0:0:0:
256,57,155871,2,0,P|311:44|345:47,1,74.2499970207214,8|0,0:0|0:0,0:0:0:0:
458,107,156126,6,0,L|450:197,1,74.2499970207214,0|2,0:0|0:0,0:0:0:0:
319,232,156380,2,0,L|312:158,1,74.2499970207214,8|0,0:0|0:0,0:0:0:0:
423,272,156634,2,0,L|415:362,1,74.2499970207214,2|0,0:0|0:0,0:0:0:0:
301,377,156888,1,8,0:0:0:0:
301,377,157016,1,2,3:2:0:0:
195,322,157143,6,0,B|132:352|74:308|74:308|121:285,1,148.499994041443,6|8,0:0|0:0,0:0:0:0:
91,299,157524,1,0,0:0:0:0:
181,220,157652,6,0,B|205:138|155:151|178:63,1,148.499994041443,6|8,0:0|0:0,0:0:0:0:
175,74,158033,1,0,0:0:0:0:
314,88,158160,6,0,P|271:123|289:71,1,148.499994041443,6|8,0:0|0:0,0:0:0:0:
289,71,158541,1,0,0:0:0:0:
408,65,158669,5,6,0:0:0:0:
438,179,158796,1,0,0:0:0:0:
399,46,158923,2,0,L|481:36,1,74.2499970207214,8|0,0:0|3:2,0:0:0:0:
441,202,159177,6,0,B|401:207|380:237|380:237|340:220|290:237,1,148.499994041443,6|8,0:0|0:0,0:0:0:0:
193,249,159558,2,0,B|157:224|157:224|177:112,1,148.499994041443,2|0,0:0|0:0,0:0:0:0:
250,27,159940,1,8,0:0:0:0:
250,27,160067,1,2,0:0:0:0:
349,91,160194,6,0,L|441:81,1,74.2499970207214,0|2,0:0|0:0,0:0:0:0:
362,193,160448,2,0,L|446:230,1,74.2499970207214,8|0,0:0|0:0,0:0:0:0:
321,287,160702,2,0,L|375:361,1,74.2499970207214,2|0,0:0|0:0,0:0:0:0:
245,360,160957,1,8,0:0:0:0:
245,360,161084,1,0,0:0:0:0:
162,275,161210,6,0,P|176:233|184:165,1,111.374995531082,2|0,0:0|0:0,0:0:0:0:
185,128,161465,2,0,P|221:122|270:116,1,74.2499970207214,8|0,0:0|0:0,0:0:0:0:
342,33,161719,2,0,P|305:27|268:22,1,74.2499970207214,2|0,0:0|0:0,0:0:0:0:
150,8,161973,1,8,0:0:0:0:
57,82,162100,6,0,P|65:158|74:244,1,148.499994041443,6|2,0:0|0:0,0:0:0:0:
174,292,162482,2,0,P|192:239|190:209,1,74.2499970207214,8|0,0:0|0:0,0:0:0:0:
278,140,162736,1,2,3:2:0:0:
278,140,162863,1,4,3:0:0:0:
364,221,162990,2,0,P|366:257|381:291,1,74.2499970207214,8|4,0:0|3:0,0:0:0:0:
485,226,163244,5,6,0:0:0:0:
240,140,169346,6,0,L|247:207,1,53.9999961853028,8|0,0:0|0:0,0:0:0:0:
304,264,169600,1,2,0:0:0:0:
304,264,169727,1,8,0:0:0:0:
371,209,169855,2,0,L|441:203,1,53.9999961853028,0|2,0:0|3:2,0:0:0:0:
456,124,170109,2,0,L|386:118,1,53.9999961853028,4|0,0:3|0:0,0:0:0:0:
319,50,170363,6,0,P|257:25|174:49,1,134.999990463257,2|2,3:2|0:0,0:0:0:0:
198,189,170744,2,0,P|212:154|211:114,1,67.4999952316285,2|0,0:0|0:0,0:0:0:0:
90,217,170999,2,0,P|98:307|104:369,1,134.999990463257,6|0,0:0|0:0,0:0:0:0:
248,384,171380,6,0,P|203:375|122:363,1,121.499987709046,6|2,0:0|0:0,0:0:0:0:
300,274,171888,2,0,P|322:269|363:263,1,60.749993854523,8|0,0:0|0:0,0:0:0:0:
461,256,172143,1,2,0:0:0:0:
461,256,172270,6,0,P|477:213|437:137,1,121.499987709046,0|0,0:0|0:0,0:0:0:0:
364,99,172651,2,0,P|357:62|351:34,1,60.749993854523,2|0,3:2|0:0,0:0:0:0:
259,10,172905,1,8,0:0:0:0:
259,10,173032,2,0,B|243:90|243:90|258:129,1,121.499987709046,2|0,0:0|0:0,0:0:0:0:
310,209,173414,6,0,P|260:179|191:195,1,121.499987709046,2|0,3:2|0:0,0:0:0:0:
12,240,173922,2,0,P|8:209|5:178,1,60.749993854523,8|0,0:0|0:0,0:0:0:0:
35,86,174177,1,2,0:0:0:0:
35,86,174304,6,0,B|70:106|70:106|167:86,1,121.499987709046,0|0,0:0|0:0,0:0:0:0:
227,31,174685,2,0,P|268:36|289:37,1,60.749993854523,2|0,3:2|0:0,0:0:0:0:
359,101,174939,1,8,0:0:0:0:
359,101,175066,2,0,P|330:158|342:211,1,121.499987709046,2|0,0:0|0:0,0:0:0:0:
385,299,175448,6,0,P|444:292|509:288,1,121.499987709046,6|0,0:0|0:0,0:0:0:0:
334,379,175956,2,0,P|304:375|272:373,1,60.749993854523,8|0,0:0|0:0,0:0:0:0:
176,363,176210,1,2,0:0:0:0:
176,363,176338,6,0,P|150:314|175:255,1,121.499987709046,0|0,0:0|0:0,0:0:0:0:
209,166,176719,2,0,P|204:123|200:103,1,60.749993854523,2|0,0:0|0:0,0:0:0:0:
109,71,176973,1,8,0:0:0:0:
109,71,177100,1,4,3:0:0:0:
109,71,177227,2,0,P|103:100|100:131,1,60.749993854523,4|4,3:0|3:0,0:0:0:0:
154,240,177482,6,0,B|259:244|226:302|332:307,1,182.249981563569,6|0,0:0|0:0,0:0:0:0:
417,234,177990,2,0,P|414:275|414:297,1,60.749993854523,6|0,0:0|0:0,0:0:0:0:
495,164,178244,1,0,0:0:0:0:
495,164,178371,1,0,0:0:0:0:
373,151,178499,6,0,P|343:174|327:209,2,60.749993854523,6|0|0,0:0|0:0|0:0,0:0:0:0:
245,244,178880,2,0,P|233:211|234:176,1,60.749993854523,6|0,0:0|0:0,0:0:0:0:
261,67,179134,6,0,L|257:44,10,15.1874984636307,2|0|0|0|0|0|0|0|4|0|0,0:0|0:0|0:0|0:0|0:0|0:0|0:0|0:0|3:0|0:0|0:0,0:0:0:0:
241,29,179516,6,0,P|171:22|94:14,1,134.999990463257,6|8,0:0|0:0,0:0:0:0:
17,112,179897,1,0,0:0:0:0:
17,112,180024,2,0,P|50:108|84:105,1,67.4999952316285,2|0,0:0|0:0,0:0:0:0:
184,146,180278,1,8,0:0:0:0:
128,238,180405,6,0,P|78:253|1:218,1,134.999990463257,2|2,0:0|0:0,0:0:0:0:
203,174,180787,2,0,P|236:170|270:167,1,67.4999952316285,8|0,0:0|0:0,0:0:0:0:
233,268,181041,2,0,P|266:271|300:274,1,67.4999952316285,2|0,0:0|0:0,0:0:0:0:
263,376,181295,2,0,P|296:372|330:369,1,67.4999952316285,10|0,0:0|0:0,0:0:0:0:
431,333,181549,6,0,P|459:282|427:209,1,134.999990463257,2|8,3:2|0:0,0:0:0:0:
345,150,181931,2,0,P|317:99|349:26,1,134.999990463257,0|0,0:0|0:0,0:0:0:0:
235,16,182312,1,8,0:0:0:0:
235,16,182439,6,0,B|210:27|197:45|197:45|161:20|113:28,1,134.999990463257,2|2,0:0|0:0,0:0:0:0:
26,92,182821,2,0,P|15:128|22:173,1,67.4999952316285,8|0,0:0|0:0,0:0:0:0:
123,139,183075,2,0,P|140:172|177:199,1,67.4999952316285,2|0,0:0|0:0,0:0:0:0:
267,218,183329,1,8,0:0:0:0:
267,218,183456,1,0,0:0:0:0:
339,137,183583,6,0,P|384:129|474:120,2,134.999990463257,2|8|2,3:2|0:0|0:0,0:0:0:0:
217,316,184346,2,0,P|250:321|283:324,1,67.4999952316285,8|2,0:0|0:0,0:0:0:0:
267,218,184600,6,0,B|242:188|206:185|206:185|175:207|131:201,1,134.999990463257,0|8,0:0|0:0,0:0:0:0:
41,170,184982,1,0,0:0:0:0:
41,170,185109,2,0,P|35:117|31:95,1,67.4999952316285,2|0,0:0|0:0,0:0:0:0:
136,44,185363,2,0,P|130:77|127:110,1,67.4999952316285,8|0,0:0|0:0,0:0:0:0:
287,33,185617,6,0,P|225:7|160:26,1,134.999990463257,6|8,0:0|0:0,0:0:0:0:
196,170,185999,2,0,P|214:142|219:109,2,67.4999952316285,4|4|4,3:0|3:0|3:0,0:0:0:0:
121,285,186380,5,6,0:0:0:0:
121,285,186507,2,0,B|158:276|158:276|206:298|206:298|275:284,1,134.999990463257,8|2,0:0|0:0,0:0:0:0:
339,230,186888,2,0,P|387:235|409:237,1,67.4999952316285,2|2,0:0|0:0,0:0:0:0:
471,337,187143,1,2,3:2:0:0:
471,337,187270,1,4,3:0:0:0:
471,337,187397,2,0,P|437:340|403:343,1,67.4999952316285,4|4,3:0|3:0,0:0:0:0:
295,342,187651,6,0,P|229:305|152:311,1,134.999990463257,6|8,0:0|0:0,0:0:0:0:
17,152,188160,2,0,P|83:115|160:121,1,134.999990463257,2|8,0:0|0:0,0:0:0:0:
238,160,188541,6,0,P|243:116|252:66,1,67.4999952316285,2|0,0:0|0:0,0:0:0:0:
338,36,188795,1,2,0:0:0:0:
338,36,188922,2,0,P|343:69|346:102,1,67.4999952316285,8|0,0:0|0:0,0:0:0:0:
421,181,189177,2,0,P|412:227|401:308,1,101.249992847443,2|0,0:0|0:0,0:0:0:0:
397,314,189431,2,0,P|356:318|311:304,1,67.4999952316285,8|0,0:0|0:0,0:0:0:0:
232,267,189685,6,0,B|214:192|266:202|234:107,1,134.999990463257,2|8,3:2|0:0,0:0:0:0:
174,50,190066,1,0,0:0:0:0:
103,133,190194,2,0,L|18:143,1,67.4999952316285,2|0,0:0|0:0,0:0:0:0:
8,245,190448,1,8,0:0:0:0:
8,245,190575,6,0,P|70:242|131:289,1,134.999990463257,2|2,0:0|0:0,0:0:0:0:
224,328,190956,2,0,P|261:324|302:321,1,67.4999952316285,8|0,0:0|0:0,0:0:0:0:
274,215,191210,2,0,P|308:230|345:247,1,67.4999952316285,2|0,0:0|0:0,0:0:0:0:
374,141,191465,2,0,P|395:171|419:205,1,67.4999952316285,8|0,0:0|0:0,0:0:0:0:
438,67,191719,6,0,P|386:44|320:62,1,101.249992847443,2|0,3:2|0:0,0:0:0:0:
313,64,191973,2,0,P|281:60|244:57,1,67.4999952316285,8|0,0:0|0:0,0:0:0:0:
146,97,192227,2,0,P|135:138|147:187,1,67.4999952316285,2|0,0:0|0:0,0:0:0:0:
182,267,192482,1,8,0:0:0:0:
182,267,192609,1,2,0:0:0:0:
276,215,192736,6,0,P|339:219|405:223,1,101.249992847443
411,227,192990,2,0,P|422:259|414:308,1,67.4999952316285,8|0,0:0|0:0,0:0:0:0:
353,377,193244,2,0,P|319:379|285:381,1,67.4999952316285,2|0,0:0|0:0,0:0:0:0:
179,358,193499,1,8,0:0:0:0:
179,358,193626,1,0,3:0:0:0:
107,276,193753,6,0,P|91:214|125:145,1,134.999990463257,2|8,3:2|0:0,0:0:0:0:
216,106,194134,1,0,0:0:0:0:
216,106,194261,2,0,L|219:183,1,67.4999952316285,2|0,0:0|0:0,0:0:0:0:
287,257,194516,1,8,0:0:0:0:
368,185,194643,6,0,B|411:180|411:180|452:200|452:200|501:195,1,134.999990463257,2|2,0:0|0:0,0:0:0:0:
458,95,195024,2,0,P|416:84|389:87,1,67.4999952316285,8|4,0:0|3:0,0:0:0:0:
292,126,195278,1,2,0:0:0:0:
315,20,195405,1,4,3:0:0:0:
292,126,195532,2,0,P|256:124|221:122,1,67.4999952316285,4|0,3:0|3:0,0:0:0:0:
102,148,195787,6,0,P|89:189|77:254,1,107.999992370606,2|0,0:0|0:0,0:0:0:0:
128,384,196168,6,0,P|117:324|99:266,1,121.499987709046,2|0,0:0|0:0,0:0:0:0:
257,229,196549,6,0,P|248:254|241:294,1,60.749993854523,2|0,0:0|0:0,0:0:0:0:
377,193,196804,6,0,B|349:167|311:158|311:158|265:183|197:184|197:184|235:199|262:235,1,269.999980926514,6|4,0:0|0:3,0:0:0:0:
257,229,197821,6,0,B|117:203|157:308|13:265|13:265|52:268|94:239,1,323.999977111817,6|0,0:0|0:0,0:0:0:0:
78,250,198838,6,0,P|69:157|61:70,2,161.999988555908,2|4|4,0:0|3:0|3:0,0:0:0:0:
78,250,200109,6,0,B|130:217|130:217|208:236,1,121.499987709046,6|0,0:0|0:0,0:0:0:0:
434,250,200617,2,0,B|382:217|382:217|304:236,1,121.499987709046,6|0,0:0|0:0,0:0:0:0:
256,6,201126,6,0,L|256:76,1,60.749993854523,6|4,0:0|3:0,0:0:0:0:
256,164,201380,1,4,3:0:0:0:
256,164,201507,1,4,3:0:0:0:
170,117,201634,2,0,P|133:114|101:123,1,60.749993854523,8|4,0:0|3:0,0:0:0:0:
62,203,201888,6,0,B|151:196|133:263|235:253,1,182.249981563569,6|0,0:0|0:0,0:0:0:0:
326,229,202397,2,0,P|334:297|340:357,1,121.499987709046,0|2,0:0|3:2,0:0:0:0:
469,206,202905,6,0,P|475:145|482:85,1,121.499987709046,2|0,3:2|0:0,0:0:0:0:
293,38,203414,1,0,0:0:0:0:
326,229,203668,1,2,0:0:0:0:
156,134,203922,6,0,P|92:131|21:149,1,121.499987709046,6|4,0:0|3:0,0:0:0:0:
36,240,204304,2,0,P|95:252|155:249,1,121.499987709046,2|8,3:2|3:0,0:0:0:0:
234,191,204685,1,6,3:2:0:0:
121,32,204939,6,0,L|47:37,2,60.749993854523,4|4|2,3:0|3:0|3:0,0:0:0:0:
315,12,205448,2,0,L|389:17,1,60.749993854523,4|4,3:0|3:0,0:0:0:0:
440,88,205702,2,0,L|514:83,1,60.749993854523,4|4,3:0|3:0,0:0:0:0:
366,165,205956,6,0,P|322:156|220:146,1,121.499987709046,6|0,0:0|0:0,0:0:0:0:
148,157,206338,1,2,0:0:0:0:
148,157,206465,2,0,P|120:210|145:278,1,121.499987709046,2|2,0:3|0:0,0:0:0:0:
326,302,206973,6,0,P|370:293|472:283,1,121.499987709046,2|2,0:3|0:0,0:0:0:0:
490,94,207482,1,2,0:3:0:0:
490,94,207609,2,0,P|446:85|344:75,1,121.499987709046,2|0,0:0|0:0,0:0:0:0:
272,76,207990,6,0,B|239:133|277:199|277:199|263:216|249:245,1,182.249981563569,2|2,0:3|0:0,0:0:0:0:
164,292,208499,2,0,P|110:282|84:281,1,60.749993854523,2|0,0:3|0:0,0:0:0:0:
48,202,208753,1,2,0:0:0:0:
48,202,208880,1,2,0:0:0:0:
48,202,209007,6,0,P|114:188|173:183,1,121.499987709046,0|2,0:0|0:0,0:0:0:0:
335,84,209516,1,2,0:3:0:0:
335,84,209643,1,2,0:0:0:0:
335,84,209770,2,0,P|338:46|330:14,1,60.749993854523,2|0,0:0|0:0,0:0:0:0:
267,185,210024,6,0,P|275:244|284:313,1,121.499987709046,6|0,0:0|0:0,0:0:0:0:
397,326,210405,2,0,P|350:301|269:312,1,121.499987709046,2|0,0:0|0:0,0:0:0:0:
197,351,210787,1,2,0:0:0:0:
45,230,211041,6,0,P|49:173|54:99,1,121.499987709046,2|2,0:3|0:0,0:0:0:0:
125,44,211422,1,0,0:0:0:0:
213,105,211549,1,2,0:3:0:0:
213,105,211677,1,0,0:0:0:0:
213,105,211804,2,0,L|297:96,1,60.749993854523,4|4,0:3|0:3,0:0:0:0:
401,145,212058,6,0,P|423:196|410:286,1,134.999990463257,6|2,0:0|0:0,0:0:0:0:
220,365,212566,2,0,P|198:314|211:224,1,134.999990463257,6|2,0:0|0:0,0:0:0:0:
401,145,213075,6,0,L|486:135,1,67.4999952316285,6|0,0:0|0:0,0:0:0:0:
388,39,213329,2,0,L|320:31,1,67.4999952316285,2|0,0:0|0:0,0:0:0:0:
228,117,213583,1,2,0:0:0:0:
228,117,213710,1,0,0:0:0:0:
228,117,213838,2,0,P|285:126|318:116,1,67.4999952316285,2|0,0:0|0:0,0:0:0:0:
136,180,214092,6,0,P|121:219|132:274,1,74.2499970207214,6|0,0:0|0:0,0:2:0:0:
264,276,214346,2,0,P|242:247|210:230,1,74.2499970207214,8|0,0:0|0:0,0:2:0:0:
118,338,214600,2,0,P|154:334|186:315,1,74.2499970207214,2|0,0:0|0:2,0:2:0:0:
122,213,214855,1,8,0:0:0:0:
14,263,214982,6,0,P|8:190|-2:100,1,148.499994041443,2|2,0:0|0:0,0:0:0:0:
92,41,215363,2,0,P|126:28|181:34,1,74.2499970207214,8|0,0:0|0:0,0:2:0:0:
188,167,215617,2,0,P|159:144|137:93,1,74.2499970207214,2|0,0:0|0:0,0:2:0:0:
250,22,215871,2,0,P|244:57|211:102,1,74.2499970207214,8|0,0:0|0:0,0:2:0:0:
113,230,216126,6,0,B|95:278|133:328|133:328|117:384,2,148.499994041443,2|8|2,0:0|0:0|3:2,0:0:0:0:
230,254,216762,1,0,0:0:0:0:
230,254,216889,1,8,0:0:0:0:
253,370,217016,6,0,P|328:362|405:356,1,148.499994041443,2|2,0:0|0:0,0:0:0:0:
469,258,217398,2,0,P|434:256|385:253,1,74.2499970207214,8|0,0:0|0:0,0:0:0:0:
262,187,217651,2,0,B|252:152|252:152|260:102,1,74.2499970207214,2|0,0:0|0:0,0:0:0:0:
147,225,217906,2,0,B|157:260|157:260|149:310,1,74.2499970207214,8|0,0:0|0:0,0:0:0:0:
0,204,218160,6,0,L|125:221,1,111.374995531082,2|0,0:0|0:0,0:0:0:0:
147,225,218414,2,0,B|157:190|157:190|149:140,1,74.2499970207214,8|0,0:0|0:0,0:0:0:0:
254,43,218669,2,0,B|248:80|248:80|258:115,1,74.2499970207214,2|0,0:0|0:0,0:0:0:0:
295,228,218923,1,8,0:0:0:0:
380,146,219050,6,0,P|443:139|510:210,1,148.499994041443,2|2,0:0|0:0,0:0:0:0:
473,306,219431,2,0,P|439:302|389:296,1,74.2499970207214,8|0,0:0|0:0,0:0:0:0:
260,234,219686,1,2,0:0:0:0:
260,234,219813,1,0,0:0:0:0:
260,234,219939,2,0,P|294:230|344:224,1,74.2499970207214,8|0,0:0|0:0,0:0:0:0:
260,341,220193,6,0,L|186:332,1,74.2499970207214,2|0,0:0|0:0,0:0:0:0:
73,291,220448,2,0,B|64:244|64:244|89:197|89:197|81:134,1,148.499994041443,8|2,0:0|0:0,0:0:0:0:
104,32,220830,1,0,0:0:0:0:
219,10,220956,2,0,P|257:12|315:17,1,74.2499970207214,8|4,0:0|0:0,0:0:0:0:
200,129,221210,6,0,L|212:230,1,74.2499970207214,0|2,0:0|0:0,0:0:0:0:
314,258,221465,2,0,L|326:157,1,74.2499970207214,8|0,0:0|0:0,0:0:0:0:
363,72,221719,2,0,P|402:67|442:76,1,74.2499970207214,2|0,3:2|0:0,0:0:0:0:
396,182,221973,2,0,P|359:188|323:183,1,74.2499970207214,8|0,0:0|0:0,0:0:0:0:
200,129,222228,6,0,P|210:216|219:288,2,148.499994041443,6|8|2,0:0|0:0|0:0,0:0:0:0:
138,34,222864,1,0,0:0:0:0:
138,34,222991,2,0,P|95:29|55:42,1,74.2499970207214,8|2,0:0|0:0,0:0:0:0:
22,146,223244,6,0,L|114:136,1,74.2499970207214,0|2,0:0|0:0,0:0:0:0:
22,249,223498,2,0,L|114:259,1,74.2499970207214,8|0,0:0|0:0,0:0:0:0:
22,369,223753,2,0,L|114:359,1,74.2499970207214,2|0,0:0|0:0,0:0:0:0:
214,351,224007,1,8,0:0:0:0:
214,351,224134,1,2,3:2:0:0:
277,251,224261,6,0,P|339:209|432:236,1,148.499994041443,6|8,0:0|0:0,0:0:0:0:
408,218,224642,1,0,0:0:0:0:
485,127,224770,6,0,B|372:106|372:106|423:89,1,148.499994041443,6|8,0:0|0:0,0:0:0:0:
403,95,225151,1,0,0:0:0:0:
289,129,225278,6,0,B|268:88|290:40|290:40|267:59|238:60,1,148.499994041443,6|8,0:0|0:0,0:0:0:0:
238,59,225660,1,0,0:0:0:0:
151,140,225787,5,6,0:0:0:0:
62,61,225914,1,0,0:0:0:0:
151,140,226041,2,0,P|155:179|163:238,1,74.2499970207214,8|2,0:0|3:2,0:0:0:0:
182,345,226295,6,0,B|264:336|252:390|328:382,1,148.499994041443,6|8,0:0|0:0,0:0:0:0:
376,235,226676,2,0,B|334:208|334:208|297:249|313:301,1,148.499994041443,2|0,0:0|0:0,0:0:0:0:
416,329,227058,1,8,0:0:0:0:
416,329,227185,1,2,0:0:0:0:
480,229,227312,6,0,P|472:175|461:150,1,74.2499970207214,0|2,0:0|0:0,0:0:0:0:
387,54,227566,2,0,P|374:89|371:125,1,74.2499970207214,8|0,0:0|0:0,0:0:0:0:
290,213,227821,2,0,P|282:159|271:134,1,74.2499970207214,2|0,0:0|0:0,0:0:0:0:
191,56,228075,1,8,0:0:0:0:
191,56,228202,1,0,0:0:0:0:
97,128,228329,6,0,P|100:184|102:240,1,111.374995531082,2|0,0:0|0:0,0:0:0:0:
123,272,228583,2,0,P|111:304|111:345,1,74.2499970207214,8|0,0:0|0:0,0:0:0:0:
225,275,228838,2,0,P|225:238|212:203,1,74.2499970207214,2|0,0:0|0:0,0:0:0:0:
128,120,229092,1,8,0:0:0:0:
219,44,229219,6,0,B|272:36|272:36|310:54|310:54|376:43,1,148.499994041443,2|2,0:0|0:0,0:0:0:0:
426,145,229600,2,0,P|386:163|346:161,1,74.2499970207214,8|0,0:0|0:0,0:0:0:0:
238,142,229855,1,2,0:0:0:0:
238,142,229982,1,0,0:0:0:0:
167,237,230109,2,0,L|177:331,1,74.2499970207214,8|4,0:0|3:0,0:0:0:0:
300,362,230363,6,0,P|343:319|472:337,1,188.999980880738,6|0,0:0|0:0,0:0:0:0:
167,237,231380,2,0,P|77:258|4:203,1,188.999980880738,0|0,0:0|0:0,0:0:0:0:
109,94,232143,1,0,0:0:0:0:
257,124,232397,6,0,L|270:237,1,94.499990440369,4|0,0:0|0:0,0:0:0:0:
405,280,232905,2,0,L|415:186,1,94.499990440369,4|0,0:0|0:0,0:0:0:0:
284,109,233414,6,0,L|297:222,1,94.499990440369,4|0,0:0|0:0,0:0:0:0:
381,267,233795,1,0,0:0:0:0:
381,267,233922,2,0,L|391:173,1,94.499990440369,4|0,3:0|0:0,0:0:0:0:
220,40,234431,6,0,L|128:48,1,67.4999952316285,6|0,0:0|0:0,0:0:0:0:
89,133,234685,2,0,L|156:138,1,67.4999952316285,8|0,0:0|0:0,0:0:0:0:
237,209,234939,2,0,P|244:248|231:294,1,67.4999952316285,2|0,0:0|0:0,0:0:0:0:
156,345,235194,1,8,0:0:0:0:
80,268,235321,6,0,P|84:200|89:133,1,134.999990463257,2|2,0:0|0:0,0:0:0:0:
159,50,235702,2,0,P|192:36|235:33,1,67.4999952316285,8|0,0:0|0:0,0:0:0:0:
282,143,235956,2,0,P|251:129|217:125,1,67.4999952316285,2|0,0:0|0:0,0:0:0:0:
224,232,236210,1,8,0:0:0:0:
224,232,236338,1,0,0:0:0:0:
330,215,236465,6,0,P|334:145|338:66,1,134.999990463257,2|8,0:0|0:0,0:0:0:0:
425,18,236846,1,0,0:0:0:0:
425,18,236973,2,0,P|444:60|443:99,1,67.4999952316285,2|0,0:0|0:0,0:0:0:0:
435,188,237227,1,8,0:0:0:0:
330,215,237355,6,0,P|278:186|182:199,1,134.999990463257,2|2,0:0|0:0,0:0:0:0:
99,215,237736,2,0,P|93:180|87:135,1,67.4999952316285,8|0,0:0|0:0,0:0:0:0:
175,280,237990,2,0,P|170:313|164:346,1,67.4999952316285,2|0,0:0|0:0,0:0:0:0:
299,378,238244,2,0,P|293:344|288:311,1,67.4999952316285,8|0,0:0|0:0,0:0:0:0:
269,184,238499,6,0,B|361:177|344:231|434:217,1,161.999988555908,6|0,0:0|0:0,0:0:0:0:
497,174,239007,2,0,L|482:61,1,107.999992370606,0|0,0:0|0:0,0:0:0:0:
318,11,239516,6,0,B|309:40|309:40|315:79,1,53.9999961853028,2|0,1:2|0:0,0:0:0:0:
254,127,239770,1,4,0:3:0:0:
254,127,239897,2,0,P|222:109|131:122,1,107.999992370606,4|4,0:3|0:3,0:0:0:0:
84,163,240278,2,0,L|90:223,1,53.9999961853028,4|0,0:3|3:0,0:0:0:0:
199,268,240532,6,0,P|148:252|95:243,1,107.999992370606,6|0,0:0|0:0,0:0:0:0:
225,252,240914,2,0,P|278:242|329:227,1,107.999992370606,0|0,3:2|0:0,0:0:0:0:
237,82,241295,5,6,0:0:0:0:
256,192,241422,12,0,244600,0:0:0:0:
