osu file format v14

[General]
AudioFilename: Audio.mp3
AudioLeadIn: 0
PreviewTime: 129939
Countdown: 0
SampleSet: Soft
StackLeniency: 0.5
Mode: 0
LetterboxInBreaks: 0
WidescreenStoryboard: 1

[Editor]
DistanceSpacing: 1.3
BeatDivisor: 4
GridSize: 16
TimelineZoom: 2.799999

[Metadata]
Title:Girls' Carnival
TitleUnicode:Girls' Carnival
Artist:Yuuka
ArtistUnicode:ユウカ
Creator:Dored
Version:Hard
Source:Making*Lovers
Tags:Eir joker- Making Lovers Eroge Visual Novel Galgame Full Version Opening SMEE Garden PinkHeart -Laura- Akitoshi Corinn
BeatmapID:1733573
BeatmapSetID:827286

[Difficulty]
HPDrainRate:5.5
CircleSize:3.5
OverallDifficulty:6
ApproachRate:8
SliderMultiplier:1.19999990463257
SliderTickRate:1

[Events]
//Background and Video events
0,0,"Saki.jpg",0,0
//Break Periods
//Storyboard Layer 0 (Background)
//Storyboard Layer 1 (Fail)
//Storyboard Layer 2 (Pass)
//Storyboard Layer 3 (Foreground)
//Storyboard Sound Samples

[TimingPoints]
533,254.237288135593,4,2,1,40,1,0
533,-111.111111111111,4,2,1,40,0,0
6634,-111.111111111111,4,2,2,50,0,0
7778,-111.111111111111,4,2,2,40,0,0
7905,-111.111111111111,4,2,1,40,0,0
8032,-111.111111111111,4,2,2,40,0,0
8160,-111.111111111111,4,2,1,30,0,0
8287,-111.111111111111,4,2,1,40,0,0
8414,-111.111111111111,4,2,1,50,0,0
8541,-111.111111111111,4,2,1,60,0,0
8668,-100,4,2,2,70,0,0
23414,-100,4,2,2,60,0,0
23922,-100,4,2,2,50,0,0
24939,-100,4,2,2,70,0,0
25702,-100,4,2,2,60,0,0
26465,-100,4,2,2,50,0,0
26973,-105.263157894737,4,2,2,60,0,0
43244,-111.111111111111,4,2,3,50,0,0
51380,-105.263157894737,4,2,2,50,0,0
57482,-100,4,2,2,50,0,0
59516,-100,4,2,2,60,0,0
59897,-100,4,2,2,70,0,0
60278,-100,4,2,2,80,0,0
60469,-100,4,2,2,5,0,0
60532,-100,4,2,2,80,0,0
60914,-100,4,2,2,50,0,0
61168,-100,4,2,1,50,0,0
61486,-100,4,2,1,5,0,0
61549,-90.9090909090909,4,2,2,80,0,1
67588,-90.9090909090909,4,2,2,5,0,1
67651,-90.9090909090909,4,2,2,80,0,1
77439,-90.9090909090909,4,2,2,70,0,1
77757,-90.9090909090909,4,2,2,5,0,1
77821,-90.9090909090909,4,2,2,80,0,1
85893,-90.9090909090909,4,2,2,5,0,1
85956,-90.9090909090909,4,2,2,80,0,1
87990,-90.9090909090909,4,2,2,70,0,1
88499,-90.9090909090909,4,2,2,60,0,1
89007,-90.9090909090909,4,2,2,50,0,1
89516,-90.9090909090909,4,2,2,60,0,1
90024,-90.9090909090909,4,2,2,80,0,1
92058,-100,4,2,2,60,0,0
94092,-105.263157894737,4,2,2,60,0,0
110363,-111.111111111111,4,2,3,50,0,0
118499,-105.263157894737,4,2,2,50,0,0
122566,-105.263157894737,4,2,2,60,0,0
126316,-105.263157894737,4,2,2,5,0,0
126380,-105.263157894737,4,2,2,60,0,0
126634,-100,4,2,2,60,0,0
129049,-100,4,2,2,70,0,0
129431,-100,4,2,2,80,0,0
129621,-100,4,2,2,5,0,0
129685,-100,4,2,2,80,0,0
130066,-100,4,2,2,50,0,0
130321,-100,4,2,1,50,0,0
130702,-90.9090909090909,4,2,2,80,0,1
136740,-90.9090909090909,4,2,2,5,0,1
136804,-90.9090909090909,4,2,2,80,0,1
146592,-90.9090909090909,4,2,2,70,0,1
146910,-90.9090909090909,4,2,2,5,0,1
146973,-90.9090909090909,4,2,2,80,0,1
153011,-90.9090909090909,4,2,2,5,0,1
153075,-90.9090909090909,4,2,2,80,0,1
155045,-90.9090909090909,4,2,2,5,0,1
155109,-90.9090909090909,4,2,2,80,0,1
157143,-90.9090909090909,4,2,2,70,0,1
157651,-90.9090909090909,4,2,2,60,0,1
158160,-90.9090909090909,4,2,2,50,0,1
158668,-90.9090909090909,4,2,2,60,0,1
159177,-90.9090909090909,4,2,2,80,0,1
163244,-111.111111111111,4,2,2,45,0,0
170363,-111.111111111111,4,2,2,55,0,0
177482,-111.111111111111,4,2,2,60,0,0
179516,-100,4,2,2,70,0,0
189621,-100,4,2,2,5,0,0
189685,-100,4,2,2,70,0,0
191655,-100,4,2,2,5,0,0
191719,-100,4,2,2,70,0,0
192164,-100,4,2,2,5,0,0
192227,-100,4,2,2,70,0,0
195151,-100,4,2,2,50,0,0
196168,-100,4,2,2,60,0,0
196549,-100,4,2,2,70,0,0
197185,-100,4,2,2,50,0,0
197439,-100,4,2,1,50,0,0
197821,-100,4,2,2,70,0,0
200045,-100,4,2,2,70,0,0
200109,-100,4,2,2,80,0,0
201253,-100,4,2,2,50,0,0
201888,-100,4,2,2,70,0,0
203922,-100,4,2,2,60,0,0
205066,-100,4,2,2,50,0,0
213075,-100,4,2,2,70,0,0
213710,-100,4,2,2,70,0,0
214092,-90.9090909090909,4,2,2,90,0,1
224261,-90.9090909090909,4,2,2,80,0,1
224770,-90.9090909090909,4,2,2,70,0,1
225278,-90.9090909090909,4,2,2,60,0,1
225787,-90.9090909090909,4,2,2,70,0,1
226295,-90.9090909090909,4,2,2,90,0,1
230363,-105.263157894737,4,2,2,70,0,0
232397,-105.263157894737,4,2,2,60,0,0
233922,-105.263157894737,4,2,2,50,0,0
234431,-105.263157894737,4,2,2,70,0,0
239516,-105.263157894737,4,2,2,50,0,0
240532,-105.263157894737,4,2,2,60,0,0
241422,-100,4,2,2,60,0,0
244600,-100,4,2,2,5,0,0

[Colours]
Combo1 : 124,207,194
Combo2 : 246,130,152
Combo3 : 255,185,71
Combo4 : 167,144,200
Combo5 : 205,190,153

[HitObjects]
399,96,533,5,2,0:0:0:0:
247,96,787,1,0,1:2:0:0:
323,226,1041,2,0,L|377:226,2,53.9999962062837,2|2|2,2:3|0:0|1:2,0:0:0:0:
285,291,1422,2,0,P|235:308|185:291,1,107.999992412567,2|2,1:2|0:0,0:0:0:0:
146,226,1804,1,2,1:2:0:0:
146,75,2058,2,0,L|146:21,2,53.9999962062837,2|2|2,3:2|0:0|1:2,0:0:0:0:
146,226,2566,5,2,0:0:0:0:
276,150,2821,1,2,1:2:0:0:
406,226,3075,2,0,L|460:226,2,53.9999962062837,2|2|2,2:3|0:0|1:2,0:0:0:0:
368,291,3456,2,0,P|318:308|268:291,1,107.999992412567,2|2,1:2|0:0,0:0:0:0:
217,233,3838,1,2,1:2:0:0:
78,291,4092,2,0,L|23:290,2,53.9999962062837,2|2|2,3:2|0:0|1:2,0:0:0:0:
217,233,4600,6,0,P|266:214|317:231,1,107.999992412567,2|10,0:0|0:0,0:0:0:0:
268,374,5109,2,0,L|213:373,2,53.9999962062837,2|2|10,2:3|0:0|0:0,0:0:0:0:
344,374,5490,2,0,P|392:352|416:304,1,107.999992412567,2|2,1:2|0:0,0:0:0:0:
392,233,5871,1,10,0:0:0:0:
268,145,6126,2,0,L|213:144,2,53.9999962062837,2|2|8,3:2|0:0|0:0,0:0:0:0:
392,57,6634,5,2,0:0:0:0:
392,57,7143,1,2,0:0:0:0:
392,57,7651,2,0,L|396:110,1,53.9999940605166,2|8,0:0|0:0,0:0:0:0:
464,145,7905,2,0,L|459:198,1,53.9999940605166,8|2,0:0|0:0,0:0:0:0:
397,243,8160,2,0,L|342:242,2,53.9999962062837,2|4|8,2:3|3:0|0:0,0:0:0:0:
282,145,8668,6,0,P|222:138|162:134,1,119.999990463257,6|8,0:0|0:0,0:0:0:0:
61,253,9177,2,0,P|120:256|180:262,1,119.999990463257,2|8,3:2|0:0,0:0:0:0:
234,318,9558,2,0,P|293:314|353:306,1,119.999990463257,2|2,0:0|0:0,0:0:0:0:
397,243,9939,2,0,P|399:184|360:140,2,119.999990463257,8|2|8,0:0|3:2|0:0,0:0:0:0:
280,138,10702,6,0,P|301:83|355:59,1,119.999990463257,2|8,3:2|0:0,0:0:0:0:
482,146,11210,1,2,3:2:0:0:
482,146,11338,2,0,L|476:205,1,59.9999952316285,0|8,0:0|0:0,0:0:0:0:
465,282,11592,2,0,P|419:319|360:312,1,119.999990463257,2|2,0:0|0:0,0:0:0:0:
319,247,11973,1,8,0:0:0:0:
178,313,12227,2,0,L|178:373,2,59.9999952316285,2|0|8,3:2|3:0|0:0,0:0:0:0:
112,172,12736,6,0,P|105:113|142:68,1,119.999990463257,2|8,3:2|0:0,0:0:0:0:
292,24,13244,2,0,P|351:28|411:36,1,119.999990463257,2|8,3:2|0:0,0:0:0:0:
477,80,13626,2,0,P|469:139|464:199,1,119.999990463257,2|2,0:0|0:0,0:0:0:0:
500,268,14007,2,0,P|441:274|396:237,2,119.999990463257,8|2|8,0:0|3:2|0:0,0:0:0:0:
387,159,14770,6,0,P|335:186|318:242,1,119.999990463257,2|8,3:2|0:0,0:0:0:0:
229,370,15278,1,2,3:2:0:0:
229,370,15406,2,0,L|170:364,1,59.9999952316285,0|0,0:0|0:0,0:0:0:0:
104,320,15660,2,0,P|99:260|91:200,1,119.999990463257,2|2,0:0|0:0,0:0:0:0:
84,122,16041,1,8,0:0:0:0:
191,9,16295,2,0,L|250:14,1,59.9999952316285,2|4,3:2|3:0,0:0:0:0:
303,72,16549,2,0,L|362:66,1,59.9999952316285,4|4,3:0|3:0,0:0:0:0:
436,40,16804,6,0,P|487:67|504:123,1,119.999990463257,6|8,0:0|0:0,0:0:0:0:
385,224,17312,2,0,P|325:216|265:211,1,119.999990463257,2|8,3:2|0:0,0:0:0:0:
207,160,17694,2,0,P|147:164|87:172,1,119.999990463257,2|2,0:0|0:0,0:0:0:0:
39,233,18075,2,0,P|48:290|95:325,2,119.999990463257,8|2|8,0:0|3:2|0:0,0:0:0:0:
84,83,18838,6,0,P|136:56|191:74,1,119.999990463257,2|8,3:2|0:0,0:0:0:0:
265,211,19346,1,2,3:2:0:0:
265,211,19474,2,0,L|271:270,1,59.9999952316285,0|8,3:0|0:0,0:0:0:0:
319,331,19727,2,0,P|378:323|438:318,1,119.999990463257,2|2,0:0|0:0,0:0:0:0:
500,270,20109,1,8,0:0:0:0:
500,114,20363,2,0,L|500:54,2,59.9999952316285,2|0|8,3:2|0:0|0:0,0:0:0:0:
359,48,20871,6,0,P|303:29|251:56,1,119.999990463257,2|8,3:2|0:0,0:0:0:0:
127,151,21380,2,0,P|67:146|7:138,1,119.999990463257,2|8,3:2|0:0,0:0:0:0:
7,217,21761,2,0,P|66:224|126:229,1,119.999990463257,2|2,0:0|0:0,0:0:0:0:
194,190,22143,2,0,P|203:247|169:294,2,119.999990463257,8|2|8,0:0|3:2|0:0,0:0:0:0:
91,305,22905,6,0,P|119:356|175:373,1,119.999990463257,6|8,0:0|0:0,0:0:0:0:
334,372,23414,2,0,P|390:356|419:305,1,119.999990463257,2|8,3:2|0:0,0:0:0:0:
343,294,23796,1,0,0:0:0:0:
352,216,23922,2,0,P|295:232|267:283,2,119.999990463257,2|8|2,3:2|0:0|0:0,0:0:0:0:
429,228,24558,1,2,0:0:0:0:
477,167,24685,2,0,L|477:107,1,59.9999952316285,10|0,0:0|3:0,0:0:0:0:
429,46,24939,6,0,P|369:41|309:33,1,119.999990463257,6|0,0:0|3:0,0:0:0:0:
233,16,25321,2,0,P|173:23|113:28,1,119.999990463257,2|0,0:0|0:0,0:0:0:0:
35,29,25702,2,0,P|42:88|47:148,1,119.999990463257,2|0,3:2|0:0,0:0:0:0:
86,215,26083,1,2,0:0:0:0:
125,148,26210,2,0,L|185:148,1,59.9999952316285,2|2,0:0|0:0,0:0:0:0:
256,181,26465,2,0,L|261:240,1,59.9999952316285,4|4,3:0|3:0,0:0:0:0:
332,273,26719,2,0,L|392:273,1,59.9999952316285,4|4,3:0|3:0,0:0:0:0:
392,352,26973,6,0,L|278:352,2,113.999987895966,6|8|2,0:0|0:0|3:2,0:0:0:0:
503,237,27736,1,8,0:0:0:0:
503,237,27863,2,0,P|499:180|493:123,1,113.999987895966,2|2,0:0|0:0,0:0:0:0:
463,50,28244,2,0,P|411:28|359:48,1,113.999987895966,8|2,0:0|3:2,0:0:0:0:
315,115,28626,1,0,0:0:0:0:
315,115,28753,2,0,L|258:115,1,56.999993947983,8|0,0:0|0:0,0:0:0:0:
213,47,29007,6,0,P|161:28|110:50,2,113.999987895966,2|8|2,3:2|0:0|3:2,0:0:0:0:
177,203,29770,1,8,0:0:0:0:
177,203,29897,2,0,P|120:199|63:193,1,113.999987895966,2|2,0:0|0:0,0:0:0:0:
7,249,30278,2,0,L|11:305,1,56.999993947983,8|0,0:0|0:0,0:0:0:0:
51,375,30532,2,0,L|107:370,1,56.999993947983,2|0,3:2|0:0,0:0:0:0:
177,330,30787,2,0,L|233:334,1,56.999993947983,8|0,0:0|0:0,0:0:0:0:
304,370,31041,6,0,P|358:360|391:315,2,113.999987895966,2|8|2,3:2|0:0|3:2,0:0:0:0:
388,234,31804,1,8,0:0:0:0:
388,234,31931,2,0,P|441:253|469:302,1,113.999987895966,2|2,0:0|0:0,0:0:0:0:
391,314,32312,2,0,P|338:295|310:246,1,113.999987895966,8|2,0:0|3:2,0:0:0:0:
388,107,32821,1,8,0:0:0:0:
249,29,33075,6,0,P|193:24|150:58,2,113.999987895966,2|8|2,3:2|0:0|3:2,0:0:0:0:
196,180,33838,1,8,0:0:0:0:
196,180,33965,2,0,L|82:189,1,113.999987895966,2|2,0:0|0:0,0:0:0:0:
89,269,34346,1,8,0:0:0:0:
89,269,34473,2,0,L|202:259,1,113.999987895966,0|0,0:0|0:0,0:0:0:0:
269,214,34855,2,0,L|325:218,1,56.999993947983,8|0,0:0|3:0,0:0:0:0:
405,226,35109,6,0,P|392:171|346:139,2,113.999987895966,6|8|2,3:2|0:0|3:2,0:0:0:0:
284,331,35872,1,8,0:0:0:0:
284,331,35999,2,0,L|170:340,1,113.999987895966,2|2,0:0|0:0,0:0:0:0:
111,288,36380,2,0,P|107:231|101:174,1,113.999987895966,8|2,0:0|3:2,0:0:0:0:
150,112,36761,1,0,0:0:0:0:
150,112,36888,2,0,L|206:107,1,56.999993947983,8|0,0:0|0:0,0:0:0:0:
271,59,37143,6,0,P|314:24|370:29,2,113.999987895966,2|8|2,3:2|0:0|3:2,0:0:0:0:
353,195,37905,1,8,0:0:0:0:
353,195,38032,2,0,P|409:200|467:204,1,113.999987895966,2|2,0:0|0:0,0:0:0:0:
511,272,38414,2,0,L|511:329,1,56.999993947983,8|0,0:0|0:0,0:0:0:0:
431,335,38668,2,0,L|431:278,1,56.999993947983,2|0,3:2|0:0,0:0:0:0:
351,284,38922,2,0,L|351:341,1,56.999993947983,8|0,0:0|3:0,0:0:0:0:
271,347,39177,6,0,P|227:312|171:317,2,113.999987895966,2|8|2,3:2|0:0|3:2,0:0:0:0:
113,371,39939,2,0,L|56:366,1,56.999993947983,8|2,0:0|0:0,0:0:0:0:
3,306,40194,2,0,P|-1:250|33:207,1,113.999987895966,2|8,3:2|0:0,0:0:0:0:
111,192,40575,2,0,P|167:197|225:201,1,113.999987895966,0|0,0:0|0:0,0:0:0:0:
301,220,40956,2,0,L|305:276,1,56.999993947983,8|0,0:0|0:0,0:0:0:0:
224,200,41210,6,0,P|255:153|308:140,1,113.999987895966,6|8,0:0|0:0,0:0:0:0:
385,280,41719,2,0,P|363:332|313:354,1,113.999987895966,2|8,3:2|0:0,0:0:0:0:
240,322,42100,2,0,P|184:317|126:313,1,113.999987895966,6|2,0:0|0:0,0:0:0:0:
74,251,42482,1,8,0:0:0:0:
135,200,42609,1,4,3:0:0:0:
83,139,42736,2,0,L|26:134,1,56.999993947983,2|2,3:2|3:2,0:0:0:0:
31,54,42990,2,0,L|87:58,1,56.999993947983,2|2,3:2|3:2,0:0:0:0:
150,102,43244,6,0,L|257:92,2,107.999988121033,6|8|2,0:0|0:0|3:2,0:0:0:0:
272,12,44007,1,8,0:0:0:0:
272,12,44134,2,0,P|317:39|336:88,1,107.999992412567,0|2,0:0|0:0,0:0:0:0:
322,164,44516,2,0,L|269:168,1,53.9999940605166,8|0,0:0|0:0,0:0:0:0:
279,245,44770,2,0,L|386:235,1,107.999988121033,2|8,0:0|0:0,0:0:0:0:
459,272,45151,1,0,3:0:0:0:
459,272,45278,6,0,P|484:317|476:369,2,107.999992412567,2|8|2,3:2|0:0|3:2,0:0:0:0:
311,318,46041,1,8,0:0:0:0:
311,318,46168,2,0,P|259:322|215:292,1,107.999988121033,0|2,0:0|0:0,0:0:0:0:
179,225,46549,2,0,L|174:171,1,53.9999940605166,8|0,0:0|0:0,0:0:0:0:
215,107,46804,2,0,L|322:116,1,107.999988121033,2|8,3:2|0:0,0:0:0:0:
398,139,47185,1,0,0:0:0:0:
398,139,47312,6,0,L|505:129,2,107.999988121033,2|8|2,3:2|0:0|3:2,0:0:0:0:
283,39,48075,2,0,L|229:34,1,53.9999940605166,8|2,0:0|0:0,0:0:0:0:
154,26,48329,2,0,P|102:35|68:75,1,107.999988121033,2|8,0:3|0:0,0:0:0:0:
150,203,48838,2,0,P|162:152|141:103,1,107.999988121033,2|8,3:2|0:0,0:0:0:0:
79,241,49346,6,0,P|117:277|170:280,2,107.999988121033,2|8|2,3:2|0:0|3:2,0:0:0:0:
140,103,50109,2,0,L|194:108,1,53.9999940605166,8|2,0:0|0:0,0:0:0:0:
239,168,50363,2,0,L|239:221,2,53.9999940605166,2|0|8,0:3|0:0|0:0,0:0:0:0:
338,54,50871,2,0,L|338:0,2,53.9999940605166,2|4|4,3:2|0:3|0:3,0:0:0:0:
437,168,51380,6,0,P|478:238|439:311,1,170.999981843949,6|2,0:0|0:0,0:0:0:0:
396,240,51888,1,2,3:2:0:0:
269,338,52143,2,0,L|212:338,1,56.999993947983,2|0,3:2|3:0,0:0:0:0:
159,277,52397,2,0,P|102:271|45:267,1,113.999987895966,2|2,0:3|3:2,0:0:0:0:
159,156,52905,2,0,P|215:152|272:146,1,113.999987895966,2|2,3:2|0:3,0:0:0:0:
328,88,53287,1,0,0:0:0:0:
328,88,53414,6,0,P|287:17|205:14,1,170.999981843949,2|2,0:3|0:0,0:0:0:0:
155,76,53922,1,2,3:2:0:0:
232,216,54177,2,0,P|285:226|333:197,2,113.999987895966,2|2|2,0:0|3:0|3:2,0:0:0:0:
328,88,54939,2,0,L|385:88,2,56.999993947983,2|0|2,3:2|0:0|0:0,0:0:0:0:
250,65,55321,1,0,3:0:0:0:
250,65,55448,6,0,P|174:97|161:178,1,170.999981843949,6|0,0:0|0:0,0:0:0:0:
232,216,55956,1,2,3:2:0:0:
385,171,56210,2,0,L|441:175,1,56.999993947983,0|0,0:0|3:0,0:0:0:0:
503,227,56465,2,0,P|497:283|493:340,1,113.999987895966,6|0,0:0|0:0,0:0:0:0:
334,358,56973,2,0,P|330:301|324:244,1,113.999987895966,2|8,3:2|0:0,0:0:0:0:
301,167,57355,1,8,0:0:0:0:
301,167,57482,6,0,P|261:123|203:121,1,119.999990463257,6|8,0:0|0:0,0:0:0:0:
148,176,57863,1,0,0:0:0:0:
148,176,57990,2,0,P|88:182|28:185,1,119.999990463257,2|8,0:0|0:0,0:0:0:0:
28,263,58371,1,2,0:0:0:0:
28,263,58499,2,0,P|87:259|147:253,1,119.999990463257,2|8,0:3|0:0,0:0:0:0:
216,216,58880,1,0,0:0:0:0:
284,256,59007,2,0,L|278:315,1,59.9999952316285,2|4,0:0|0:3,0:0:0:0:
355,321,59261,2,0,L|360:261,1,59.9999952316285,4|4,0:3|0:3,0:0:0:0:
369,182,59516,6,0,P|323:113|245:144,2,179.999985694886,2|2|2,0:0|0:0|0:0,0:0:0:0:
235,261,60532,2,0,L|55:277,1,179.999985694886,6|4,0:0|3:0,0:0:0:0:
58,355,61041,2,0,L|117:350,1,59.9999952316285,4|2,3:0|0:0,0:0:0:0:
30,108,61549,6,0,P|39:44|92:6,2,131.999993537903,6|8|2,0:0|0:0|0:0,0:0:0:0:
205,96,62312,1,8,0:0:0:0:
205,96,62439,2,0,P|257:58|321:69,1,131.999993537903,2|2,0:0|0:0,0:0:0:0:
384,128,62821,1,8,0:0:0:0:
234,211,63075,2,0,L|168:216,1,65.9999967689514,2|0,0:0|0:0,0:0:0:0:
168,302,63329,2,0,L|233:296,1,65.9999967689514,8|0,0:0|0:0,0:0:0:0:
307,253,63583,6,0,P|315:187|276:137,2,131.999993537903,2|8|2,0:0|0:0|3:2,0:0:0:0:
196,120,64346,1,8,0:0:0:0:
196,120,64473,2,0,P|231:66|295:54,1,131.999993537903,2|2,0:0|0:0,0:0:0:0:
277,137,64855,1,8,0:0:0:0:
402,253,65109,2,0,L|468:248,1,65.9999967689514,2|0,0:0|0:0,0:0:0:0:
468,333,65363,2,0,L|402:338,1,65.9999967689514,8|0,0:0|0:0,0:0:0:0:
328,293,65617,6,0,P|262:288|196:280,1,131.999993537903,2|8,0:0|0:0,0:0:0:0:
63,171,66126,2,0,P|128:167|194:160,1,131.999993537903,2|8,0:0|0:0,0:0:0:0:
227,80,66507,2,0,P|181:34|116:36,1,131.999993537903,2|2,0:0|0:0,0:0:0:0:
47,86,66888,1,8,0:0:0:0:
47,258,67143,2,0,L|52:323,1,65.9999967689514,2|0,0:0|0:0,0:0:0:0:
135,346,67397,2,0,L|140:280,1,65.9999967689514,8|0,0:0|0:0,0:0:0:0:
215,240,67651,6,0,P|270:207|332:225,2,131.999993537903,2|8|2,0:0|0:0|0:0,0:0:0:0:
331,368,68414,2,0,L|396:373,1,65.9999967689514,8|2,0:0|0:0,0:0:0:0:
481,362,68668,2,0,L|486:296,1,65.9999967689514,0|2,0:0|0:0,0:0:0:0:
439,225,68922,2,0,L|438:158,1,65.9999967689514,8|0,0:0|0:0,0:0:0:0:
485,88,69177,2,0,L|480:22,1,65.9999967689514,2|0,3:2|0:0,0:0:0:0:
395,11,69431,2,0,L|330:16,1,65.9999967689514,8|0,0:0|0:0,0:0:0:0:
330,101,69685,6,0,L|330:232,2,131.999993537903,6|8|2,0:0|0:0|3:2,0:0:0:0:
179,16,70448,2,0,L|114:11,1,65.9999967689514,8|2,0:0|0:0,0:0:0:0:
29,22,70702,2,0,L|24:88,1,65.9999967689514,0|2,0:0|0:0,0:0:0:0:
71,159,70956,2,0,L|72:226,1,65.9999967689514,8|0,0:0|0:0,0:0:0:0:
25,296,71211,2,0,L|30:362,1,65.9999967689514,2|0,0:0|0:0,0:0:0:0:
115,373,71465,2,0,L|180:368,1,65.9999967689514,8|0,0:0|0:0,0:0:0:0:
264,348,71719,6,0,P|288:286|264:227,2,131.999993537903,2|8|2,0:0|0:0|3:2,0:0:0:0:
192,191,72482,1,8,0:0:0:0:
192,191,72609,2,0,P|239:147|304:152,1,131.999993537903,2|2,0:0|0:0,0:0:0:0:
354,219,72990,2,0,L|419:214,1,65.9999967689514,8|0,0:0|0:0,0:0:0:0:
505,219,73244,1,2,0:0:0:0:
419,368,73499,2,0,L|354:363,1,65.9999967689514,8|0,0:0|0:0,0:0:0:0:
278,320,73753,6,0,P|212:325|146:333,1,131.999993537903,2|8,0:0|0:0,0:0:0:0:
80,278,74134,2,0,P|75:212|67:146,1,131.999993537903,0|0,0:0|0:0,0:0:0:0:
112,73,74516,2,0,L|177:78,1,65.9999967689514,8|2,0:0|0:0,0:0:0:0:
256,112,74770,1,0,0:0:0:0:
256,112,74897,2,0,L|321:107,1,65.9999967689514,2|8,0:0|0:0,0:0:0:0:
400,73,75151,2,0,P|464:76|508:123,1,131.999993537903,0|0,0:0|0:0,0:0:0:0:
512,209,75532,1,8,0:0:0:0:
415,351,75787,6,0,L|283:338,1,131.999993537903,2|8,0:0|0:0,0:0:0:0:
256,256,76168,1,0,0:0:0:0:
256,256,76295,2,0,L|388:243,1,131.999993537903,2|8,3:2|0:0,0:0:0:0:
415,161,76677,1,2,0:0:0:0:
415,161,76804,2,0,L|283:148,1,131.999993537903,2|8,0:0|0:0,0:0:0:0:
201,174,77185,1,0,0:0:0:0:
175,92,77312,1,2,3:2:0:0:
93,118,77439,2,0,L|27:123,1,65.9999967689514,0|0,3:0|0:0,0:0:0:0:
71,289,77821,6,0,P|133:298|186:260,2,131.999993537903,6|8|2,0:0|0:0|0:0,0:0:0:0:
201,174,78583,1,8,0:0:0:0:
201,174,78710,2,0,P|255:207|270:269,1,131.999993537903,2|2,0:0|0:0,0:0:0:0:
186,259,79092,1,8,0:0:0:0:
349,208,79346,2,0,L|415:203,1,65.9999967689514,2|0,0:0|0:0,0:0:0:0:
497,180,79600,2,0,L|503:114,1,65.9999967689514,8|0,0:0|0:0,0:0:0:0:
422,85,79855,6,0,P|363:110|304:85,2,131.999993537903,2|8|2,0:0|0:0|3:2,0:0:0:0:
264,16,80617,1,8,0:0:0:0:
264,16,80744,2,0,P|226:67|238:130,1,131.999993537903,2|2,0:0|0:0,0:0:0:0:
311,176,81126,1,8,0:0:0:0:
181,288,81380,2,0,L|115:294,1,65.9999967689514,2|0,0:0|0:0,0:0:0:0:
125,208,81634,2,0,L|191:202,1,65.9999967689514,8|0,0:0|0:0,0:0:0:0:
238,130,81888,6,0,P|203:76|139:66,1,131.999993537903,2|8,0:0|0:0,0:0:0:0:
24,193,82397,2,0,P|31:258|36:324,1,131.999993537903,2|8,0:0|0:0,0:0:0:0:
115,293,82778,2,0,P|177:280|229:318,1,131.999993537903,2|2,0:0|0:0,0:0:0:0:
291,378,83160,1,8,0:0:0:0:
412,256,83414,2,0,L|406:190,1,65.9999967689514,2|0,0:0|0:0,0:0:0:0:
352,123,83668,2,0,L|357:57,1,65.9999967689514,8|0,0:0|0:0,0:0:0:0:
435,21,83922,5,2,0:0:0:0:
405,190,84177,2,0,P|344:208|287:179,1,131.999993537903,8|2,0:0|0:0,0:0:0:0:
176,48,84685,2,0,L|110:53,1,65.9999967689514,8|6,0:0|0:0,0:0:0:0:
60,124,84939,2,0,L|65:189,1,65.9999967689514,0|2,0:0|0:0,0:0:0:0:
110,263,85194,2,0,L|104:328,1,65.9999967689514,8|0,0:0|0:0,0:0:0:0:
18,331,85448,2,0,L|23:265,1,65.9999967689514,2|0,0:0|0:0,0:0:0:0:
65,189,85702,2,0,L|130:179,1,65.9999967689514,8|0,0:0|0:0,0:0:0:0:
193,238,85956,6,0,P|216:178|191:118,2,131.999993537903,6|8|2,0:0|0:0|0:0,0:0:0:0:
336,336,86719,2,0,L|401:330,1,65.9999967689514,8|2,0:0|0:0,0:0:0:0:
452,260,86973,2,0,L|446:194,1,65.9999967689514,0|2,0:0|0:0,0:0:0:0:
402,121,87228,2,0,L|407:55,1,65.9999967689514,8|0,0:0|0:0,0:0:0:0:
494,53,87482,2,0,L|488:118,1,65.9999967689514,2|0,0:0|0:0,0:0:0:0:
447,195,87736,2,0,L|381:204,1,65.9999967689514,8|2,0:0|3:2,0:0:0:0:
319,145,87990,6,0,P|265:109|201:119,1,131.999993537903,6|8,0:0|0:0,0:0:0:0:
166,285,88499,2,0,P|223:256|246:196,1,131.999993537903,6|8,0:0|0:0,0:0:0:0:
122,83,89007,2,0,P|117:147|158:197,2,131.999993537903,6|8|6,0:0|0:0|0:0,0:0:0:0:
193,34,89643,1,0,0:0:0:0:
271,68,89770,2,0,L|336:62,1,65.9999967689514,8|2,0:0|0:0,0:0:0:0:
422,53,90024,6,0,P|415:118|410:184,1,131.999993537903,6|8,0:0|0:0,0:0:0:0:
327,202,90405,2,0,P|264:217|233:273,1,131.999993537903,0|0,0:0|0:0,0:0:0:0:
272,350,90787,2,0,L|337:355,1,65.9999967689514,8|2,0:0|0:0,0:0:0:0:
420,335,91041,2,0,L|414:269,2,65.9999967689514,0|2|8,0:0|0:0|0:0,0:0:0:0:
488,177,91549,2,0,P|457:120|395:104,1,131.999993537903,2|8,0:0|0:0,0:0:0:0:
310,119,91931,1,2,3:2:0:0:
310,119,92058,6,0,L|315:178,1,59.9999952316285,0|0,0:0|0:0,0:0:0:0:
322,256,92312,2,0,P|273:287|215:276,1,119.999990463257,6|4,0:0|0:3,0:0:0:0:
205,270,92630,1,4,0:3:0:0:
196,261,92694,2,0,L|136:255,1,59.9999952316285,4|2,0:3|0:0,0:0:0:0:
80,110,93075,2,0,P|140:105|200:97,1,119.999990463257,6|2,0:0|0:0,0:0:0:0:
256,44,93456,2,0,P|315:51|375:56,1,119.999990463257,6|2,0:0|0:0,0:0:0:0:
426,116,93838,1,4,3:0:0:0:
366,166,93965,1,4,3:0:0:0:
417,226,94092,6,0,L|407:339,2,113.999987895966,6|8|2,0:0|0:0|3:2,0:0:0:0:
269,288,94855,1,8,0:0:0:0:
269,288,94982,2,0,P|213:295|168:263,1,113.999987895966,2|2,0:0|0:0,0:0:0:0:
233,217,95363,2,0,L|223:103,1,113.999987895966,8|2,0:0|3:2,0:0:0:0:
165,48,95744,1,0,0:0:0:0:
165,48,95871,2,0,L|108:48,1,56.999993947983,8|0,0:0|3:0,0:0:0:0:
34,80,96126,6,0,P|1:125|9:180,2,113.999987895966,2|8|2,3:2|0:0|3:2,0:0:0:0:
156,182,96888,1,8,0:0:0:0:
156,182,97016,2,0,P|160:239|166:296,1,113.999987895966,2|2,0:0|0:0,0:0:0:0:
224,349,97397,2,0,L|280:353,1,56.999993947983,8|0,0:0|0:0,0:0:0:0:
354,322,97651,2,0,L|410:317,1,56.999993947983,2|0,3:2|0:0,0:0:0:0:
480,277,97905,2,0,L|484:220,1,56.999993947983,8|0,0:0|0:0,0:0:0:0:
448,149,98160,6,0,P|402:117|347:126,2,113.999987895966,2|8|2,3:2|0:0|3:2,0:0:0:0:
292,185,98923,1,8,0:0:0:0:
292,185,99050,2,0,P|267:134|282:79,1,113.999987895966,2|2,0:0|0:0,0:0:0:0:
347,125,99431,2,0,P|371:175|356:230,1,113.999987895966,8|2,0:0|3:2,0:0:0:0:
224,320,99939,1,8,2:0:0:0:
135,188,100194,6,0,L|21:196,2,113.999987895966,2|8|2,3:2|0:0|3:2,0:0:0:0:
267,98,100956,1,8,0:0:0:0:
267,98,101083,2,0,P|301:55|356:42,1,113.999987895966,2|2,0:0|0:0,0:0:0:0:
424,86,101465,1,8,0:0:0:0:
424,86,101592,2,0,L|413:199,1,113.999987895966,0|0,0:0|0:0,0:0:0:0:
350,248,101973,2,0,L|293:252,1,56.999993947983,8|0,0:0|3:0,0:0:0:0:
213,255,102227,6,0,P|160:237|134:188,2,113.999987895966,6|8|2,0:0|0:0|3:2,0:0:0:0:
148,109,102990,1,8,0:0:0:0:
148,109,103117,2,0,P|92:120|58:165,1,113.999987895966,2|2,0:0|0:0,0:0:0:0:
70,243,103499,2,0,L|80:357,1,113.999987895966,8|2,0:0|3:2,0:0:0:0:
159,357,103880,1,0,0:0:0:0:
159,357,104007,2,0,L|216:357,1,56.999993947983,8|0,0:0|0:0,0:0:0:0:
295,357,104261,6,0,L|409:356,2,113.999987895966,2|8|2,3:2|0:0|2:3,0:0:0:0:
240,206,105024,1,8,0:0:0:0:
240,206,105151,2,0,L|230:92,1,113.999987895966,2|2,0:0|0:0,0:0:0:0:
272,24,105532,2,0,L|328:28,1,56.999993947983,8|0,0:0|0:0,0:0:0:0:
390,80,105787,2,0,L|446:75,1,56.999993947983,2|0,3:2|0:0,0:0:0:0:
506,128,106041,2,0,L|501:184,1,56.999993947983,8|0,0:0|0:0,0:0:0:0:
488,263,106295,6,0,P|443:296|387:292,2,113.999987895966,2|8|2,3:2|0:0|3:2,0:0:0:0:
364,161,107058,2,0,L|308:166,1,56.999993947983,8|2,0:0|0:0,0:0:0:0:
256,227,107312,2,0,L|246:341,1,113.999987895966,2|8,3:2|0:0,0:0:0:0:
170,368,107694,2,0,P|114:367|72:330,1,113.999987895966,0|0,0:0|0:0,0:0:0:0:
143,293,108075,2,0,L|148:237,1,56.999993947983,8|0,0:0|0:0,0:0:0:0:
188,167,108329,6,0,P|132:157|85:187,1,113.999987895966,6|8,0:0|0:0,0:0:0:0:
256,226,108838,2,0,P|276:174|264:120,1,113.999987895966,0|8,3:2|0:0,0:0:0:0:
199,73,109219,2,0,L|84:72,1,113.999987895966,6|2,0:0|0:0,0:0:0:0:
29,130,109600,1,8,0:0:0:0:
85,187,109727,1,4,3:0:0:0:
29,245,109855,2,0,L|34:301,1,56.999993947983,2|4,3:2|3:0,0:0:0:0:
85,362,110109,2,0,L|141:367,1,56.999993947983,4|4,3:0|3:0,0:0:0:0:
213,332,110363,6,0,L|213:224,2,107.999988121033,6|8|2,0:0|0:0|3:2,0:0:0:0:
360,367,111126,2,0,L|413:362,1,53.9999940605166,8|0,0:0|0:0,0:0:0:0:
479,324,111380,2,0,L|484:271,1,53.9999940605166,2|2,3:0|0:0,0:0:0:0:
492,195,111634,1,8,0:0:0:0:
448,50,111888,2,0,P|404:19|351:23,1,107.999988121033,2|8,3:2|0:0,0:0:0:0:
288,64,112270,1,0,0:0:0:0:
288,64,112397,6,0,L|180:55,2,107.999988121033,2|8|2,3:2|0:0|3:2,0:0:0:0:
379,184,113160,1,8,0:0:0:0:
379,184,113287,2,0,L|370:292,1,107.999988121033,0|2,0:0|0:0,0:0:0:0:
334,358,113668,1,8,0:0:0:0:
182,358,113922,2,0,P|134:334|112:286,1,107.999988121033,2|8,3:2|0:0,0:0:0:0:
156,224,114304,1,0,0:0:0:0:
156,224,114431,6,0,L|263:214,2,107.999988121033,2|8|2,3:2|0:0|3:2,0:0:0:0:
48,116,115194,2,0,L|53:63,1,53.9999940605166,8|2,0:0|0:0,0:0:0:0:
113,16,115448,2,0,P|165:12|209:43,1,107.999988121033,2|8,3:0|0:0,0:0:0:0:
360,43,115956,2,0,P|403:12|456:15,1,107.999988121033,2|8,3:2|0:0,0:0:0:0:
446,167,116465,6,0,P|393:170|349:139,2,107.999988121033,2|8|2,3:2|0:0|3:2,0:0:0:0:
360,43,117227,2,0,L|306:43,1,53.9999940605166,2|2,0:0|0:0,0:0:0:0:
253,97,117482,1,2,3:0:0:0:
199,43,117609,2,0,L|146:42,1,53.9999940605166,2|8,0:0|0:0,0:0:0:0:
92,96,117863,1,2,3:0:0:0:
146,149,117990,2,0,L|200:150,2,53.9999940605166,2|4|8,3:2|3:0|0:0,0:0:0:0:
306,43,118499,6,0,P|385:64|409:142,1,170.999981843949,6|2,0:0|0:0,0:0:0:0:
402,221,119007,1,2,3:2:0:0:
288,332,119261,2,0,L|231:332,1,56.999993947983,2|0,3:2|0:0,0:0:0:0:
166,284,119516,2,0,P|161:227|156:170,1,113.999987895966,2|2,3:0|3:2,0:0:0:0:
2,125,120024,2,0,P|7:181|11:238,1,113.999987895966,2|2,3:2|3:0,0:0:0:0:
156,170,120532,6,0,P|211:163|257:194,1,113.999987895966,2|0,3:0|0:0,0:0:0:0:
309,256,120914,1,2,0:0:0:0:
309,256,121041,2,0,L|422:246,1,113.999987895966,2|2,3:2|0:0,0:0:0:0:
422,326,121422,1,0,0:0:0:0:
422,326,121549,2,0,L|308:336,2,113.999987895966,2|2|2,3:0|3:2|3:2,0:0:0:0:
491,285,122185,1,0,0:0:0:0:
491,204,122312,2,0,L|491:147,1,56.999993947983,2|0,0:0|0:0,0:0:0:0:
448,80,122566,6,0,P|401:48|346:55,2,113.999987895966,6|8|2,0:0|0:0|3:2,0:0:0:0:
319,175,123329,2,0,L|262:175,1,56.999993947983,8|2,0:0|0:0,0:0:0:0:
243,253,123583,2,0,L|357:253,2,113.999987895966,2|8|2,3:2|0:0|3:2,0:0:0:0:
90,204,124346,2,0,L|90:147,1,56.999993947983,8|0,0:0|0:0,0:0:0:0:
133,80,124600,6,0,P|179:48|234:55,2,113.999987895966,2|8|2,3:2|0:0|3:2,0:0:0:0:
262,175,125363,2,0,L|319:175,1,56.999993947983,8|2,0:0|0:0,0:0:0:0:
384,128,125617,2,0,P|439:121|485:152,1,113.999987895966,2|8,3:0|0:0,0:0:0:0:
485,313,126126,2,0,P|439:344|383:337,1,113.999987895966,2|8,3:2|0:0,0:0:0:0:
314,296,126507,1,2,3:2:0:0:
314,296,126634,6,0,P|255:290|210:327,1,119.999990463257,6|4,0:0|3:0,0:0:0:0:
135,350,127016,2,0,P|131:290|125:230,1,119.999990463257,4|4,3:0|3:0,0:0:0:0:
111,153,127397,1,6,0:0:0:0:
214,36,127651,2,0,L|154:36,2,59.9999952316285,4|0|2,3:0|0:0|3:2,0:0:0:0:
288,60,128032,1,4,3:0:0:0:
362,36,128160,2,0,L|367:95,1,59.9999952316285,8|4,0:0|3:0,0:0:0:0:
415,156,128414,2,0,L|409:215,1,59.9999952316285,4|4,3:0|3:0,0:0:0:0:
392,292,128668,6,0,P|314:322|268:253,2,179.999985694886,2|2|2,0:0|0:0|0:0,0:0:0:0:
313,156,129685,2,0,L|132:156,1,179.999985694886,6|4,0:0|3:0,0:0:0:0:
132,77,130194,2,0,L|191:76,1,59.9999952316285,4|2,3:0|0:0,0:0:0:0:
191,333,130702,6,0,L|59:333,2,131.999993537903,6|8|2,0:0|0:0|0:0,0:0:0:0:
359,368,131465,1,8,0:0:0:0:
359,368,131592,2,0,P|422:361|463:311,1,131.999993537903,2|2,0:0|0:0,0:0:0:0:
480,227,131974,1,8,0:0:0:0:
359,105,132227,2,0,L|293:110,1,65.9999967689514,2|0,0:0|0:0,0:0:0:0:
222,160,132482,2,0,L|156:154,1,65.9999967689514,8|0,0:0|0:0,0:0:0:0:
85,105,132736,6,0,P|111:43|169:20,2,131.999993537903,2|8|2,0:0|0:0|3:2,0:0:0:0:
156,261,133499,1,8,0:0:0:0:
156,261,133626,2,0,L|287:272,1,131.999993537903,2|2,0:0|0:0,0:0:0:0:
362,231,134007,1,8,0:0:0:0:
240,112,134261,2,0,L|174:106,1,65.9999967689514,2|0,0:0|0:0,0:0:0:0:
167,20,134516,2,0,L|232:25,1,65.9999967689514,8|0,0:0|0:0,0:0:0:0:
309,63,134770,6,0,P|375:58|441:50,1,131.999993537903,2|8,0:0|0:0,0:0:0:0:
498,211,135278,2,0,P|490:276|485:342,1,131.999993537903,2|8,0:0|0:0,0:0:0:0:
398,342,135660,2,0,P|365:285|302:270,1,131.999993537903,2|2,0:0|0:0,0:0:0:0:
227,310,136041,1,8,0:0:0:0:
102,192,136295,2,0,P|167:184|233:179,1,131.999993537903,2|8,0:0|0:0,0:0:0:0:
167,20,136804,6,0,P|107:43|81:101,2,131.999993537903,2|8|2,0:0|0:0|0:0,0:0:0:0:
338,16,137566,2,0,L|403:11,1,65.9999967689514,8|2,0:0|0:0,0:0:0:0:
488,22,137820,2,0,L|493:88,1,65.9999967689514,0|2,0:0|0:0,0:0:0:0:
446,159,138074,2,0,L|445:226,1,65.9999967689514,8|0,0:0|0:0,0:0:0:0:
492,296,138329,2,0,L|487:362,1,65.9999967689514,2|0,0:0|0:0,0:0:0:0:
402,373,138583,2,0,L|337:368,1,65.9999967689514,8|0,0:0|0:0,0:0:0:0:
323,282,138838,6,0,L|323:151,2,131.999993537903,6|8|2,0:0|0:0|3:2,0:0:0:0:
174,368,139600,2,0,L|109:373,1,65.9999967689514,8|2,0:0|0:0,0:0:0:0:
24,362,139854,2,0,L|19:296,1,65.9999967689514,0|2,0:0|0:0,0:0:0:0:
66,225,140108,2,0,L|67:158,1,65.9999967689514,8|0,0:0|0:0,0:0:0:0:
20,88,140363,2,0,L|25:22,1,65.9999967689514,2|0,0:0|0:0,0:0:0:0:
110,11,140617,2,0,L|175:16,1,65.9999967689514,8|0,0:0|0:0,0:0:0:0:
256,44,140871,6,0,P|280:106|256:165,2,131.999993537903,2|8|2,0:0|0:0|3:2,0:0:0:0:
184,201,141634,1,8,0:0:0:0:
184,201,141761,2,0,P|231:245|296:240,1,131.999993537903,2|2,0:0|0:0,0:0:0:0:
349,173,142143,2,0,L|415:168,1,65.9999967689514,8|0,0:0|0:0,0:0:0:0:
486,120,142397,1,2,0:0:0:0:
474,291,142651,2,0,L|469:357,1,65.9999967689514,8|0,0:0|0:0,0:0:0:0:
384,368,142905,6,0,P|319:360|253:355,1,131.999993537903,2|8,0:0|0:0,0:0:0:0:
166,360,143287,2,0,P|100:349|61:299,1,131.999993537903,0|0,0:0|0:0,0:0:0:0:
99,224,143668,2,0,L|94:159,1,65.9999967689514,8|2,0:0|0:0,0:0:0:0:
34,96,143922,1,0,0:0:0:0:
34,96,144049,2,0,L|39:31,1,65.9999967689514,2|8,0:0|0:0,0:0:0:0:
118,64,144304,2,0,P|177:89|236:62,1,131.999993537903,0|0,0:0|0:0,0:0:0:0:
296,3,144685,1,8,0:0:0:0:
384,150,144939,6,0,L|371:282,1,131.999993537903,2|8,0:0|0:0,0:0:0:0:
289,309,145320,1,2,0:0:0:0:
289,309,145447,2,0,L|276:177,1,131.999993537903,2|8,3:2|0:0,0:0:0:0:
194,150,145829,1,2,0:0:0:0:
194,150,145956,2,0,L|181:282,1,131.999993537903,2|8,0:0|0:0,0:0:0:0:
173,366,146338,1,0,0:0:0:0:
103,317,146465,1,2,3:2:0:0:
25,353,146592,2,0,L|19:287,1,65.9999967689514,0|0,3:0|0:0,0:0:0:0:
24,115,146973,6,0,P|76:77|140:88,2,131.999993537903,6|8|2,0:0|0:0|0:0,0:0:0:0:
201,151,147736,1,8,0:0:0:0:
201,151,147863,2,0,P|266:147|332:140,1,131.999993537903,2|2,0:0|0:0,0:0:0:0:
400,88,148244,1,8,0:0:0:0:
480,240,148499,2,0,L|475:306,1,65.9999967689514,2|0,0:0|0:0,0:0:0:0:
388,306,148754,2,0,L|394:240,1,65.9999967689514,8|0,0:0|0:0,0:0:0:0:
312,265,149007,6,0,P|248:275|196:237,2,131.999993537903,2|8|2,0:0|0:0|3:2,0:0:0:0:
201,151,149770,1,8,0:0:0:0:
201,151,149897,2,0,P|139:170|111:228,1,131.999993537903,2|2,0:0|0:0,0:0:0:0:
143,306,150278,1,8,0:0:0:0:
312,265,150532,2,0,L|318:199,1,65.9999967689514,2|0,0:0|0:0,0:0:0:0:
368,128,150787,2,0,L|362:62,1,65.9999967689514,8|0,0:0|0:0,0:0:0:0:
286,22,151041,6,0,P|220:15|154:10,1,131.999993537903,2|8,0:0|0:0,0:0:0:0:
17,113,151549,2,0,P|23:178|28:244,1,131.999993537903,2|8,0:0|0:0,0:0:0:0:
36,330,151931,2,0,P|93:360|154:339,1,131.999993537903,2|2,0:0|0:0,0:0:0:0:
208,272,152312,1,8,0:0:0:0:
354,360,152566,2,0,L|420:354,1,65.9999967689514,2|0,0:0|0:0,0:0:0:0:
453,274,152821,2,0,L|387:268,1,65.9999967689514,8|0,0:0|0:0,0:0:0:0:
320,214,153075,5,2,0:0:0:0:
467,126,153329,2,0,P|471:61|427:15,1,131.999993537903,8|2,0:0|0:0,0:0:0:0:
257,40,153838,2,0,L|191:34,1,65.9999967689514,8|6,0:0|0:0,0:0:0:0:
144,106,154092,2,0,L|149:171,1,65.9999967689514,0|2,0:0|0:0,0:0:0:0:
112,249,154346,2,0,L|46:243,1,65.9999967689514,8|0,0:0|0:0,0:0:0:0:
0,315,154600,2,0,L|5:380,1,65.9999967689514,2|0,0:0|0:0,0:0:0:0:
91,375,154855,2,0,L|156:369,1,65.9999967689514,8|0,0:0|0:0,0:0:0:0:
187,286,155109,6,0,P|189:221|148:171,2,131.999993537903,6|8|2,0:0|0:0|0:0,0:0:0:0:
337,369,155871,2,0,L|403:375,1,65.9999967689514,8|2,0:0|0:0,0:0:0:0:
488,380,156126,2,0,L|494:315,1,65.9999967689514,0|2,0:0|0:0,0:0:0:0:
447,243,156380,2,0,L|382:249,1,65.9999967689514,8|0,0:0|0:0,0:0:0:0:
344,171,156634,2,0,L|350:106,1,65.9999967689514,2|0,0:0|0:0,0:0:0:0:
302,34,156888,2,0,L|237:40,1,65.9999967689514,8|2,0:0|3:2,0:0:0:0:
150,34,157143,6,0,P|84:35|42:83,1,131.999993537903,6|8,0:0|0:0,0:0:0:0:
181,182,157651,2,0,P|247:183|289:231,1,131.999993537903,6|8,0:0|0:0,0:0:0:0:
150,332,158160,2,0,P|84:333|42:381,2,131.999993537903,6|8|6,0:0|0:0|0:0,0:0:0:0:
228,367,158795,1,0,0:0:0:0:
299,320,158922,2,0,L|364:314,1,65.9999967689514,8|0,0:0|3:2,0:0:0:0:
440,272,159177,6,0,P|444:206|452:140,1,131.999993537903,6|8,0:0|0:0,0:0:0:0:
488,63,159558,2,0,P|444:15|380:15,1,131.999993537903,0|0,0:0|0:0,0:0:0:0:
321,77,159939,2,0,L|256:71,1,65.9999967689514,8|2,0:0|0:0,0:0:0:0:
174,40,160194,2,0,L|109:46,2,65.9999967689514,0|2|8,0:0|0:0|0:0,0:0:0:0:
256,190,160702,2,0,L|243:321,1,131.999993537903,2|8,0:0|0:0,0:0:0:0:
165,355,161083,1,0,0:0:0:0:
165,355,161210,6,0,P|100:354|57:306,1,131.999993537903,2|8,0:0|0:0,0:0:0:0:
42,135,161719,2,0,P|108:131|174:123,1,131.999993537903,2|8,0:0|0:0,0:0:0:0:
240,70,162100,2,0,P|304:70|347:118,1,131.999993537903,6|2,0:0|0:0,0:0:0:0:
313,197,162482,1,8,0:0:0:0:
392,231,162609,1,0,0:0:0:0:
358,310,162736,2,0,L|292:315,1,65.9999967689514,2|4,3:2|3:0,0:0:0:0:
241,246,162990,2,0,L|175:240,1,65.9999967689514,8|4,0:0|3:0,0:0:0:0:
106,289,163244,5,6,0:0:0:0:
20,167,163499,1,8,0:0:0:0:
170,153,163753,2,0,L|223:148,2,53.9999940605166,2|0|0,0:0|0:0|0:0,0:0:0:0:
162,77,164134,2,0,L|269:67,1,107.999988121033
336,31,164516,1,8,0:0:0:0:
349,181,164770,2,0,L|295:185,2,53.9999940605166,2|0|0,0:0|0:0|0:0,0:0:0:0:
499,168,165278,5,2,0:0:0:0:
436,304,165532,1,8,0:0:0:0:
299,239,165787,2,0,L|294:185,2,53.9999940605166,2|0|0,0:0|0:0|0:0,0:0:0:0:
268,307,166168,2,0,P|219:328|168:315,1,107.999992412567,0|0,0:0|0:0,0:0:0:0:
124,253,166549,1,8,0:0:0:0:
194,118,166804,2,0,L|247:122,2,53.9999940605166,2|0|0,0:0|0:0|0:0,0:0:0:0:
124,253,167312,5,2,0:0:0:0:
268,307,167566,1,8,0:0:0:0:
412,253,167821,2,0,L|465:248,2,53.9999940605166,2|0|0,0:0|0:0|0:0,0:0:0:0:
346,215,168202,2,0,P|320:168|328:116,1,107.999992412567,0|0,0:0|0:0,0:0:0:0:
359,47,168583,1,8,0:0:0:0:
500,101,168838,2,0,L|495:47,2,53.9999940605166,2|0|0,0:0|0:0|0:0,0:0:0:0:
471,238,169346,6,0,P|462:290|488:336,1,107.999992412567,8|2,0:0|0:0,0:0:0:0:
411,376,169727,2,0,L|303:366,1,107.999988121033,8|2,0:0|3:2,0:0:0:0:
227,357,170109,1,4,0:3:0:0:
81,315,170363,6,0,L|81:208,1,107.999988121033,2|2,3:2|0:0,0:0:0:0:
59,133,170744,2,0,P|88:89|139:76,2,107.999988121033,2|6|0,0:0|0:0|0:0,0:0:0:0:
133,152,171380,5,6,0:0:0:0:
255,63,171634,1,2,0:0:0:0:
378,152,171888,2,0,L|432:152,2,53.9999962062837,8|0|2,0:0|0:0|0:0,0:0:0:0:
322,202,172269,2,0,P|305:252|322:302,1,107.999992412567,0|0,0:0|0:0,0:0:0:0:
378,354,172651,1,2,3:2:0:0:
500,265,172905,2,0,L|500:211,2,53.9999962062837,8|2|0,0:0|0:0|0:0,0:0:0:0:
378,354,173414,5,2,3:2:0:0:
256,266,173668,1,0,0:0:0:0:
134,354,173922,2,0,L|80:354,2,53.9999962062837,8|0|2,0:0|0:0|0:0,0:0:0:0:
134,277,174304,2,0,L|26:277,1,107.999988121033,0|0,0:0|0:0,0:0:0:0:
4,349,174685,1,2,3:2:0:0:
4,197,174939,2,0,L|4:143,2,53.9999962062837,8|2|2,0:0|0:0|0:0,0:0:0:0:
134,277,175448,5,6,0:0:0:0:
264,197,175702,1,0,0:0:0:0:
134,117,175956,2,0,L|80:117,2,53.9999962062837,8|0|2,0:0|0:0|0:0,0:0:0:0:
186,61,176338,2,0,P|236:44|286:61,1,107.999992412567,0|0,0:0|0:0,0:0:0:0:
338,117,176720,1,2,0:0:0:0:
480,68,176973,2,0,L|480:14,2,53.9999962062837,8|4|4,0:0|3:0|3:0,0:0:0:0:
432,212,177482,6,0,P|381:229|331:212,1,107.999992412567,6|0,0:0|0:0,0:0:0:0:
180,212,177990,2,0,P|129:229|79:212,1,107.999992412567,6|0,0:0|0:0,0:0:0:0:
22,71,178499,2,0,L|130:71,1,107.999988121033,6|0,0:0|0:0,0:0:0:0:
180,128,178880,1,6,0:0:0:0:
297,32,179134,2,0,P|347:14|397:31,1,107.999992412567,2|4,0:0|3:0,0:0:0:0:
448,91,179516,6,0,P|441:151|437:211,1,119.999990463257,6|8,0:0|0:0,0:0:0:0:
336,329,180024,2,0,P|276:322|216:318,1,119.999990463257,2|8,0:0|0:0,0:0:0:0:
144,288,180405,2,0,P|88:269|36:296,1,119.999990463257,2|2,0:0|0:0,0:0:0:0:
95,348,180787,1,8,0:0:0:0:
125,195,181041,2,0,L|65:195,2,59.9999952316285,2|0|10,0:0|0:0|0:0,0:0:0:0:
277,160,181549,6,0,P|332:141|384:168,1,119.999990463257,2|8,3:2|0:0,0:0:0:0:
428,233,181931,2,0,P|432:173|438:113,1,119.999990463257,0|0,0:0|0:0,0:0:0:0:
388,54,182312,1,8,0:0:0:0:
388,54,182439,2,0,P|328:60|268:64,1,119.999990463257,2|2,0:0|0:0,0:0:0:0:
192,45,182821,1,8,0:0:0:0:
206,200,183075,1,2,0:0:0:0:
64,134,183329,2,0,L|4:134,1,59.9999952316285,8|0,0:0|0:0,0:0:0:0:
4,211,183583,6,0,L|124:211,2,119.999990463257,2|8|2,3:2|0:0|0:0,0:0:0:0:
4,56,184346,2,0,L|64:56,1,59.9999952316285,8|2,0:0|0:0,0:0:0:0:
138,32,184600,2,0,P|198:38|258:42,1,119.999990463257,0|8,0:0|0:0,0:0:0:0:
378,141,185109,2,0,P|318:147|258:151,1,119.999990463257,2|8,0:0|0:0,0:0:0:0:
387,62,185617,6,0,P|439:87|457:143,1,119.999990463257,6|8,0:0|0:0,0:0:0:0:
415,210,185999,1,4,3:0:0:0:
452,279,186126,2,0,L|446:338,1,59.9999952316285,4|4,3:0|3:0,0:0:0:0:
383,384,186380,1,6,0:0:0:0:
320,337,186507,1,0,0:0:0:0:
320,337,186761,6,0,L|320:277,2,59.9999952316285,2|2|2,0:0|0:0|0:0,0:0:0:0:
257,383,187143,2,0,L|197:383,1,59.9999952316285,2|4,3:2|3:0,0:0:0:0:
133,337,187397,2,0,L|73:337,1,59.9999952316285,4|4,3:0|3:0,0:0:0:0:
19,279,187651,6,0,P|0:224|27:172,1,119.999990463257,6|8,0:0|0:0,0:0:0:0:
163,96,188160,2,0,L|222:101,1,59.9999952316285,2|0,0:0|0:0,0:0:0:0:
288,144,188414,1,8,0:0:0:0:
288,144,188541,2,0,L|407:133,1,119.999990463257,2|2,0:0|0:0,0:0:0:0:
484,141,188922,2,0,L|478:200,1,59.9999952316285,8|0,0:0|0:0,0:0:0:0:
413,244,189177,2,0,L|418:303,1,59.9999952316285,2|0,0:0|0:0,0:0:0:0:
360,357,189431,6,0,P|302:369|254:337,2,119.999990463257,8|2|8,0:0|3:2|0:0,0:0:0:0:
317,291,190066,1,0,0:0:0:0:
317,291,190194,2,0,L|311:231,1,59.9999952316285,2|0,0:0|0:0,0:0:0:0:
272,164,190448,1,8,0:0:0:0:
272,164,190575,2,0,L|283:45,1,119.999990463257,2|2,0:0|0:0,0:0:0:0:
207,63,190956,2,0,P|150:76|100:46,1,119.999990463257,8|2,0:0|0:0,0:0:0:0:
30,185,191465,6,0,P|90:179|150:175,1,119.999990463257,8|2,0:0|3:2,0:0:0:0:
197,323,191973,2,0,P|137:317|77:313,1,119.999990463257,8|2,0:0|0:0,0:0:0:0:
217,243,192482,2,0,P|277:237|337:233,1,119.999990463257,8|0,0:0|0:0,0:0:0:0:
384,381,192990,2,0,P|324:375|264:371,1,119.999990463257,8|2,0:0|0:0,0:0:0:0:
404,301,193499,2,0,P|433:297|463:295,1,59.9999952316285,8|0,0:0|3:0,0:0:0:0:
504,229,193753,6,0,P|498:169|494:109,1,119.999990463257,2|8,3:2|0:0,0:0:0:0:
360,28,194261,2,0,P|355:87|350:147,1,119.999990463257,2|8,0:0|0:0,0:0:0:0:
328,223,194643,1,2,0:0:0:0:
328,223,194770,2,0,P|277:249|221:231,1,119.999990463257,0|8,0:0|0:0,0:0:0:0:
173,168,195151,1,4,3:0:0:0:
111,215,195278,2,0,L|51:215,1,59.9999952316285,2|4,0:0|3:0,0:0:0:0:
40,137,195532,2,0,L|100:137,1,59.9999952316285,4|0,3:0|3:0,0:0:0:0:
162,90,195787,6,0,P|208:21|286:52,2,179.999985694886,2|2|2,0:0|0:0|0:0,0:0:0:0:
288,181,196804,2,0,L|468:165,1,179.999985694886,6|4,0:0|0:3,0:0:0:0:
465,87,197313,2,0,L|406:92,1,59.9999952316285,4|0,0:3|0:0,0:0:0:0:
358,321,197821,6,0,P|413:339|466:315,2,119.999990463257,6|0|0,0:0|0:0|0:0,0:0:0:0:
288,181,198583,1,2,0:0:0:0:
288,181,198710,2,0,P|228:185|168:190,1,119.999990463257,2|0,0:0|0:0,0:0:0:0:
97,225,199092,1,0,0:0:0:0:
39,79,199346,2,0,L|98:73,1,59.9999952316285,2|0,0:0|0:0,0:0:0:0:
167,38,199600,2,0,L|226:43,1,59.9999952316285,4|0,3:0|0:0,0:0:0:0:
304,53,199855,6,0,P|346:39|388:52,1,89.9999928474428,0|0,0:0|0:0,0:0:0:0:
412,89,200109,1,6,0:0:0:0:
412,89,200617,1,6,0:0:0:0:
412,89,201126,1,6,0:0:0:0:
366,152,201253,1,4,3:0:0:0:
424,203,201380,2,0,L|418:262,1,59.9999952316285,4|4,3:0|3:0,0:0:0:0:
355,308,201634,2,0,L|360:367,1,59.9999952316285,8|4,0:0|3:0,0:0:0:0:
280,380,201888,6,0,P|238:338|180:337,1,119.999990463257,6|0,0:0|0:0,0:0:0:0:
71,225,202397,2,0,P|130:220|190:215,1,119.999990463257,0|2,0:0|3:2,0:0:0:0:
203,138,202778,2,0,P|244:96|302:95,1,119.999990463257,0|0,0:0|3:2,0:0:0:0:
275,168,203160,1,0,0:0:0:0:
382,280,203414,2,0,L|442:280,1,59.9999952316285,0|0,0:0|0:0,0:0:0:0:
464,205,203668,2,0,L|404:205,1,59.9999952316285,2|0,0:0|0:0,0:0:0:0:
327,224,203922,6,0,P|305:277|325:332,1,119.999990463257,6|4,0:0|3:0,0:0:0:0:
256,369,204304,2,0,L|196:363,1,59.9999952316285,2|0,3:2|0:0,0:0:0:0:
131,319,204558,1,8,3:0:0:0:
131,319,204685,2,0,L|71:314,1,59.9999952316285,6|0,3:2|0:0,0:0:0:0:
4,273,204939,2,0,L|9:213,1,59.9999952316285,4|4,3:0|3:0,0:0:0:0:
71,163,205194,2,0,L|131:169,1,59.9999952316285,2|4,3:0|3:0,0:0:0:0:
136,90,205448,2,0,L|76:84,1,59.9999952316285,4|4,3:0|3:0,0:0:0:0:
81,5,205702,2,0,L|141:11,1,59.9999952316285,4|4,3:0|3:0,0:0:0:0:
206,54,205956,6,0,P|240:99|298:109,2,119.999990463257,6|0|2,0:0|0:0|0:3,0:0:0:0:
371,11,206719,2,0,L|431:5,1,59.9999952316285,2|0,0:0|0:0,0:0:0:0:
436,84,206973,2,0,L|376:90,1,59.9999952316285,2|0,0:3|0:0,0:0:0:0:
381,169,207228,2,0,L|441:163,1,59.9999952316285,2|0,0:0|0:0,0:0:0:0:
502,213,207481,2,0,L|508:273,1,59.9999952316285,2|2,0:3|0:0,0:0:0:0:
441,314,207736,2,0,L|381:319,1,59.9999952316285,0|0,0:0|0:0,0:0:0:0:
307,296,207990,6,0,P|253:274|198:294,2,119.999990463257,2|0|2,0:3|0:0|0:3,0:0:0:0:
168,369,208753,1,2,0:0:0:0:
168,369,208880,2,0,P|109:360|72:314,1,119.999990463257,2|0,0:0|0:0,0:0:0:0:
55,239,209261,2,0,L|49:179,1,59.9999952316285,2|0,0:0|0:0,0:0:0:0:
43,100,209516,1,2,0:3:0:0:
196,129,209770,2,0,L|255:123,1,59.9999952316285,2|0,0:0|0:0,0:0:0:0:
315,176,210024,6,0,P|310:236|307:296,1,119.999990463257,6|0,0:0|0:0,0:0:0:0:
355,356,210405,2,0,P|413:361|459:325,1,119.999990463257,2|0,0:0|0:0,0:0:0:0:
465,246,210787,2,0,L|459:186,1,59.9999952316285,2|0,0:0|0:0,0:0:0:0:
390,149,211041,1,2,0:3:0:0:
390,149,211168,2,0,L|395:89,1,59.9999952316285,0|2,0:0|0:0,0:0:0:0:
329,47,211422,2,0,P|272:31|220:59,1,119.999990463257,0|0,0:0|0:0,0:0:0:0:
176,124,211804,1,4,0:3:0:0:
20,124,212058,6,0,L|20:244,1,119.999990463257,6|2,0:0|0:0,0:0:0:0:
98,244,212439,1,0,3:0:0:0:
98,244,212566,2,0,L|98:124,1,119.999990463257,6|2,0:0|0:0,0:0:0:0:
176,124,212948,1,0,3:0:0:0:
176,124,213075,2,0,L|176:244,1,119.999990463257,6|2,0:0|0:0,0:0:0:0:
137,311,213456,1,0,0:0:0:0:
189,369,213583,1,2,0:0:0:0:
264,350,213710,2,0,L|323:355,1,59.9999952316285,0|0,0:0|0:0,0:0:0:0:
283,190,214092,6,0,P|217:197|175:245,2,131.999993537903,6|8|2,0:0|0:0|0:0,0:0:0:0:
450,226,214855,1,8,0:0:0:0:
450,226,214982,2,0,P|456:160|461:94,1,131.999993537903,2|2,0:0|0:0,0:0:0:0:
467,9,215363,1,8,0:0:0:0:
312,82,215617,2,0,L|246:87,1,65.9999967689514,2|0,0:0|0:0,0:0:0:0:
170,128,215871,2,0,L|104:122,1,65.9999967689514,8|0,0:0|0:0,0:0:0:0:
36,176,216126,6,0,L|36:308,2,131.999993537903,2|8|2,0:0|0:0|3:2,0:0:0:0:
176,272,216888,1,8,0:0:0:0:
176,272,217016,2,0,P|237:292|295:265,1,131.999993537903,2|2,0:0|0:0,0:0:0:0:
232,205,217397,1,8,0:0:0:0:
307,358,217651,2,0,L|373:353,1,65.9999967689514,2|0,0:0|0:0,0:0:0:0:
443,304,217905,2,0,L|448:238,1,65.9999967689514,8|0,0:0|0:0,0:0:0:0:
496,166,218160,6,0,P|491:100|485:34,1,131.999993537903,2|8,0:0|0:0,0:0:0:0:
313,34,218668,2,0,P|307:99|302:165,1,131.999993537903,2|8,0:0|0:0,0:0:0:0:
216,165,219049,2,0,P|211:99|205:33,1,131.999993537903,2|2,0:0|0:0,0:0:0:0:
122,8,219431,1,8,0:0:0:0:
24,148,219685,2,0,L|29:213,1,65.9999967689514,2|0,0:0|0:0,0:0:0:0:
104,256,219939,2,0,L|98:321,1,65.9999967689514,8|0,0:0|0:0,0:0:0:0:
30,375,220194,5,2,0:0:0:0:
182,297,220448,2,0,P|243:277|301:304,1,131.999993537903,8|2,0:0|0:0,0:0:0:0:
457,376,220956,2,0,L|462:310,1,65.9999967689514,8|6,0:0|0:0,0:0:0:0:
470,226,221210,2,0,L|404:231,1,65.9999967689514,0|2,0:0|0:0,0:0:0:0:
412,147,221465,2,0,L|477:141,1,65.9999967689514,8|0,0:0|0:0,0:0:0:0:
485,57,221719,2,0,L|419:62,1,65.9999967689514,2|0,3:2|0:0,0:0:0:0:
341,98,221973,2,0,L|275:92,1,65.9999967689514,8|0,0:0|0:0,0:0:0:0:
191,108,222227,6,0,P|225:161|287:177,2,131.999993537903,6|8|2,0:0|0:0|0:0,0:0:0:0:
55,8,222990,2,0,L|49:73,1,65.9999967689514,8|2,0:0|0:0,0:0:0:0:
42,158,223244,2,0,L|107:152,1,65.9999967689514,0|2,0:0|0:0,0:0:0:0:
100,237,223499,2,0,L|34:242,1,65.9999967689514,8|0,0:0|0:0,0:0:0:0:
27,327,223753,2,0,L|92:321,1,65.9999967689514,2|0,0:0|0:0,0:0:0:0:
171,286,224007,2,0,L|236:291,1,65.9999967689514,8|2,0:0|3:2,0:0:0:0:
318,265,224261,6,0,P|381:254|432:293,1,131.999993537903,6|8,0:0|0:0,0:0:0:0:
512,140,224770,2,0,P|448:129|397:168,1,131.999993537903,6|8,0:0|0:0,0:0:0:0:
318,15,225278,2,0,P|381:4|432:43,2,131.999993537903,6|8|6,0:0|0:0|0:0,0:0:0:0:
256,75,225914,1,0,0:0:0:0:
174,47,226041,2,0,L|108:52,1,65.9999967689514,8|2,0:0|3:2,0:0:0:0:
48,114,226295,6,0,P|37:177|76:228,1,131.999993537903,6|8,0:0|0:0,0:0:0:0:
162,220,226677,2,0,P|227:212|293:208,1,131.999993537903,0|0,0:0|0:0,0:0:0:0:
368,249,227058,2,0,L|362:314,1,65.9999967689514,8|2,0:0|0:0,0:0:0:0:
288,357,227312,2,0,L|222:351,2,65.9999967689514,0|2|8,0:0|0:0|0:0,0:0:0:0:
452,307,227821,2,0,L|463:175,1,131.999993537903,2|8,0:0|0:0,0:0:0:0:
471,90,228202,1,0,0:0:0:0:
471,90,228329,6,0,P|420:50|356:61,1,131.999993537903,2|8,0:0|0:0,0:0:0:0:
198,128,228838,2,0,L|132:122,2,65.9999967689514,2|0|8,0:0|0:0|0:0,0:0:0:0:
256,192,229219,2,0,L|245:324,1,131.999993537903,2|2,0:0|0:0,0:0:0:0:
160,337,229600,1,8,0:0:0:0:
256,192,229855,2,0,L|321:186,1,65.9999967689514,2|0,0:0|0:0,0:0:0:0:
392,138,230109,2,0,L|457:144,1,65.9999967689514,8|4,0:0|3:0,0:0:0:0:
496,220,230363,5,6,0:0:0:0:
496,220,231888,2,0,P|501:275|466:319,1,113.999987895966,0|0,0:0|0:0,0:0:0:0:
320,256,232397,5,4,0:0:0:0:
320,256,232905,1,4,0:0:0:0:
320,256,233414,1,4,0:0:0:0:
174,319,233668,2,0,L|117:319,1,56.999993947983,0|0,0:0|0:0,0:0:0:0:
65,258,233922,2,0,P|61:201|55:144,1,113.999987895966,4|0,3:0|0:0,0:0:0:0:
174,37,234431,5,6,0:0:0:0:
281,156,234685,2,0,L|337:151,1,56.999993947983,8|0,0:0|0:0,0:0:0:0:
417,149,234939,2,0,P|451:192|446:247,1,113.999987895966,2|8,0:0|0:0,0:0:0:0:
403,316,235321,2,0,L|408:372,2,56.999993947983,2|0|2,0:0|0:0|0:0,0:0:0:0:
365,247,235702,1,8,0:0:0:0:
266,372,235956,1,2,0:0:0:0:
141,273,236210,2,0,L|85:268,1,56.999993947983,8|0,0:0|0:0,0:0:0:0:
64,189,236465,6,0,L|177:179,1,113.999987895966,2|8,0:0|0:0,0:0:0:0:
313,95,236973,2,0,P|290:44|238:23,1,113.999987895966,2|8,0:0|0:0,0:0:0:0:
168,62,237355,1,2,0:0:0:0:
168,62,237482,2,0,L|112:67,2,56.999993947983,0|2|8,0:0|0:0|0:0,0:0:0:0:
275,179,237990,2,0,L|331:184,2,56.999993947983,2|0|8,0:0|0:0|0:0,0:0:0:0:
126,238,238499,6,0,P|106:290|128:341,1,113.999987895966,6|0,0:0|0:0,0:0:0:0:
202,368,238880,2,0,P|259:364|316:358,1,113.999987895966,0|0,0:0|0:0,0:0:0:0:
391,333,239261,1,0,0:0:0:0:
331,184,239516,2,0,L|321:70,1,113.999987895966,2|4,1:2|0:3,0:0:0:0:
400,62,239897,2,0,L|409:175,1,113.999987895966,4|4,0:3|0:3,0:0:0:0:
378,248,240278,1,4,0:3:0:0:
249,151,240532,6,0,P|195:140|147:169,1,113.999987895966,6|0,0:0|0:0,0:0:0:0:
209,222,240914,1,0,3:2:0:0:
333,18,241295,1,6,0:0:0:0:
256,192,241422,12,0,244600,0:0:0:0:
