osu file format v14

[General]
AudioFilename: Audio.mp3
AudioLeadIn: 0
PreviewTime: 129939
Countdown: 0
SampleSet: Soft
StackLeniency: 0.7
Mode: 0
LetterboxInBreaks: 0
WidescreenStoryboard: 0

[Editor]
Bookmarks: 214141
DistanceSpacing: 1.1
BeatDivisor: 2
GridSize: 16
TimelineZoom: 0.9999994

[Metadata]
Title:Girls' Carnival
TitleUnicode:Girls' Carnival
Artist:Yuuka
ArtistUnicode:ユウカ
Creator:Dored
Version:Garden's Normal
Source:Making*Lovers
Tags:Eir joker- Making Lovers Eroge Visual Novel Galgame Full Version Opening SMEE Garden PinkHeart -Laura- Akitoshi Corinn
BeatmapID:1733572
BeatmapSetID:827286

[Difficulty]
HPDrainRate:4
CircleSize:3
OverallDifficulty:4
ApproachRate:6
SliderMultiplier:0.79999990463257
SliderTickRate:1

[Events]
//Background and Video events
0,0,"Ako.jpg",0,0
//Break Periods
2,163444,169163
//Storyboard Layer 0 (Background)
//Storyboard Layer 1 (Fail)
//Storyboard Layer 2 (Pass)
//Storyboard Layer 3 (Foreground)
//Storyboard Sound Samples

[TimingPoints]
533,254.237288135593,4,2,1,40,1,0
533,-100,4,2,1,40,0,0
6634,-100,4,2,2,50,0,0
7778,-100,4,2,2,40,0,0
7905,-100,4,2,1,40,0,0
8032,-100,4,2,2,40,0,0
8160,-100,4,2,1,30,0,0
8287,-100,4,2,1,40,0,0
8414,-100,4,2,1,50,0,0
8541,-100,4,2,1,60,0,0
8668,-100,4,2,2,70,0,0
23414,-100,4,2,2,60,0,0
23922,-100,4,2,2,50,0,0
24939,-100,4,2,2,70,0,0
25702,-100,4,2,2,60,0,0
26465,-100,4,2,2,50,0,0
26973,-100,4,2,2,60,0,0
43244,-100,4,2,3,50,0,0
51380,-100,4,2,2,50,0,0
57482,-100,4,2,2,50,0,0
59516,-100,4,2,2,60,0,0
59897,-100,4,2,2,70,0,0
60278,-100,4,2,2,80,0,0
60469,-100,4,2,2,5,0,0
60532,-100,4,2,2,80,0,0
60914,-100,4,2,2,50,0,0
61168,-100,4,2,1,50,0,0
61486,-100,4,2,1,5,0,0
61549,-100,4,2,2,80,0,1
67588,-100,4,2,2,5,0,1
67651,-100,4,2,2,80,0,1
77439,-100,4,2,2,50,0,1
77757,-100,4,2,2,5,0,1
77821,-100,4,2,2,80,0,1
85893,-100,4,2,2,5,0,1
85956,-100,4,2,2,80,0,1
87990,-100,4,2,2,70,0,1
88499,-100,4,2,2,60,0,1
89007,-100,4,2,2,50,0,1
89516,-100,4,2,2,60,0,1
90024,-100,4,2,2,80,0,1
92058,-100,4,2,2,60,0,0
94092,-100,4,2,2,60,0,0
110363,-100,4,2,3,50,0,0
118499,-100,4,2,2,50,0,0
122566,-100,4,2,2,60,0,0
126316,-100,4,2,2,5,0,0
126380,-100,4,2,2,60,0,0
126634,-100,4,2,2,60,0,0
129049,-100,4,2,2,70,0,0
129431,-100,4,2,2,80,0,0
129621,-100,4,2,2,5,0,0
129685,-100,4,2,2,80,0,0
130066,-100,4,2,2,50,0,0
130321,-100,4,2,1,50,0,0
130702,-100,4,2,2,80,0,1
136740,-100,4,2,2,5,0,1
136804,-100,4,2,2,80,0,1
146592,-100,4,2,2,50,0,1
146910,-100,4,2,2,5,0,1
146973,-100,4,2,2,80,0,1
153011,-100,4,2,2,5,0,1
153075,-100,4,2,2,80,0,1
155045,-100,4,2,2,5,0,1
155109,-100,4,2,2,80,0,1
157143,-100,4,2,2,70,0,1
157651,-100,4,2,2,60,0,1
158160,-100,4,2,2,50,0,1
158668,-100,4,2,2,60,0,1
159177,-100,4,2,2,80,0,1
163244,-100,4,2,2,50,0,0
177482,-100,4,2,2,60,0,0
179516,-100,4,2,2,70,0,0
189621,-100,4,2,2,5,0,0
189685,-100,4,2,2,70,0,0
191655,-100,4,2,2,5,0,0
191719,-100,4,2,2,70,0,0
192164,-100,4,2,2,5,0,0
192227,-100,4,2,2,70,0,0
195151,-100,4,2,2,50,0,0
196168,-100,4,2,2,60,0,0
196549,-100,4,2,2,70,0,0
197185,-100,4,2,2,50,0,0
197439,-100,4,2,1,50,0,0
197821,-100,4,2,2,70,0,0
200109,-100,4,2,2,80,0,0
201253,-100,4,2,2,50,0,0
201888,-100,4,2,2,70,0,0
203922,-100,4,2,2,60,0,0
205066,-100,4,2,2,50,0,0
213075,-100,4,2,2,70,0,0
213710,-100,4,2,2,50,0,0
214092,-100,4,2,2,90,0,1
224261,-100,4,2,2,80,0,1
224770,-100,4,2,2,70,0,1
225278,-100,4,2,2,60,0,1
225787,-100,4,2,2,70,0,1
226295,-100,4,2,2,90,0,1
230363,-100,4,2,2,70,0,0
232397,-100,4,2,2,60,0,0
233922,-100,4,2,2,50,0,0
234431,-100,4,2,2,70,0,0
239516,-100,4,2,2,50,0,0
240532,-100,4,2,2,60,0,0
241422,-100,4,2,2,60,0,0
244600,-100,4,2,2,5,0,0

[Colours]
Combo1 : 124,207,194
Combo2 : 246,130,152
Combo3 : 255,185,71
Combo4 : 167,144,200
Combo5 : 205,190,153

[HitObjects]
99,193,533,6,0,L|107:286,1,79.999990463257,2|0,0:0|1:2,0:0:0:0:
171,331,1041,2,0,P|116:323|47:357,2,119.999985694885,2|2|2,2:3|1:2|1:2,0:0:0:0:
251,367,2058,2,0,P|294:368|328:351,1,79.999990463257,2|2,3:2|1:2,0:0:0:0:
343,265,2566,6,0,L|333:170,1,79.999990463257,2|2,0:0|1:2,0:0:0:0:
417,154,3075,2,0,L|434:298,2,119.999985694885,2|2|2,2:3|1:2|1:2,0:0:0:0:
348,98,4092,2,0,P|308:99|265:126,1,79.999990463257,2|2,3:2|1:2,0:0:0:0:
246,201,4600,6,0,L|163:194,1,79.999990463257,2|10,0:0|0:0,0:0:0:0:
102,133,5109,2,0,P|113:191|75:264,2,119.999985694885,2|2|10,2:3|1:2|0:0,0:0:0:0:
83,46,6126,2,0,L|162:39,1,79.999990463257,2|8,3:2|0:0,0:0:0:0:
250,36,6634,5,2,0:0:0:0:
102,133,7143,1,2,0:0:0:0:
257,214,7651,2,0,L|355:207,1,79.999990463257,2|8,0:0|0:0,0:0:0:0:
366,125,8160,2,0,L|445:119,1,79.999990463257,2|8,2:3|0:0,0:0:0:0:
488,42,8668,5,6,0:0:0:0:
490,218,9177,2,0,L|489:355,2,119.999985694885,2|2|8,3:2|0:0|0:0,0:0:0:0:
401,212,10194,2,0,L|399:291,1,79.999990463257,2|8,3:2|0:0,0:0:0:0:
329,345,10702,5,2,3:2:0:0:
259,291,10956,1,8,0:0:0:0:
192,348,11210,2,0,P|138:363|70:340,2,119.999985694885,2|2|8,3:2|0:0|0:0,0:0:0:0:
259,291,12227,2,0,L|263:201,1,79.999990463257,2|8,3:2|0:0,0:0:0:0:
193,156,12736,5,2,3:2:0:0:
306,21,13244,2,0,P|362:22|427:68,2,119.999985694885,2|2|8,3:2|0:0|0:0,0:0:0:0:
233,71,14261,2,0,L|137:65,1,79.999990463257,2|8,3:2|0:0,0:0:0:0:
76,21,14770,5,2,3:2:0:0:
19,88,15024,1,8,0:0:0:0:
94,132,15278,2,0,P|110:182|99:253,2,119.999985694885,2|2|8,3:2|0:0|0:0,0:0:0:0:
153,66,16295,2,0,L|245:72,1,79.999990463257,2|4,3:2|3:0,0:0:0:0:
306,21,16804,5,6,0:0:0:0:
446,126,17312,2,0,L|449:6,2,119.999985694885,2|2|8,3:2|0:0|0:0,0:0:0:0:
445,214,18329,2,0,L|365:211,1,79.999990463257,2|8,3:2|0:0,0:0:0:0:
282,242,18838,5,2,3:2:0:0:
350,296,19092,1,8,0:0:0:0:
269,330,19346,2,0,P|204:337|138:308,2,119.999985694885,2|2|8,3:2|0:0|0:0,0:0:0:0:
282,242,20363,2,0,P|277:204|290:163,1,79.999990463257,2|8,3:2|0:0,0:0:0:0:
342,94,20871,5,2,3:2:0:0:
180,23,21380,2,0,L|46:37,2,119.999985694885,2|2|8,3:2|0:0|0:0,0:0:0:0:
200,108,22397,2,0,L|120:117,1,79.999990463257,2|8,3:2|0:0,0:0:0:0:
32,121,22905,6,0,P|48:205|54:286,2,159.999980926514,6|2|2,0:0|3:2|3:2,0:0:0:0:
120,117,24177,1,8,0:0:0:0:
182,178,24431,2,0,P|226:172|266:171,1,79.999990463257,2|10,0:0|0:0,0:0:0:0:
349,176,24939,6,0,B|333:98|333:98|358:57,1,119.999985694885,6|2,0:0|0:0,0:0:0:0:
476,112,25702,2,0,B|497:221|497:221|467:259,1,159.999980926514,2|2,3:2|0:0,0:0:0:0:
413,329,26465,1,4,3:0:0:0:
246,384,26973,6,0,L|249:297,1,79.999990463257,6|8,0:0|0:0,0:0:0:0:
297,230,27482,2,0,P|243:255|185:244,2,119.999985694885,2|2|8,3:2|0:0|0:0,0:0:0:0:
343,154,28499,2,0,L|435:159,1,79.999990463257,2|8,3:2|0:0,0:0:0:0:
431,70,29007,6,0,L|341:65,1,79.999990463257,2|8,3:2|0:0,0:0:0:0:
272,104,29516,2,0,P|220:133|162:125,2,119.999985694885,2|2|8,3:2|0:0|0:0,0:0:0:0:
205,45,30532,2,0,P|161:35|104:53,1,79.999990463257,2|8,3:2|0:0,0:0:0:0:
72,110,31041,6,0,L|78:189,1,79.999990463257,2|8,3:2|0:0,0:0:0:0:
153,235,31549,2,0,P|184:284|178:343,2,119.999985694885,2|2|8,3:2|0:0|0:0,0:0:0:0:
222,180,32566,2,0,L|310:173,1,79.999990463257,2|8,3:2|0:0,0:0:0:0:
369,117,33075,5,2,3:2:0:0:
222,19,33583,2,0,P|158:22|111:62,2,119.999985694885,2|2|8,3:2|0:0|0:0,0:0:0:0:
308,38,34600,2,0,L|402:27,1,79.999990463257,2|8,3:2|0:0,0:0:0:0:
454,85,35109,5,6,3:2:0:0:
404,157,35363,1,8,0:0:0:0:
470,213,35617,2,0,P|496:258|489:335,2,119.999985694885,2|2|8,3:2|0:0|0:0,0:0:0:0:
404,157,36634,2,0,L|317:165,1,79.999990463257,2|8,3:2|0:0,0:0:0:0:
259,223,37143,5,2,3:2:0:0:
327,277,37397,1,8,0:0:0:0:
262,337,37651,2,0,P|211:356|140:337,2,119.999985694885,2|2|8,3:2|0:0|0:0,0:0:0:0:
327,277,38668,2,0,L|414:268,1,79.999990463257,2|8,3:2|0:0,0:0:0:0:
473,211,39177,6,0,P|505:148|481:58,1,159.999980926514,2|2,3:2|3:2,0:0:0:0:
401,90,39939,1,8,0:0:0:0:
328,39,40194,2,0,P|269:41|205:46,2,119.999985694885,2|0|8,3:2|0:0|0:0,0:0:0:0:
401,90,41210,5,6,0:0:0:0:
264,205,41719,2,0,L|256:324,2,119.999985694885,2|6|8,3:2|0:0|0:0,0:0:0:0:
177,187,42736,2,0,L|170:266,1,79.999990463257,2|2,3:2|3:2,0:0:0:0:
171,354,43244,6,0,B|257:325|245:389|344:361,1,159.999980926514,6|2,0:0|3:2,0:0:0:0:
404,324,44007,1,8,0:0:0:0:
481,283,44261,2,0,L|485:203,1,79.999990463257,2|8,0:3|0:0,0:0:0:0:
492,115,44770,6,0,P|451:163|393:178,2,119.999985694885,2|0|8,0:0|3:0|0:0,0:0:0:0:
498,26,45787,2,0,L|406:18,1,79.999990463257,2|8,3:2|0:0,0:0:0:0:
350,74,46295,2,0,L|251:66,1,79.999990463257,2|8,0:3|0:0,0:0:0:0:
187,36,46804,6,0,P|222:82|222:141,2,119.999985694885,2|0|8,3:2|0:0|0:0,0:0:0:0:
98,36,47821,2,0,L|91:136,1,79.999990463257,2|8,3:2|0:0,0:0:0:0:
144,186,48329,2,0,L|136:293,1,79.999990463257,2|8,0:3|0:0,0:0:0:0:
210,316,48838,6,0,B|127:288|128:357|35:316,2,159.999980926514,2|2|2,3:2|3:2|3:2,0:0:0:0:
283,365,50109,1,8,0:0:0:0:
362,328,50363,2,0,B|383:252|383:252|362:173,1,159.999980926514,2|2,0:3|3:2,0:0:0:0:
206,91,51380,6,0,P|230:20|305:21,1,159.999980926514,6|2,0:0|3:2,0:0:0:0:
387,52,52143,1,2,3:2:0:0:
466,90,52397,2,0,P|465:181|465:265,2,159.999980926514,2|2|2,0:3|3:2|0:3,0:0:0:0:
305,21,53922,1,2,3:2:0:0:
222,176,54431,6,0,P|182:172|130:170,1,79.999990463257,2|2,3:0|3:2,0:0:0:0:
83,104,54939,2,0,B|112:195|41:183|95:283,2,159.999980926514,2|6|2,3:2|0:0|3:2,0:0:0:0:
39,27,56210,1,0,0:0:0:0:
126,13,56465,2,0,P|180:14|220:18,1,79.999990463257,6|0,0:0|0:0,0:0:0:0:
269,77,56973,2,0,P|310:80|371:79,1,79.999990463257,2|8,3:2|0:0,0:0:0:0:
413,19,57482,5,6,0:0:0:0:
499,171,57990,1,2,0:0:0:0:
348,80,58499,1,2,0:3:0:0:
434,233,59007,2,0,P|429:280|427:321,1,79.999990463257,2|4,0:0|0:3,0:0:0:0:
347,350,59516,2,0,B|313:333|313:333|229:352,2,119.999985694885,2|2|2,0:0|0:0|0:0,0:0:0:0:
427,312,60532,1,6,0:0:0:0:
427,312,61549,6,0,L|434:222,1,79.999990463257,6|8,0:0|0:0,0:0:0:0:
386,157,62058,2,0,P|383:101|418:44,2,119.999985694885,2|2|8,0:0|0:0|0:0,0:0:0:0:
306,195,63075,2,0,L|216:188,1,79.999990463257,2|8,0:0|0:0,0:0:0:0:
154,239,63583,5,2,0:0:0:0:
25,118,64092,2,0,B|9:38|9:38|25:3,2,119.999985694885,2|2|8,3:2|0:0|0:0,0:0:0:0:
112,107,65109,2,0,L|200:95,1,79.999990463257,2|8,0:0|0:0,0:0:0:0:
246,28,65617,5,2,0:0:0:0:
314,83,65871,1,8,0:0:0:0:
258,152,66126,2,0,P|238:207|253:264,2,119.999985694885,2|2|8,0:0|0:0|0:0,0:0:0:0:
314,83,67143,2,0,L|412:69,1,79.999990463257,2|8,0:0|0:0,0:0:0:0:
451,5,67651,6,0,B|422:97|499:84|462:179,1,159.999980926514,2|2,0:0|0:0,0:0:0:0:
422,233,68414,1,8,0:0:0:0:
435,319,68668,2,0,L|337:316,1,79.999990463257,0|8,0:0|0:0,0:0:0:0:
283,368,69177,2,0,L|192:366,1,79.999990463257,2|8,3:2|0:0,0:0:0:0:
132,313,69685,6,0,P|94:243|125:154,1,159.999980926514,6|2,0:0|3:2,0:0:0:0:
160,93,70448,1,8,0:0:0:0:
246,106,70702,2,0,L|260:197,1,79.999990463257,0|8,0:0|0:0,0:0:0:0:
333,230,71210,2,0,L|347:308,1,79.999990463257,2|8,0:0|0:0,0:0:0:0:
283,368,71719,5,2,0:0:0:0:
179,226,72227,2,0,P|121:210|62:225,2,119.999985694885,2|2|8,3:2|0:0|0:0,0:0:0:0:
258,185,73244,2,0,L|245:92,1,79.999990463257,2|8,0:0|0:0,0:0:0:0:
295,31,73753,6,0,P|354:29|414:31,2,119.999985694885,2|0|8,0:0|0:0|0:0,0:0:0:0:
246,105,74770,2,0,P|187:108|127:107,2,119.999985694885,2|0|8,0:0|0:0|0:0,0:0:0:0:
305,169,75787,5,2,0:0:0:0:
250,238,76041,1,8,0:0:0:0:
310,301,76295,2,0,P|302:359|298:406,1,79.999990463257,2|8,3:2|0:0,0:0:0:0:
212,359,76804,2,0,P|161:342|83:372,2,119.999985694885,2|0|8,0:0|0:0|0:0,0:0:0:0:
299,380,77821,6,0,L|398:369,1,79.999990463257,6|8,0:0|0:0,0:0:0:0:
465,356,78329,2,0,P|494:305|486:247,2,119.999985694885,2|2|8,0:0|0:0|0:0,0:0:0:0:
409,288,79346,2,0,P|400:258|414:197,1,79.999990463257,2|8,0:0|0:0,0:0:0:0:
478,159,79855,5,2,0:0:0:0:
380,12,80363,2,0,L|252:18,2,119.999985694885,2|2|8,3:2|0:0|0:0,0:0:0:0:
391,99,81380,2,0,L|308:104,1,79.999990463257,2|8,0:0|0:0,0:0:0:0:
249,166,81888,5,2,0:0:0:0:
184,106,82143,1,8,0:0:0:0:
133,177,82397,2,0,P|108:234|131:299,2,119.999985694885,2|2|8,0:0|0:0|0:0,0:0:0:0:
184,106,83414,2,0,L|182:13,1,79.999990463257,2|8,0:0|0:0,0:0:0:0:
266,2,83922,5,2,0:0:0:0:
319,71,84177,2,0,B|403:92|402:27|486:46,1,159.999980926514,8|8,0:0|0:0,0:0:0:0:
458,130,84939,2,0,P|452:169|448:209,1,79.999990463257,0|8,0:0|0:0,0:0:0:0:
363,232,85448,2,0,P|357:271|355:311,1,79.999990463257,2|8,0:0|0:0,0:0:0:0:
433,351,85956,6,0,P|359:333|283:376,1,159.999980926514,6|2,0:0|0:0,0:0:0:0:
223,309,86719,1,8,0:0:0:0:
135,318,86973,2,0,P|130:280|125:233,1,79.999990463257,0|8,0:0|0:0,0:0:0:0:
37,232,87482,2,0,P|32:194|30:151,1,79.999990463257,2|8,0:0|0:0,0:0:0:0:
101,100,87990,5,6,0:0:0:0:
272,141,88499,1,6,0:0:0:0:
125,238,89007,1,6,0:0:0:0:
292,291,89516,2,0,P|344:284|383:280,1,79.999990463257,6|8,0:0|0:0,0:0:0:0:
434,342,90024,6,0,B|394:265|459:260|422:179,1,159.999980926514,6|2,0:0|0:0,0:0:0:0:
383,109,90787,1,8,0:0:0:0:
306,152,91041,2,0,P|266:155|226:160,1,79.999990463257,0|8,0:0|0:0,0:0:0:0:
150,117,91549,6,0,P|140:58|165:5,2,119.999985694885,2|2|6,0:0|3:2|0:0,0:0:0:0:
226,160,92566,2,0,L|237:261,1,79.999990463257,4|2,0:3|0:0,0:0:0:0:
243,327,93075,2,0,B|165:339|165:339|120:318,1,119.999985694885,6|6,0:0|0:0,0:0:0:0:
234,239,93838,1,4,3:0:0:0:
313,276,94092,6,0,L|395:264,1,79.999990463257,6|8,0:0|0:0,0:0:0:0:
471,226,94600,2,0,P|439:295|459:347,2,119.999985694885,2|2|8,3:2|0:0|0:0,0:0:0:0:
511,147,95617,2,0,L|503:55,1,79.999990463257,2|8,3:2|0:0,0:0:0:0:
431,17,96126,6,0,P|394:19|351:45,1,79.999990463257,2|8,3:2|0:0,0:0:0:0:
310,113,96634,2,0,P|254:125|191:100,2,119.999985694885,2|2|8,3:2|0:0|0:0,0:0:0:0:
368,179,97651,1,2,3:2:0:0:
283,333,98160,6,0,L|277:248,1,79.999990463257,2|8,3:2|0:0,0:0:0:0:
189,245,98668,2,0,L|199:388,2,119.999985694885,2|2|8,3:2|0:0|0:0,0:0:0:0:
141,170,99685,2,0,P|108:187|63:185,1,79.999990463257,2|8,3:2|2:0,0:0:0:0:
2,125,100194,5,2,3:2:0:0:
148,28,100702,2,0,P|208:22|268:52,2,119.999985694885,2|2|8,3:2|0:0|0:0,0:0:0:0:
131,114,101719,2,0,L|122:222,1,79.999990463257,2|8,3:2|0:0,0:0:0:0:
204,228,102227,5,6,0:0:0:0:
224,313,102482,1,8,0:0:0:0:
152,363,102736,2,0,P|100:366|33:326,2,119.999985694885,2|2|8,3:2|0:0|0:0,0:0:0:0:
224,313,103753,2,0,P|268:299|313:303,1,79.999990463257,2|8,3:2|0:0,0:0:0:0:
373,351,104261,5,2,3:2:0:0:
459,332,104516,1,8,0:0:0:0:
501,254,104770,2,0,P|525:199|507:125,2,119.999985694885,2|2|8,2:3|0:0|0:0,0:0:0:0:
459,332,105787,2,0,P|424:298|414:258,1,79.999990463257,2|8,3:2|0:0,0:0:0:0:
431,182,106295,6,0,P|374:234|281:235,1,159.999980926514,2|2,3:2|3:2,0:0:0:0:
212,207,107058,1,8,0:0:0:0:
238,123,107312,2,0,B|246:80|280:59|280:59|333:69,2,119.999985694885,2|0|8,3:2|0:0|0:0,0:0:0:0:
212,207,108329,6,0,P|224:245|223:286,1,79.999990463257,6|8,0:0|0:0,0:0:0:0:
167,352,108838,2,0,P|224:337|281:354,2,119.999985694885,0|6|0,3:2|0:0|0:0,0:0:0:0:
82,379,109855,1,2,3:2:0:0:
1,222,110363,6,0,P|81:217|136:153,1,159.999980926514,6|2,0:0|3:2,0:0:0:0:
103,78,111126,1,8,0:0:0:0:
155,7,111380,2,0,L|248:16,1,79.999990463257,2|8,3:0|0:0,0:0:0:0:
280,89,111888,2,0,L|378:99,1,79.999990463257,2|2,3:2|0:0,0:0:0:0:
422,35,112397,6,0,P|379:100|396:176,1,159.999980926514,2|2,3:2|3:2,0:0:0:0:
467,229,113160,2,0,L|461:333,1,79.999990463257,8|2,0:0|3:0,0:0:0:0:
415,383,113668,1,8,0:0:0:0:
342,332,113922,2,0,P|304:319|264:321,1,79.999990463257,2|8,3:2|0:0,0:0:0:0:
181,351,114431,6,0,P|108:365|30:305,1,159.999980926514,2|2,3:2|3:2,0:0:0:0:
83,244,115194,1,8,0:0:0:0:
16,186,115448,2,0,L|25:106,1,79.999990463257,2|8,3:0|0:0,0:0:0:0:
112,107,115956,2,0,L|122:21,1,79.999990463257,2|8,3:2|0:0,0:0:0:0:
208,39,116465,6,0,L|199:129,1,79.999990463257,2|8,3:2|0:0,0:0:0:0:
270,171,116973,2,0,P|212:167|158:196,2,119.999985694885,2|2|8,3:2|0:0|0:0,0:0:0:0:
341,222,117990,2,0,P|383:221|420:203,1,79.999990463257,2|8,3:2|0:0,0:0:0:0:
480,144,118499,6,0,B|512:85|495:31|495:31|439:12,1,159.999980926514,6|2,0:0|3:2,0:0:0:0:
378,61,119261,1,2,3:2:0:0:
299,20,119516,2,0,L|215:13,1,79.999990463257,2|2,3:0|3:2,0:0:0:0:
180,92,120024,2,0,L|77:82,1,79.999990463257,2|2,3:2|3:0,0:0:0:0:
43,151,120532,6,0,P|70:69|36:0,2,159.999980926514,2|2|2,3:0|3:2|3:0,0:0:0:0:
1,229,121804,2,0,L|5:324,1,79.999990463257,2|2,3:2|3:2,0:0:0:0:
77,358,122312,1,2,0:0:0:0:
144,301,122566,6,0,L|141:221,2,79.999990463257,6|8|2,0:0|0:0|3:2,0:0:0:0:
216,351,123329,1,8,0:0:0:0:
281,292,123583,2,0,L|279:205,2,79.999990463257,2|8|2,3:2|0:0|3:2,0:0:0:0:
350,346,124346,1,8,0:0:0:0:
416,288,124600,6,0,L|410:128,1,159.999980926514,2|2,3:2|3:2,0:0:0:0:
479,73,125363,1,8,0:0:0:0:
404,27,125617,2,0,P|372:14|314:19,1,79.999990463257,2|8,3:0|0:0,0:0:0:0:
268,80,126126,2,0,P|230:93|182:86,1,79.999990463257,2|8,3:2|0:0,0:0:0:0:
123,32,126634,6,0,P|66:29|6:67,2,119.999985694885,6|4|6,0:0|3:0|0:0,0:0:0:0:
190,89,127651,2,0,L|184:214,2,119.999985694885,4|4|4,3:0|3:0|3:0,0:0:0:0:
265,44,128668,2,0,B|341:68|341:68|400:54,2,119.999985694885,2|2|2,0:0|0:0|0:0,0:0:0:0:
190,89,129685,1,6,0:0:0:0:
190,89,130702,6,0,L|186:168,1,79.999990463257,6|8,0:0|0:0,0:0:0:0:
149,248,131210,2,0,P|98:270|18:247,2,119.999985694885,2|2|8,0:0|0:0|0:0,0:0:0:0:
218,302,132227,2,0,L|305:298,1,79.999990463257,2|8,0:0|0:0,0:0:0:0:
361,237,132736,5,2,0:0:0:0:
500,344,133244,2,0,B|494:266|494:266|515:224,2,119.999985694885,2|2|8,3:2|0:0|0:0,0:0:0:0:
416,372,134261,2,0,L|336:377,1,79.999990463257,2|8,0:0|0:0,0:0:0:0:
248,371,134770,5,2,0:0:0:0:
297,298,135024,1,8,0:0:0:0:
208,290,135278,2,0,P|149:296|102:333,2,119.999985694885,2|2|8,0:0|0:0|0:0,0:0:0:0:
297,298,136295,2,0,L|292:206,1,79.999990463257,2|8,0:0|0:0,0:0:0:0:
362,164,136804,6,0,B|278:190|283:118|189:160,1,159.999980926514,2|2,0:0|0:0,0:0:0:0:
123,179,137566,1,8,0:0:0:0:
67,247,137821,2,0,L|73:331,1,79.999990463257,0|8,0:0|0:0,0:0:0:0:
159,343,138329,2,0,L|152:253,1,79.999990463257,2|8,0:0|0:0,0:0:0:0:
123,179,138838,6,0,P|95:108|138:32,1,159.999980926514,6|2,0:0|3:2,0:0:0:0:
218,28,139600,1,8,0:0:0:0:
300,60,139855,2,0,L|395:52,1,79.999990463257,0|8,0:0|0:0,0:0:0:0:
393,140,140363,2,0,L|307:147,1,79.999990463257,2|8,0:0|0:0,0:0:0:0:
230,116,140871,5,2,0:0:0:0:
150,273,141380,2,0,P|98:271|25:324,2,119.999985694885,2|2|8,3:2|0:0|0:0,0:0:0:0:
237,284,142397,2,0,P|231:243|230:204,1,79.999990463257,2|8,0:0|0:0,0:0:0:0:
229,116,142905,6,0,P|169:121|117:89,2,119.999985694885,2|0|8,0:0|0:0|0:0,0:0:0:0:
298,60,143922,2,0,P|356:54|407:84,2,119.999985694885,0|0|8,0:0|0:0|0:0,0:0:0:0:
229,116,144939,6,0,L|238:211,1,79.999990463257,2|8,0:0|0:0,0:0:0:0:
322,217,145448,2,0,L|331:316,1,79.999990463257,2|8,3:2|0:0,0:0:0:0:
287,374,145956,2,0,P|350:347|408:356,2,119.999985694885,0|0|0,0:0|0:0|0:0,0:0:0:0:
224,311,146973,6,0,L|138:307,1,79.999990463257,6|8,0:0|0:0,0:0:0:0:
86,240,147482,2,0,P|94:298|65:349,2,119.999985694885,2|2|8,0:0|0:0|0:0,0:0:0:0:
20,180,148499,2,0,P|13:149|28:91,1,79.999990463257,2|8,0:0|0:0,0:0:0:0:
62,24,149007,5,2,0:0:0:0:
193,141,149516,2,0,L|321:135,2,119.999985694885,2|2|8,3:2|0:0|0:0,0:0:0:0:
182,54,150532,2,0,L|265:49,1,79.999990463257,2|8,0:0|0:0,0:0:0:0:
349,56,151041,5,2,0:0:0:0:
312,135,151295,1,8,0:0:0:0:
399,144,151549,2,0,P|422:191|403:265,2,119.999985694885,2|2|8,0:0|0:0|0:0,0:0:0:0:
312,135,152566,2,0,L|230:141,1,79.999990463257,2|8,0:0|0:0,0:0:0:0:
202,57,153075,5,2,0:0:0:0:
116,35,153329,2,0,B|98:116|168:111|143:188,1,159.999980926514,8|8,0:0|0:0,0:0:0:0:
58,163,154092,2,0,P|52:202|48:242,1,79.999990463257,0|8,0:0|0:0,0:0:0:0:
44,330,154600,2,0,P|92:320|126:315,1,79.999990463257,2|8,0:0|0:0,0:0:0:0:
193,367,155109,6,0,P|260:317|344:332,1,159.999980926514,6|2,0:0|0:0,0:0:0:0:
408,369,155871,1,8,0:0:0:0:
485,327,156126,2,0,P|491:286|495:239,1,79.999990463257,0|8,0:0|0:0,0:0:0:0:
411,217,156634,2,0,P|406:179|404:136,1,79.999990463257,2|8,0:0|0:0,0:0:0:0:
472,81,157143,5,6,0:0:0:0:
314,2,157651,1,6,0:0:0:0:
259,169,158160,1,6,0:0:0:0:
102,89,158668,2,0,P|85:131|70:176,1,79.999990463257,6|8,0:0|0:0,0:0:0:0:
13,228,159177,6,0,B|90:188|95:253|176:216,1,159.999980926514,6|2,0:0|0:0,0:0:0:0:
242,173,159939,1,8,0:0:0:0:
313,224,160194,2,0,P|317:264|321:304,1,79.999990463257,0|8,0:0|0:0,0:0:0:0:
391,355,160702,2,0,P|476:348|506:280,1,159.999980926514,2|2,0:0|0:0,0:0:0:0:
497,199,161465,5,8,0:0:0:0:
434,137,161719,2,0,P|442:72|453:18,2,119.999985694885,2|6|8,0:0|0:0|0:0,0:0:0:0:
367,194,162736,2,0,P|326:197|273:173,1,79.999990463257,2|8,3:2|0:0,0:0:0:0:
223,126,163244,5,6,0:0:0:0:
80,133,170363,6,0,B|53:208|53:208|68:245,1,119.999985694885,2|2,3:2|0:0,0:0:0:0:
107,324,170999,1,6,0:0:0:0:
231,280,171380,6,0,P|273:269|318:273,1,79.999990463257,6|2,0:0|0:0,0:0:0:0:
390,305,171888,2,0,L|394:350,1,39.9999952316285,8|0,0:0|0:0,0:0:0:0:
481,354,172270,2,0,L|465:210,1,119.999985694885,0|2,0:0|3:2,0:0:0:0:
502,154,172905,1,8,0:0:0:0:
455,78,173160,1,0,0:0:0:0:
369,97,173414,6,0,P|330:107|268:103,1,79.999990463257,2|0,3:2|0:0,0:0:0:0:
205,85,173922,2,0,L|209:25,1,39.9999952316285,8|0,0:0|0:0,0:0:0:0:
123,17,174304,2,0,L|112:158,1,119.999985694885,0|2,0:0|3:2,0:0:0:0:
174,200,174939,1,8,0:0:0:0:
105,256,175194,1,2,0:0:0:0:
169,315,175448,6,0,P|206:328|251:319,1,79.999990463257,6|0,0:0|0:0,0:0:0:0:
307,259,175956,2,0,L|301:207,1,39.9999952316285,8|0,0:0|0:0,0:0:0:0:
330,135,176338,2,0,P|390:108|458:127,1,119.999985694885,0|2,0:0|0:0,0:0:0:0:
495,186,176973,2,0,L|508:281,1,79.999990463257,8|4,0:0|3:0,0:0:0:0:
442,327,177482,5,6,0:0:0:0:
302,219,177990,1,6,0:0:0:0:
147,304,178499,2,0,P|140:261|121:181,1,119.999985694885,6|6,0:0|0:0,0:0:0:0:
61,123,179134,1,2,0:0:0:0:
153,28,179516,6,0,P|220:73|318:56,1,159.999980926514,6|2,0:0|0:0,0:0:0:0:
367,15,180278,1,8,0:0:0:0:
448,49,180532,2,0,L|455:139,1,79.999990463257,0|8,0:0|0:0,0:0:0:0:
378,173,181041,2,0,L|385:263,1,79.999990463257,2|10,0:0|0:0,0:0:0:0:
447,314,181549,5,2,3:2:0:0:
385,376,181804,2,0,P|346:374|311:352,1,79.999990463257,8|0,0:0|0:0,0:0:0:0:
255,285,182312,2,0,B|164:257|200:348|80:306,1,159.999980926514,8|8,0:0|0:0,0:0:0:0:
20,293,183075,2,0,P|25:261|33:193,1,79.999990463257,2|8,0:0|0:0,0:0:0:0:
2,130,183583,6,0,P|62:172|158:149,1,159.999980926514,2|2,3:2|0:0,0:0:0:0:
139,71,184346,1,8,0:0:0:0:
212,23,184600,2,0,P|252:11|305:19,1,79.999990463257,0|8,0:0|0:0,0:0:0:0:
325,94,185109,2,0,P|364:96|402:84,1,79.999990463257,2|8,0:0|0:0,0:0:0:0:
477,39,185617,6,0,B|449:112|449:112|483:164,2,119.999985694885,6|4|6,0:0|3:0|0:0,0:0:0:0:
385,189,186888,2,0,P|400:234|395:278,2,79.999990463257,2|2|4,0:0|3:2|3:0,0:0:0:0:
308,145,187651,6,0,L|225:141,1,79.999990463257,6|8,0:0|0:0,0:0:0:0:
156,89,188160,2,0,P|99:88|45:133,2,119.999985694885,2|2|8,0:0|0:0|0:0,0:0:0:0:
228,141,189177,2,0,L|224:224,1,79.999990463257,2|8,0:0|0:0,0:0:0:0:
147,263,189685,5,2,3:2:0:0:
294,359,190194,2,0,P|340:323|399:323,2,119.999985694885,2|2|8,0:0|0:0|0:0,0:0:0:0:
209,330,191210,2,0,P|175:349|135:352,1,79.999990463257,2|8,0:0|0:0,0:0:0:0:
147,263,191719,5,2,3:2:0:0:
64,231,191973,2,0,L|75:150,1,79.999990463257,8|2,0:0|0:0,0:0:0:0:
88,64,192482,1,8,0:0:0:0:
156,119,192736,1,0,0:0:0:0:
172,32,192990,2,0,L|271:41,1,79.999990463257,8|2,0:0|0:0,0:0:0:0:
333,6,193499,1,8,0:0:0:0:
404,56,193753,6,0,P|412:100|399:147,1,79.999990463257,2|8,3:2|0:0,0:0:0:0:
342,195,194261,2,0,P|400:183|455:205,2,119.999985694885,2|6|8,0:0|0:0|0:0,0:0:0:0:
281,259,195278,2,0,P|241:269|191:256,1,79.999990463257,2|4,0:0|3:0,0:0:0:0:
136,204,195787,6,0,B|150:126|150:126|129:90,2,119.999985694885,2|2|2,0:0|0:0|0:0,0:0:0:0:
203,262,196804,1,6,0:0:0:0:
27,266,197312,1,4,0:3:0:0:
175,360,197821,6,0,B|304:387|269:260|416:312,1,239.999971389771,6|0,0:0|0:0,0:0:0:0:
472,261,198838,2,0,B|441:332|441:332|459:391,2,119.999985694885,2|4|4,0:0|3:0|3:0,0:0:0:0:
508,180,199855,5,0,0:0:0:0:
438,126,200109,2,0,B|425:46|425:46|448:11|495:21,2,159.999980926514,6|6|6,0:0|0:0|0:0,0:0:0:0:
402,206,201380,2,0,P|365:215|317:203,1,79.999990463257,4|8,3:0|0:0,0:0:0:0:
259,147,201888,6,0,L|133:163,2,119.999985694885,6|0|2,0:0|0:0|3:2,0:0:0:0:
324,206,202905,2,0,P|354:284|328:362,1,159.999980926514,2|0,3:2|0:0,0:0:0:0:
253,317,203668,1,2,0:0:0:0:
182,368,203922,6,0,L|62:352,2,119.999985694885,6|2|2,0:0|3:2|3:2,0:0:0:0:
177,279,204939,2,0,L|97:269,1,79.999990463257,4|2,3:0|3:0,0:0:0:0:
25,218,205448,1,4,3:0:0:0:
38,131,205702,1,4,3:0:0:0:
120,100,205956,6,0,B|206:87|181:156|286:139,1,159.999980926514,6|2,0:0|0:3,0:0:0:0:
339,87,206719,1,2,0:0:0:0:
420,119,206973,2,0,L|426:208,1,79.999990463257,2|2,0:3|0:0,0:0:0:0:
347,239,207482,2,0,L|355:340,1,79.999990463257,2|0,0:3|0:0,0:0:0:0:
432,356,207990,6,0,P|355:339|284:373,2,159.999980926514,2|2|0,0:3|0:3|0:0,0:0:0:0:
468,276,209261,1,2,0:0:0:0:
425,198,209516,2,0,L|420:117,1,79.999990463257,2|2,0:3|0:0,0:0:0:0:
487,61,210024,6,0,P|416:94|339:78,1,159.999980926514,6|2,0:0|0:3,0:0:0:0:
264,31,210787,1,2,0:0:0:0:
199,90,211041,2,0,P|202:150|208:216,2,119.999985694885,2|0|4,0:3|0:0|0:3,0:0:0:0:
264,31,212058,5,6,0:0:0:0:
410,127,212566,1,6,0:0:0:0:
301,266,213075,2,0,B|380:255|380:255|422:291,1,119.999985694885,6|0,0:0|0:0,0:0:0:0:
469,346,213710,1,4,0:0:0:0:
339,373,214092,6,0,L|259:381,1,79.999990463257,6|8,0:0|0:0,0:0:0:0:
190,324,214600,2,0,P|131:329|84:364,2,119.999985694885,2|2|8,0:0|0:0|0:0,0:0:0:0:
259,269,215617,2,0,P|270:228|259:176,1,79.999990463257,2|8,0:0|0:0,0:0:0:0:
215,118,216126,5,2,0:0:0:0:
42,149,216634,2,0,L|50:288,2,119.999985694885,2|2|8,3:2|0:0|0:0,0:0:0:0:
36,60,217651,2,0,P|79:39|119:43,1,79.999990463257,2|8,0:0|0:0,0:0:0:0:
190,77,218160,5,2,0:0:0:0:
257,21,218414,1,8,0:0:0:0:
328,71,218668,2,0,P|390:83|457:52,2,119.999985694885,2|2|8,0:0|0:0|0:0,0:0:0:0:
262,129,219685,2,0,L|256:219,1,79.999990463257,2|8,0:0|0:0,0:0:0:0:
330,257,220194,5,2,0:0:0:0:
345,343,220448,2,0,B|274:359|275:294|192:315,1,159.999980926514,8|8,0:0|0:0,0:0:0:0:
105,327,221210,2,0,P|108:287|115:247,1,79.999990463257,0|8,0:0|0:0,0:0:0:0:
28,228,221719,2,0,P|26:188|20:148,1,79.999990463257,2|8,3:2|0:0,0:0:0:0:
3,62,222227,6,0,P|66:113|172:99,1,159.999980926514,6|2,0:0|0:0,0:0:0:0:
216,66,222990,1,8,0:0:0:0:
282,122,223244,2,0,P|321:117|361:112,1,79.999990463257,0|8,0:0|0:0,0:0:0:0:
446,90,223753,2,0,P|447:129|452:169,1,79.999990463257,2|8,0:0|0:0,0:0:0:0:
488,250,224261,5,6,0:0:0:0:
366,377,224770,1,6,0:0:0:0:
314,208,225278,1,6,0:0:0:0:
186,329,225787,2,0,P|238:322|277:318,1,79.999990463257,6|8,0:0|0:0,0:0:0:0:
345,355,226295,6,0,P|429:366|498:302,1,159.999980926514,6|2,0:0|0:0,0:0:0:0:
509,238,227058,1,8,0:0:0:0:
433,192,227312,2,0,P|429:166|423:107,1,79.999990463257,0|8,0:0|0:0,0:0:0:0:
426,24,227821,2,0,P|385:34|328:45,1,79.999990463257,2|8,0:0|0:0,0:0:0:0:
262,19,228329,5,2,0:0:0:0:
210,90,228583,1,8,0:0:0:0:
272,152,228838,2,0,P|276:179|280:210,1,39.9999952316285,2|0,0:0|0:0,0:0:0:0:
316,270,229219,2,0,P|266:240|187:251,1,119.999985694885,2|8,0:0|0:0,0:0:0:0:
127,282,229855,1,2,0:0:0:0:
47,243,230109,1,8,0:0:0:0:
43,155,230363,1,6,0:0:0:0:
54,75,231888,6,0,L|42:154,1,79.999990463257
47,243,232397,2,0,B|134:264|118:200|211:215,1,159.999980926514,4|4,0:0|0:0,0:0:0:0:
320,341,233414,2,0,B|398:357|398:357|439:345|472:284,1,159.999980926514,4|4,0:0|3:0,0:0:0:0:
480,221,234177,1,0,0:0:0:0:
452,137,234431,6,0,P|415:150|370:163,1,79.999990463257,6|8,0:0|0:0,0:0:0:0:
294,129,234939,2,0,P|302:89|309:50,1,79.999990463257,2|8,0:0|0:0,0:0:0:0:
225,20,235448,2,0,B|136:14|154:83|57:54,1,159.999980926514,0|2,0:0|0:0,0:0:0:0:
16,124,236210,1,8,0:0:0:0:
83,181,236465,6,0,P|77:225|74:278,1,79.999990463257,2|8,0:0|0:0,0:0:0:0:
47,344,236973,2,0,B|136:362|110:301|212:320,1,159.999980926514,2|0,0:0|0:0,0:0:0:0:
282,350,237736,1,8,0:0:0:0:
363,317,237990,2,0,P|366:281|370:235,1,79.999990463257,2|8,0:0|0:0,0:0:0:0:
437,180,238499,6,0,P|439:126|395:71,2,119.999985694885,6|0|0,0:0|0:0|0:0,0:0:0:0:
370,237,239516,2,0,L|231:246,2,119.999985694885,2|4|4,1:2|0:3|0:3,0:0:0:0:
358,149,240532,6,0,L|224:158,1,119.999985694885,6|0,0:0|3:2,0:0:0:0:
164,266,241295,1,6,0:0:0:0:
256,192,241422,12,0,244600,0:0:0:0:
