osu file format v14

[General]
AudioFilename: audio.mp3
AudioLeadIn: 0
PreviewTime: 130011
Countdown: 0
SampleSet: Soft
StackLeniency: 0.7
Mode: 2
LetterboxInBreaks: 0
WidescreenStoryboard: 1

[Editor]
DistanceSpacing: 1
BeatDivisor: 4
GridSize: 8
TimelineZoom: 2.799999

[Metadata]
Title:Girls' Carnival
TitleUnicode:Girls' Carnival
Artist:Yuuka
ArtistUnicode:ユウカ
Creator:Dapuluous
Version:Rain
Source:Making*Lovers
Tags:eroge visual novel opening op video game japanese making lovers making*lovers SMEE メイキング ラバーズ jpop entergram -luminate luminate -hex- hex
BeatmapID:2451402
BeatmapSetID:1147479

[Difficulty]
HPDrainRate:5
CircleSize:3.8
OverallDifficulty:8.8
ApproachRate:8.8
SliderMultiplier:1.7
SliderTickRate:2

[Events]
//Background and Video events
0,0,"ReinaXSaki.jpg",0,0
//Break Periods
//Storyboard Layer 0 (Background)
//Storyboard Layer 1 (Fail)
//Storyboard Layer 2 (Pass)
//Storyboard Layer 3 (Foreground)
//Storyboard Layer 4 (Overlay)
//Storyboard Sound Samples

[TimingPoints]
541,254.237288135593,4,2,1,30,1,0
541,-100,4,2,1,30,0,0
795,-100,4,2,1,30,0,0
4608,-100,4,2,1,45,0,0
6642,-100,4,2,2,60,0,0
8168,-100,4,2,0,15,0,0
8676,-100,4,2,2,75,0,1
8803,-100,4,2,2,75,0,0
16812,-100,4,2,2,75,0,0
24947,-100,4,2,2,75,0,0
26981,-100,4,2,2,60,0,0
42617,-100,4,3,0,45,0,0
43252,-100,4,2,2,60,0,0
50879,-100,4,3,0,45,0,0
51388,-100,4,2,2,60,0,0
59524,-100,4,2,2,60,0,0
61176,-100,4,2,2,15,0,0
61557,-100,4,2,2,80,0,1
76812,-100,4,2,2,80,0,0
77193,-100,4,2,2,65,0,0
77829,-100,4,2,2,80,0,1
92320,-100,4,2,2,85,0,1
94100,-100,4,2,2,60,0,0
110371,-100,4,2,2,60,0,0
118507,-100,4,2,2,60,0,0
122574,-100,4,2,2,60,0,0
128676,-100,4,2,2,60,0,0
129057,-100,4,2,2,60,0,0
129439,-100,4,2,2,60,0,0
130202,-100,4,2,2,15,0,0
130710,-100,4,2,2,80,0,1
145964,-100,4,2,2,80,0,0
146346,-100,4,2,2,65,0,0
146981,-100,4,2,2,80,0,1
159185,-100,4,2,2,80,0,1
163252,-100,4,2,1,30,0,0
163761,-100,4,2,1,45,0,0
170371,-100,4,2,2,60,0,0
177490,-100,4,2,2,60,0,0
179142,-100,4,2,2,15,0,0
179524,-100,4,2,2,60,0,0
187659,-100,4,2,2,60,0,0
195795,-100,4,2,2,45,0,0
197829,-83.3333333333333,4,2,2,60,0,0
198846,-100,4,2,2,60,0,0
200117,-100,4,2,2,70,0,1
200244,-100,4,2,2,70,0,0
200625,-100,4,2,2,70,0,1
200752,-100,4,2,2,70,0,0
201134,-100,4,2,2,70,0,1
201261,-100,4,2,2,70,0,0
201896,-100,4,2,2,70,0,0
205964,-100,4,2,2,70,0,0
214100,-100,4,2,2,70,0,1
222235,-100,4,2,2,70,0,1
229990,-100,4,3,0,50,0,1
230371,-100,4,2,2,80,0,0
242066,-100,4,2,0,80,0,0
242574,-100,4,2,0,70,0,0
243083,-100,4,2,0,60,0,0
243591,-100,4,2,0,50,0,0
244100,-100,4,2,0,35,0,0
244608,-100,4,2,0,15,0,0

[Colours]
Combo1 : 124,207,194
Combo2 : 246,130,152
Combo3 : 255,185,71
Combo4 : 167,144,200
Combo5 : 205,190,153

[HitObjects]
136,120,541,6,0,P|136:192|224:192,1,170,8|8,0:0|0:0,0:0:0:0:
352,72,1049,2,0,L|440:80,2,85,8|8|8,0:3|0:0|0:0,0:0:0:0:
264,64,1430,6,8,P|184:64|144:136,1,170,8|8,0:1|0:1,0:0:0:0:
232,152,1812,1,8,0:3:0:0:
307,179,1939,1,8,0:0:0:0:
308,259,2066,1,8,0:0:0:0:
233,288,2193,1,8,0:3:0:0:
144,328,2320,2,0,L|240:336,1,85,8|8,0:0|0:0,0:0:0:0:
376,40,2574,6,8,P|472:80|448:136,1,170,0|0,0:0|0:0,0:0:0:0:
200,232,3083,1,0,0:0:0:0:
112,312,3210,1,8,0:0:0:0:
200,320,3337,1,8,0:0:0:0:
288,328,3464,6,8,P|344:280|288:224,1,170.999994781494,8|8,0:1|0:1,0:0:0:0:
200,320,3846,1,8,0:3:0:0:
368,40,4100,1,8,0:0:0:0:
442,69,4227,1,8,0:3:0:0:
445,150,4354,1,8,0:0:0:0:
372,184,4481,1,8,0:0:0:0:
160,192,4608,6,0,P|104:240|160:296,1,170.999994781494,12|8,0:0|0:0,0:0:0:0:
336,312,5117,2,8,L|248:320,3,85,8|8|8|8,0:3|0:0|0:0|0:1,0:0:0:0:
16,104,5752,5,8,0:1:0:0:
96,88,5879,2,8,P|144:88|176:120,1,85,8|8,0:3|0:0,0:0:0:0:
88,96,6134,1,8,0:0:0:0:
13,123,6261,1,8,0:3:0:0:
12,203,6388,1,8,0:0:0:0:
87,232,6515,1,8,0:0:0:0:
304,192,6642,5,8,0:0:0:0:
48,192,7151,1,8,0:0:0:0:
368,256,7659,6,0,L|280:248,2,85,8|8|8,0:0|0:0|0:0,0:0:0:0:
456,264,8040,1,8,0:0:0:0:
200,48,8168,5,0,0:0:0:0:
171,46,8210,1,0,0:0:0:0:
145,56,8252,1,0,0:0:0:0:
124,75,8295,1,0,0:0:0:0:
113,101,8337,1,0,0:0:0:0:
113,129,8379,1,0,0:0:0:0:
123,155,8422,1,0,0:0:0:0:
144,174,8464,1,0,0:0:0:0:
170,185,8506,1,0,0:0:0:0:
198,184,8549,1,0,0:0:0:0:
456,192,8676,6,0,L|480:96,1,85,4|0,0:0|0:0,0:0:0:0:
392,121,8930,2,0,L|482:108,1,85,2|0,0:0|0:0,0:0:0:0:
392,121,9185,2,0,L|216:144,1,170,8|8,0:0|0:0,0:0:0:0:
440,248,9566,6,0,P|440:328|360:328,1,170,8|8,0:0|0:0,0:0:0:0:
232,280,9947,1,2,0:0:0:0:
320,264,10074,1,8,0:0:0:0:
408,248,10202,1,8,0:0:0:0:
216,48,10456,2,0,L|120:56,1,85,2|0,0:0|0:0,0:0:0:0:
344,48,10710,6,0,P|400:96|344:152,1,170.999994781494,8|2,0:0|0:0,0:0:0:0:
176,192,11218,2,0,L|88:200,2,85,8|0|2,0:0|0:0|0:0,0:0:0:0:
392,208,11600,6,0,P|448:256|392:312,1,170.999994781494,8|8,0:0|0:0,0:0:0:0:
304,280,11981,2,0,L|200:272,2,85,2|8|8,0:0|0:0|0:0,0:0:0:0:
480,128,12490,2,0,L|392:120,1,85,2|0,0:0|0:0,0:0:0:0:
192,152,12744,6,0,L|376:168,1,170,8|2,0:0|0:0,0:0:0:0:
184,192,13252,2,0,P|128:240|184:296,1,170.999994781494,8|2,0:0|0:0,0:0:0:0:
288,192,13634,6,0,P|344:240|288:296,1,170.999994781494,8|8,0:0|0:0,0:0:0:0:
184,192,14015,1,2,0:0:0:0:
376,288,14269,2,0,L|392:200,1,85,8|0,0:0|0:0,0:0:0:0:
280,200,14524,2,0,L|192:192,1,85,2|0,0:0|0:0,0:0:0:0:
408,48,14778,6,0,L|392:136,1,85,8|0,0:0|0:0,0:0:0:0:
280,120,15032,2,0,L|368:128,1,85,2|0,0:0|0:0,0:0:0:0:
280,120,15286,2,0,L|192:112,2,85,8|0|2,0:0|0:0|0:0,0:0:0:0:
72,192,15668,6,0,P|16:240|72:296,1,170.999994781494,8|8,0:0|0:0,0:0:0:0:
184,288,16049,2,0,L|0:296,1,170,2|8,0:0|0:0,0:0:0:0:
117,341,16430,2,0,L|197:277,2,85,0|8|0,0:0|0:0|0:0,0:0:0:0:
376,56,16812,6,0,L|392:144,1,85,4|0,0:0|0:0,0:0:0:0:
280,72,17066,2,0,L|184:88,1,85,2|0,0:0|0:0,0:0:0:0:
304,160,17320,2,0,P|360:208|304:264,1,170.999994781494,8|2,0:0|0:0,0:0:0:0:
96,296,17702,6,8,L|280:304,1,170,0|0,0:0|0:0,0:0:0:0:
160,240,18083,2,0,L|56:232,2,85,2|8|8,0:0|0:0|0:0,0:0:0:0:
360,32,18591,2,0,L|456:40,1,85,2|0,0:0|0:0,0:0:0:0:
232,120,18846,6,0,P|316:125|376:192,1,170,8|2,0:0|0:0,0:0:0:0:
216,272,19354,2,0,L|120:264,2,85,8|0|2,0:0|0:0|0:0,0:0:0:0:
432,192,19735,6,0,P|488:240|432:296,1,170.999994781494,8|8,0:0|0:0,0:0:0:0:
328,328,20117,2,0,L|432:336,2,85,2|8|8,0:0|0:0|0:0,0:0:0:0:
152,120,20625,2,0,L|64:112,1,85,2|0,0:0|0:0,0:0:0:0:
280,136,20879,6,0,P|336:184|280:240,1,170.999994781494,8|2,0:0|0:0,0:0:0:0:
440,192,21388,2,0,P|440:272|360:272,1,170,8|2,0:0|0:0,0:0:0:0:
120,272,21769,6,0,L|296:280,1,170,8|8,0:0|0:0,0:0:0:0:
152,192,22151,2,0,L|160:104,1,85,2|8,0:0|0:0,0:0:0:0:
296,168,22405,2,0,L|304:80,1,85,8|0,0:0|0:0,0:0:0:0:
74,104,22659,2,0,L|167:107,1,85,2|0,0:0|0:0,0:0:0:0:
408,312,22913,6,0,L|232:296,2,170,4|2|8,0:1|0:0|0:0,0:0:0:0:
232,112,23676,1,2,0:0:0:0:
336,112,23803,6,0,P|392:160|336:216,1,170.999994781494,8|8,0:0|0:0,0:0:0:0:
232,112,24185,1,2,0:0:0:0:
56,272,24439,2,0,L|152:264,3,85,8|0|8|0,0:0|0:0|0:0|0:0,0:0:0:0:
352,104,24947,6,0,L|168:112,1,170,4|0,0:0|0:0,0:0:0:0:
96,112,25329,1,8,0:0:0:0:
424,192,25710,2,0,P|424:288|288:288,1,255,4|8,0:0|0:0,0:0:0:0:
208,32,26218,1,8,0:0:0:0:
132,57,26345,1,0,0:0:0:0:
133,137,26472,1,8,0:0:0:0:
208,162,26599,1,0,0:0:0:0:
296,168,26727,2,0,L|205:162,1,85,8|0,0:0|0:0,0:0:0:0:
424,192,26981,6,0,L|440:280,1,85,4|0,0:0|0:0,0:0:0:0:
352,280,27235,2,0,L|440:272,2,85,8|0|8,0:1|0:0|0:0,0:0:0:0:
168,72,27744,1,8,0:1:0:0:
296,72,27871,6,0,P|296:152|216:152,1,170,8|8,0:0|0:0,0:0:0:0:
312,192,28252,2,0,L|408:184,1,85,8|8,0:1|0:0,0:0:0:0:
216,304,28634,2,0,L|128:312,2,85,0|8|0,0:0|0:1|0:0,0:0:0:0:
432,32,29015,6,0,L|448:136,1,85,8|0,0:0|0:0,0:0:0:0:
336,112,29269,2,0,L|240:120,2,85,8|0|8,0:1|0:0|0:0,0:0:0:0:
200,192,29778,1,8,0:1:0:0:
408,192,29905,6,0,P|464:240|408:296,1,170.999994781494,2|8,0:1|0:0,0:0:0:0:
296,104,30286,2,0,L|200:112,2,85,8|8|8,0:1|0:0|0:0,0:0:0:0:
160,192,30795,2,0,L|72:200,1,85,8|0,0:1|0:0,0:0:0:0:
288,192,31049,6,0,L|304:280,1,85,8|0,0:0|0:0,0:0:0:0:
184,192,31303,2,0,L|200:296,1,85,8|0,0:1|0:0,0:0:0:0:
80,192,31557,1,8,0:0:0:0:
256,40,31812,1,8,0:1:0:0:
152,40,31939,6,0,P|152:120|232:120,1,170,8|8,0:0|0:0,0:0:0:0:
336,120,32320,2,0,L|312:224,1,85,8|0,0:1|0:0,0:0:0:0:
208,184,32574,2,0,L|184:288,1,85,8|0,0:0|0:0,0:0:0:0:
304,256,32829,2,0,L|408:272,1,85,8|0,0:1|0:0,0:0:0:0:
176,48,33083,6,0,L|346:56,2,170,8|8|8,0:0|0:1|0:0,0:0:0:0:
345,55,33846,1,8,0:1:0:0:
128,192,33973,6,0,P|128:272|208:272,1,170,8|8,0:0|0:0,0:0:0:0:
304,192,34354,1,8,0:1:0:0:
379,219,34481,1,8,0:0:0:0:
380,299,34608,1,8,0:0:0:0:
305,328,34735,1,8,0:0:0:0:
220,321,34863,2,0,L|324:329,1,85,8|8,0:1|0:0,0:0:0:0:
96,192,35117,6,0,L|72:280,1,85,4|0,0:0|0:0,0:0:0:0:
176,200,35371,2,0,L|264:216,1,85,8|0,0:1|0:0,0:0:0:0:
152,144,35625,2,0,P|96:192|152:248,1,170.999994781494,8|8,0:0|0:1,0:0:0:0:
264,64,36007,6,0,L|440:72,1,170,8|8,0:0|0:0,0:0:0:0:
320,120,36388,1,8,0:1:0:0:
144,304,36642,2,0,L|56:296,3,85,8|0|8|8,0:0|0:0|0:1|0:0,0:0:0:0:
256,184,37151,6,0,L|280:272,1,85,8|0,0:0|0:0,0:0:0:0:
160,96,37405,2,0,L|184:184,1,85,8|0,0:1|0:0,0:0:0:0:
72,112,37659,2,0,L|96:200,1,85,8|0,0:0|0:0,0:0:0:0:
182,178,37913,1,8,0:1:0:0:
296,168,38040,6,0,P|352:216|296:272,1,170.999994781494,2|8,0:1|0:0,0:0:0:0:
192,56,38422,2,0,L|104:48,1,85,8|0,0:1|0:0,0:0:0:0:
224,128,38676,2,0,L|208:224,1,85,8|0,0:0|0:0,0:0:0:0:
16,248,38930,2,0,L|120:256,1,85,8|0,0:1|0:0,0:0:0:0:
312,72,39185,6,0,L|488:80,2,170,2|8|8,0:1|0:1|0:0,0:0:0:0:
184,176,39947,2,8,L|288:184,1,85,8|0,0:1|0:0,0:0:0:0:
152,240,40202,6,0,L|352:248,1,170,2|8,0:1|0:1,0:0:0:0:
232,240,40583,2,0,P|176:288|232:344,1,170.999994781494,8|0,0:0|0:0,0:0:0:0:
328,328,40964,2,0,L|412:321,1,85,8|0,0:1|0:0,0:0:0:0:
208,56,41218,6,0,L|32:64,1,170,4|8,0:1|0:1,0:0:0:0:
128,56,41600,1,0,0:0:0:0:
203,83,41727,1,8,0:0:0:0:
204,163,41854,1,0,0:0:0:0:
129,192,41981,1,8,0:1:0:0:
344,192,42108,6,0,P|400:240|344:296,1,170.999994781494,4|8,0:1|0:0,0:0:0:0:
240,272,42490,2,0,L|152:280,2,85,8|0|0,0:1|0:0|0:0,0:0:0:0:
344,96,42871,2,0,L|440:88,2,85,0|0|0,0:0|0:0|0:0,0:0:0:0:
136,184,43252,6,0,L|312:192,2,170,4|8|8,0:0|0:3|0:0,0:0:0:0:
312,304,44015,1,8,0:1:0:0:
224,304,44142,2,0,P|80:304|80:208,1,255,8|8,0:0|0:3,0:0:0:0:
264,48,44778,2,0,P|178:48|120:112,1,170,0|8,0:0|0:1,0:0:0:0:
224,112,45159,1,0,0:0:0:0:
328,112,45286,6,0,P|412:111|480:176,2,170,8|8|8,0:0|0:3|0:0,0:0:0:0:
184,248,46049,1,8,0:1:0:0:
272,248,46176,2,0,L|448:248,1,170,8|8,0:0|0:0,0:0:0:0:
360,248,46557,1,8,0:3:0:0:
32,264,46812,2,0,P|32:184|112:184,1,170,2|8,0:0|0:1,0:0:0:0:
192,176,47193,1,8,0:0:0:0:
280,96,47320,6,0,P|364:95|432:160,2,170,8|8|8,0:0|0:3|0:0,0:0:0:0:
112,192,48083,2,0,P|56:240|112:296,1,170.999994781494,8|8,0:1|0:0,0:0:0:0:
304,288,48591,2,0,L|392:280,1,85,8|0,0:3|0:0,0:0:0:0:
296,216,48846,2,0,L|488:200,1,170,8|8,0:0|0:1,0:0:0:0:
208,112,49354,6,0,L|184:280,1,170,8|8,0:0|0:3,0:0:0:0:
360,80,49863,1,8,0:0:0:0:
200,168,50117,2,0,L|112:176,1,85,8|0,0:0|0:0,0:0:0:0:
328,248,50371,6,0,P|416:248|472:192,1,170,8|8,0:0|0:3,0:0:0:0:
104,192,50879,1,0,0:0:0:0:
28,216,51006,1,0,0:0:0:0:
28,295,51133,1,0,0:0:0:0:
104,319,51260,1,0,0:0:0:0:
328,56,51388,6,0,P|440:152|328:256,1,340,4|8,0:0|0:1,0:0:0:0:
96,128,52151,2,0,L|272:112,1,170,8|8,0:0|0:0,0:0:0:0:
96,128,52659,2,0,L|32:288,2,170,8|8|8,0:0|0:1|0:0,0:0:0:0:
472,64,53422,6,0,P|360:160|472:264,1,340,4|8,0:0|0:1,0:0:0:0:
280,192,54185,1,8,0:0:0:0:
440,192,54439,2,0,L|464:360,1,170,8|8,0:0|0:0,0:0:0:0:
256,80,54947,1,8,0:1:0:0:
338,81,55074,1,8,0:0:0:0:
398,139,55201,1,8,0:0:0:0:
24,80,55456,6,0,P|32:224|200:224,1,340,4|8,0:0|0:1,0:0:0:0:
16,192,56218,1,8,0:0:0:0:
384,56,56473,2,0,P|304:56|248:120,2,170,4|8|8,0:1|0:0|0:0,0:0:0:0:
248,119,57235,2,0,L|336:128,1,85,8|8,0:1|0:0,0:0:0:0:
120,192,57490,6,0,P|64:240|128:288,1,170,4|8,0:1|0:1,0:0:0:0:
304,288,57998,2,0,L|488:280,1,170,8|8,0:0|0:1,0:0:0:0:
264,64,58507,2,0,L|88:72,1,170,0|8,0:0|0:1,0:0:0:0:
192,112,58888,1,8,0:0:0:0:
271,135,59015,1,8,0:0:0:0:
304,210,59142,1,0,0:0:0:0:
268,284,59269,1,8,0:0:0:0:
188,304,59396,1,0,0:0:0:0:
400,192,59524,6,0,L|456:368,1,170,8|0,0:1|0:0,0:0:0:0:
240,64,59905,2,8,L|48:72,1,170,8|0,0:1|0:0,0:0:0:0:
160,64,60286,1,8,0:1:0:0:
480,56,60540,6,0,P|480:160|352:160,1,255,4|0,0:1|0:0,0:0:0:0:
432,151,61049,1,0,0:0:0:0:
218,55,61176,1,0,0:0:0:0:
198,48,61207,1,0,0:0:0:0:
177,51,61239,1,0,0:0:0:0:
160,64,61271,1,0,0:0:0:0:
152,83,61303,1,0,0:0:0:0:
154,104,61334,1,0,0:0:0:0:
166,122,61366,1,0,0:0:0:0:
185,131,61398,1,0,0:0:0:0:
206,131,61430,1,0,0:0:0:0:
464,192,61557,6,0,P|464:272|384:272,1,170,4|8,0:1|0:3,0:0:0:0:
184,88,62066,1,8,0:0:0:0:
360,88,62320,1,8,0:3:0:0:
144,192,62447,6,0,P|88:232|152:288,1,170,8|8,0:0|0:0,0:0:0:0:
256,248,62829,2,0,L|352:240,1,85,8|8,0:3|0:0,0:0:0:0:
208,64,63083,2,0,L|224:160,1,85,8|0,0:0|0:0,0:0:0:0:
336,96,63337,2,0,L|424:88,1,85,8|0,0:3|0:0,0:0:0:0:
216,192,63591,6,0,P|132:197|72:264,2,170,8|8|8,0:0|0:3|0:0,0:0:0:0:
344,192,64354,1,8,0:3:0:0:
144,72,64481,6,0,P|160:160|232:144,1,170,8|8,0:0|0:0,0:0:0:0:
328,128,64863,1,8,0:3:0:0:
176,264,65117,2,0,L|80:272,1,85,8|0,0:0|0:0,0:0:0:0:
288,224,65371,2,0,L|376:216,1,85,8|0,0:3|0:0,0:0:0:0:
152,64,65625,6,0,P|96:112|160:160,1,170,8|8,0:0|0:3,0:0:0:0:
352,80,66134,1,8,0:0:0:0:
152,64,66388,1,8,0:3:0:0:
368,192,66515,6,0,P|424:240|360:296,1,170,8|8,0:0|0:0,0:0:0:0:
264,232,66896,2,0,L|168:240,1,85,8|8,0:3|0:0,0:0:0:0:
392,40,67151,2,0,L|408:128,1,85,8|0,0:0|0:0,0:0:0:0:
200,40,67405,2,0,L|184:128,1,85,8|0,0:3|0:0,0:0:0:0:
400,224,67659,6,0,P|320:224|264:288,2,170,8|8|8,0:0|0:3|0:0,0:0:0:0:
160,168,68422,2,0,L|72:176,1,85,8|8,0:3|0:0,0:0:0:0:
272,96,68676,6,0,L|360:88,1,85,0|8,0:0|0:0,0:0:0:0:
240,176,68930,2,0,L|256:272,1,85,8|8,0:3|0:0,0:0:0:0:
392,160,69185,2,0,L|408:256,1,85,8|0,0:0|0:0,0:0:0:0:
192,296,69439,2,0,L|104:304,1,85,8|0,0:3|0:0,0:0:0:0:
328,56,69693,6,0,P|384:104|320:152,1,170,4|8,0:1|0:3,0:0:0:0:
120,56,70202,2,0,P|64:104|128:152,1,170,8|8,0:0|0:3,0:0:0:0:
464,312,70710,6,0,L|448:224,1,85,0|8,0:0|0:0,0:0:0:0:
336,144,70964,2,0,L|232:136,1,85,8|8,0:3|0:0,0:0:0:0:
368,144,71218,2,0,L|352:248,1,85,8|0,0:0|0:0,0:0:0:0:
240,216,71473,2,0,L|144:208,1,85,8|0,0:3|0:0,0:0:0:0:
368,40,71727,6,0,P|424:64|368:128,1,170,8|8,0:0|0:3,0:0:0:0:
168,40,72235,2,0,P|112:64|168:128,1,170,8|8,0:0|0:3,0:0:0:0:
368,192,72617,6,0,L|112:208,1,255,8|8,0:0|0:3,0:0:0:0:
312,40,73252,1,8,0:0:0:0:
235,56,73379,1,0,0:0:0:0:
237,134,73506,1,8,0:3:0:0:
314,147,73633,1,0,0:0:0:0:
104,192,73761,6,0,P|48:224|112:280,1,170,8|8,0:0|0:3,0:0:0:0:
208,272,74142,2,0,L|304:264,1,85,0|8,0:0|0:0,0:0:0:0:
97,107,74524,2,0,L|104:200,1,85,8|8,0:3|0:0,0:0:0:0:
304,56,74778,6,0,P|384:56|440:120,1,170,0|8,0:0|0:3,0:0:0:0:
328,136,75159,2,0,L|232:144,1,85,8|8,0:0|0:0,0:0:0:0:
440,192,75540,2,0,L|448:296,1,85,8|0,0:3|0:0,0:0:0:0:
232,192,75795,6,0,P|176:240|240:288,1,170,8|8,0:0|0:3,0:0:0:0:
440,48,76303,2,0,P|496:96|432:144,1,170,8|8,0:0|0:0,0:0:0:0:
240,64,76812,6,0,P|152:64|128:144,1,170,2|8,0:1|0:3,0:0:0:0:
216,152,77193,1,0,0:0:0:0:
124,130,77320,1,0,0:0:0:0:
344,192,77447,2,0,P|400:248|336:296,1,170,0|0,0:0|0:0,0:0:0:0:
120,200,77829,6,0,P|56:240|128:272,1,170,4|8,0:1|0:3,0:0:0:0:
328,88,78338,1,8,0:0:0:0:
152,88,78592,1,8,0:3:0:0:
368,192,78719,6,0,P|424:232|360:288,1,170,8|8,0:0|0:0,0:0:0:0:
256,248,79101,2,0,L|160:240,1,85,8|8,0:3|0:0,0:0:0:0:
304,64,79355,2,0,L|288:160,1,85,8|0,0:0|0:0,0:0:0:0:
176,96,79609,2,0,L|88:88,1,85,8|0,0:3|0:0,0:0:0:0:
296,192,79863,6,0,P|380:197|440:264,2,170,8|8|8,0:0|0:3|0:0,0:0:0:0:
168,192,80626,1,8,0:3:0:0:
368,64,80753,6,0,P|352:152|280:144,1,170,8|8,0:0|0:0,0:0:0:0:
184,128,81135,1,8,0:3:0:0:
336,264,81389,2,0,L|432:272,1,85,8|0,0:0|0:0,0:0:0:0:
224,224,81643,2,0,L|136:216,1,85,8|0,0:3|0:0,0:0:0:0:
360,64,81897,6,0,P|416:112|352:160,1,170,8|8,0:0|0:3,0:0:0:0:
160,80,82406,1,8,0:0:0:0:
360,64,82660,1,8,0:3:0:0:
144,192,82787,6,0,P|88:240|152:296,1,170,8|8,0:0|0:0,0:0:0:0:
336,192,83168,2,0,L|240:200,1,85,8|8,0:3|0:0,0:0:0:0:
152,40,83422,1,8,0:0:0:0:
72,57,83549,1,0,0:0:0:0:
38,131,83676,1,8,0:3:0:0:
76,203,83803,1,0,0:0:0:0:
168,216,83930,5,8,0:0:0:0:
496,56,84185,2,0,P|464:136|384:136,1,170,8|8,0:3|0:0,0:0:0:0:
144,48,84693,1,8,0:3:0:0:
488,208,84947,2,0,P|400:208|336:272,3,170,8|8|8|8,0:0|0:3|0:0|0:3,0:0:0:0:
16,96,85964,6,0,P|32:176|112:176,1,170,4|8,0:1|0:3,0:0:0:0:
288,88,86473,1,8,0:0:0:0:
80,96,86727,1,8,0:3:0:0:
424,192,86981,6,0,L|440:288,1,85,0|8,0:0|0:0,0:0:0:0:
328,216,87235,2,0,L|240:232,1,85,8|8,0:3|0:0,0:0:0:0:
360,120,87490,2,0,L|456:104,2,85,8|0|8,0:0|0:0|0:3,0:0:0:0:
272,136,87871,1,8,0:0:0:0:
80,192,87998,6,0,P|24:240|88:296,1,170,4|8,0:1|0:3,0:0:0:0:
432,192,88507,6,0,P|432:272|344:272,1,170,4|8,0:1|0:3,0:0:0:0:
16,192,89015,6,0,P|88:152|168:200,1,170,4|8,0:1|0:3,0:0:0:0:
392,64,89524,5,8,0:0:0:0:
288,112,89651,1,0,0:0:0:0:
384,160,89778,2,0,L|376:248,1,85,8|8,0:1|0:0,0:0:0:0:
144,320,90032,6,0,P|64:320|64:240,1,170,4|8,0:1|0:3,0:0:0:0:
152,160,90413,1,0,0:0:0:0:
240,176,90540,1,8,0:0:0:0:
48,48,90795,2,0,L|56:152,1,85,8|8,0:3|0:0,0:0:0:0:
264,80,91049,6,0,P|352:80|400:144,2,170,0|8|8,0:0|0:3|0:0,0:0:0:0:
88,96,91812,1,8,0:3:0:0:
304,152,91939,2,0,L|400:152,1,85,8|0,0:0|0:0,0:0:0:0:
405,165,92097,1,0,0:0:0:0:
412,184,92129,1,0,0:0:0:0:
408,205,92161,1,0,0:0:0:0:
395,220,92193,1,0,0:0:0:0:
184,208,92320,6,0,L|96:216,1,85,4|0,0:1|0:0,0:0:0:0:
216,272,92574,2,0,L|232:320,2,42.5,8|8|8,0:0|0:0|0:0,0:0:0:0:
99,215,92829,1,8,0:3:0:0:
448,48,93083,6,0,P|448:128|360:128,1,170,4|8,0:1|0:1,0:0:0:0:
256,136,93464,2,0,L|440:144,1,170,4|8,0:1|0:0,0:0:0:0:
352,192,93846,1,8,0:0:0:0:
424,192,93973,1,8,0:0:0:0:
168,264,94100,6,0,P|88:264|32:192,1,170,4|8,0:0|0:1,0:0:0:0:
272,80,94608,2,0,L|96:88,1,170,8|8,0:0|0:1,0:0:0:0:
216,120,94990,6,0,P|272:168|208:216,1,170,8|8,0:0|0:0,0:0:0:0:
96,208,95371,2,0,P|40:256|104:304,1,170,8|8,0:1|0:0,0:0:0:0:
192,304,95752,1,0,0:0:0:0:
192,304,95879,1,8,0:1:0:0:
98,305,96007,1,8,0:0:0:0:
232,96,96134,6,0,P|320:96|376:152,1,170,8|8,0:0|0:1,0:0:0:0:
168,96,96642,2,0,P|80:96|24:152,1,170,8|8,0:0|0:1,0:0:0:0:
240,192,97024,6,0,P|296:240|232:288,1,170,2|8,0:1|0:0,0:0:0:0:
112,280,97405,2,0,L|288:272,2,170,10|2|8,0:1|0:1|0:1,0:0:0:0:
344,192,98168,6,0,P|424:240|392:296,1,170,2|8,0:1|0:1,0:0:0:0:
248,96,98676,2,0,P|168:96|112:160,1,170,8|8,0:0|0:1,0:0:0:0:
248,184,99057,6,0,P|288:256|232:312,1,170,8|8,0:0|0:0,0:0:0:0:
376,296,99439,2,0,L|360:208,1,85,8|0,0:1|0:0,0:0:0:0:
248,96,99693,2,0,L|144:104,1,85,8|0,0:0|0:0,0:0:0:0:
360,120,99947,2,0,L|456:112,1,85,8|0,0:1|0:0,0:0:0:0:
208,200,100202,6,0,L|32:216,2,170,8|8|8,0:0|0:1|0:0,0:0:0:0:
376,208,100964,1,8,0:1:0:0:
240,344,101091,6,0,P|184:288|248:240,1,170,8|8,0:0|0:0,0:0:0:0:
344,208,101473,2,0,L|440:200,2,85,8|8|8,0:1|0:0|0:0,0:0:0:0:
248,160,101854,1,8,0:0:0:0:
248,160,101981,1,8,0:1:0:0:
344,120,102108,1,8,0:0:0:0:
128,192,102235,6,0,P|72:240|136:288,1,170,4|8,0:0|0:1,0:0:0:0:
296,56,102744,2,0,L|480:48,1,170,8|8,0:0|0:1,0:0:0:0:
360,112,103125,6,0,L|168:120,1,170,8|8,0:0|0:0,0:0:0:0:
320,160,103507,2,0,P|376:216|312:272,1,170,8|8,0:1|0:0,0:0:0:0:
240,256,103888,1,8,0:0:0:0:
160,272,104015,1,8,0:1:0:0:
112,312,104142,1,8,0:0:0:0:
328,144,104269,6,0,L|512:136,2,170,8|8|8,0:0|0:1|0:0,0:0:0:0:
160,144,105032,1,8,0:1:0:0:
280,192,105159,6,0,P|336:240|280:296,1,170,2|8,0:1|0:0,0:0:0:0:
176,56,105540,2,0,L|160:144,1,85,8|0,0:1|0:0,0:0:0:0:
272,80,105795,2,0,L|360:88,1,85,8|0,0:0|0:0,0:0:0:0:
160,232,106049,2,0,L|64:224,1,85,8|0,0:1|0:0,0:0:0:0:
288,272,106303,6,0,L|472:264,2,170,2|8|8,0:1|0:1|0:0,0:0:0:0:
72,328,107066,2,8,L|88:240,1,85,8|0,0:1|0:0,0:0:0:0:
288,56,107320,1,2,0:1:0:0:
363,82,107447,1,0,0:0:0:0:
365,162,107574,1,8,0:1:0:0:
296,208,107702,2,0,L|196:223,2,85,8|0|0,0:0|0:0|0:0,0:0:0:0:
432,224,108083,2,0,L|456:320,1,85,8|0,0:1|0:0,0:0:0:0:
240,296,108337,6,0,L|432:304,1,170,4|8,0:1|0:1,0:0:0:0:
320,256,108718,1,0,0:0:0:0:
244,231,108845,1,8,0:0:0:0:
244,152,108972,1,0,0:0:0:0:
320,128,109099,1,8,0:1:0:0:
104,40,109227,6,0,P|48:88|112:144,1,170,4|8,0:1|0:0,0:0:0:0:
208,288,109608,1,8,0:1:0:0:
120,272,109735,1,0,0:0:0:0:
32,248,109863,1,8,0:0:0:0:
128,192,109990,1,0,0:0:0:0:
128,192,110117,1,8,0:0:0:0:
32,248,110244,1,0,0:0:0:0:
264,104,110371,6,0,L|440:96,2,170,4|8|8,0:0|0:3|0:0,0:0:0:0:
496,224,111134,2,0,L|312:232,1,170,8|0,0:1|0:0,0:0:0:0:
416,272,111515,1,0,0:0:0:0:
328,272,111642,1,8,0:3:0:0:
120,256,111896,2,0,L|136:344,1,85,0|0,0:0|0:0,0:0:0:0:
336,192,112151,1,8,0:1:0:0:
232,184,112278,1,0,0:0:0:0:
128,176,112405,6,0,P|104:120|192:96,1,170,8|8,0:0|0:3,0:0:0:0:
400,48,112913,1,8,0:0:0:0:
152,232,113168,1,8,0:1:0:0:
256,248,113295,6,0,P|312:280|248:328,1,170,8|8,0:0|0:0,0:0:0:0:
160,304,113676,1,8,0:3:0:0:
376,88,113930,2,0,P|288:88|232:152,1,170,8|8,0:0|0:1,0:0:0:0:
328,168,114312,1,0,0:0:0:0:
128,192,114439,6,0,P|64:232|128:272,1,170,8|8,0:0|0:3,0:0:0:0:
336,288,114947,1,8,0:0:0:0:
64,40,115202,2,0,L|80:128,1,85,8|8,0:1|0:0,0:0:0:0:
216,48,115456,2,0,L|232:144,1,85,0|8,0:0|0:0,0:0:0:0:
368,112,115710,1,8,0:3:0:0:
128,80,115964,2,0,P|48:80|48:160,1,170,8|8,0:0|0:1,0:0:0:0:
136,160,116346,1,0,0:0:0:0:
352,232,116473,6,0,P|424:280|384:344,1,170,8|8,0:0|0:3,0:0:0:0:
152,272,116981,1,8,0:0:0:0:
400,40,117235,1,8,0:1:0:0:
296,56,117363,1,0,0:0:0:0:
192,72,117490,5,2,0:1:0:0:
296,192,117617,2,0,P|296:264|208:264,1,170,0|0,0:0|0:0,0:0:0:0:
112,216,117998,1,8,0:0:0:0:
38,243,118125,1,0,0:0:0:0:
47,321,118252,1,8,0:0:0:0:
126,329,118379,1,0,0:0:0:0:
344,56,118507,6,0,P|456:152|336:240,1,340,4|8,0:0|0:1,0:0:0:0:
152,64,119269,2,0,L|136:160,1,85,8|0,0:0|0:0,0:0:0:0:
240,88,119524,6,0,L|344:104,1,85,8|0,0:0|0:0,0:0:0:0:
224,152,119778,2,0,P|160:192|216:240,1,170,8|8,0:0|0:1,0:0:0:0:
448,256,120286,1,8,0:0:0:0:
96,192,120540,6,0,P|40:256|104:288,1,170,4|8,0:0|0:0,0:0:0:0:
336,64,121049,2,0,P|392:112|336:168,1,170,8|8,0:1|0:0,0:0:0:0:
160,296,121557,2,0,L|352:304,1,170,8|8,0:0|0:0,0:0:0:0:
104,192,122066,2,0,P|56:232|128:280,1,170,8|8,0:1|0:0,0:0:0:0:
224,248,122447,1,0,0:0:0:0:
440,56,122574,6,0,P|440:136|360:136,1,170,4|8,0:1|0:0,0:0:0:0:
272,96,122956,1,0,0:0:0:0:
376,176,123083,2,0,P|416:248|344:288,1,170,8|8,0:0|0:1,0:0:0:0:
248,240,123464,1,8,0:0:0:0:
40,80,123591,6,0,P|32:168|104:176,1,170,0|8,0:0|0:1,0:0:0:0:
208,120,123973,1,8,0:0:0:0:
304,152,124100,2,0,P|216:152|168:216,1,170,8|8,0:0|0:1,0:0:0:0:
272,232,124481,1,0,0:0:0:0:
480,240,124608,6,0,P|464:336|392:336,1,170,8|8,0:0|0:1,0:0:0:0:
184,64,125117,1,8,0:0:0:0:
408,72,125371,1,8,0:1:0:0:
40,192,125625,6,0,L|48:288,1,85,0|8,0:0|0:0,0:0:0:0:
152,80,125879,2,0,L|40:88,2,85,8|8|8,0:1|0:0|0:0,0:0:0:0:
288,184,126261,2,0,L|304:296,1,85,0|8,0:0|0:1,0:0:0:0:
192,280,126515,1,8,0:0:0:0:
424,192,126642,6,0,P|480:248|424:296,1,170,8|8,0:1|0:1,0:0:0:0:
304,88,127024,2,8,P|224:64|152:112,1,170,4|8,0:1|0:0,0:0:0:0:
352,192,127405,6,0,P|424:160|488:216,1,170,4|8,0:1|0:0,0:0:0:0:
368,264,127786,2,0,L|384:368,1,85,8|8,0:1|0:0,0:0:0:0:
480,256,128040,1,0,0:0:0:0:
344,48,128168,2,0,L|232:64,2,85,8|0|8,0:0|0:0|0:0,0:0:0:0:
440,32,128549,1,0,0:0:0:0:
224,192,128676,6,0,P|144:192|88:256,1,170,8|0,0:1|0:0,0:0:0:0:
224,264,129057,2,0,P|312:264|360:328,1,170,8|0,0:0|0:0,0:0:0:0:
152,56,129439,2,0,L|136:144,1,85,8|0,0:1|0:0,0:0:0:0:
376,112,129693,6,0,P|448:144|408:216,1,170,4|0,0:1|0:0,0:0:0:0:
312,208,130074,1,8,0:0:0:0:
104,48,130202,1,0,0:0:0:0:
83,45,130233,1,0,0:0:0:0:
62,48,130265,1,0,0:0:0:0:
43,58,130297,1,0,0:0:0:0:
28,73,130329,1,0,0:0:0:0:
19,92,130360,1,0,0:0:0:0:
16,113,130392,1,0,0:0:0:0:
19,134,130424,1,0,0:0:0:0:
29,153,130456,1,0,0:0:0:0:
43,168,130488,1,0,0:0:0:0:
62,178,130519,1,0,0:0:0:0:
83,181,130551,1,0,0:0:0:0:
104,178,130583,1,0,0:0:0:0:
344,288,130710,6,0,L|168:296,1,170,4|8,0:1|0:3,0:0:0:0:
384,88,131219,1,8,0:0:0:0:
160,88,131473,1,8,0:3:0:0:
368,192,131600,6,0,P|424:232|360:288,1,170,8|8,0:0|0:0,0:0:0:0:
256,208,131982,2,0,L|240:296,1,85,8|8,0:3|0:0,0:0:0:0:
344,136,132236,2,0,L|256:120,1,85,8|0,0:0|0:0,0:0:0:0:
361,52,132490,2,0,L|344:144,1,85,8|0,0:3|0:0,0:0:0:0:
136,296,132744,6,0,P|48:304|24:240,2,170,8|8|8,0:0|0:3|0:0,0:0:0:0:
344,176,133507,1,8,0:3:0:0:
152,96,133634,6,0,P|176:176|256:160,1,170,8|8,0:0|0:0,0:0:0:0:
352,88,134015,1,8,0:3:0:0:
144,336,134270,2,0,L|152:248,1,85,8|0,0:0|0:0,0:0:0:0:
352,272,134524,2,0,L|440:264,1,85,8|0,0:3|0:0,0:0:0:0:
216,40,134778,2,0,L|400:40,1,170,8|8,0:0|0:3,0:0:0:0:
160,104,135287,1,8,0:0:0:0:
360,64,135541,1,8,0:3:0:0:
144,192,135668,6,0,P|88:240|152:296,1,170,8|8,0:0|0:0,0:0:0:0:
248,232,136049,2,0,L|152:224,1,85,8|8,0:3|0:0,0:0:0:0:
352,80,136304,2,0,L|360:168,1,85,8|0,0:0|0:0,0:0:0:0:
160,64,136558,2,0,L|56:72,1,85,8|0,0:3|0:0,0:0:0:0:
288,272,136812,6,0,P|368:272|424:336,2,170,8|8|8,0:0|0:3|0:0,0:0:0:0:
96,120,137575,2,0,L|80:208,1,85,8|8,0:3|0:0,0:0:0:0:
288,56,137829,6,0,L|372:63,1,85,0|8,0:0|0:0,0:0:0:0:
184,128,138083,2,0,L|168:224,1,85,8|8,0:3|0:0,0:0:0:0:
304,136,138338,2,0,L|288:224,1,85,8|0,0:0|0:0,0:0:0:0:
88,288,138592,2,0,L|176:296,1,85,8|0,0:3|0:0,0:0:0:0:
400,240,138846,6,0,P|456:288|392:336,1,170,4|8,0:1|0:3,0:0:0:0:
168,56,139354,1,8,0:0:0:0:
376,80,139608,1,8,0:3:0:0:
16,312,139863,6,0,L|24:224,1,85,0|8,0:0|0:0,0:0:0:0:
216,192,140117,2,0,L|312:184,1,85,8|8,0:3|0:0,0:0:0:0:
300,184,140371,2,0,L|215:191,1,85,8|0,0:0|0:0,0:0:0:0:
352,264,140625,2,0,L|336:176,1,85,8|0,0:3|0:0,0:0:0:0:
128,40,140880,6,0,P|64:80|128:128,1,170,8|8,0:0|0:3,0:0:0:0:
344,40,141388,2,0,P|408:80|352:128,1,170,8|8,0:0|0:3,0:0:0:0:
136,208,141770,6,0,P|256:240|200:328,1,255,8|8,0:0|0:3,0:0:0:0:
48,64,142405,2,0,L|24:168,1,85,8|0,0:0|0:0,0:0:0:0:
120,144,142659,1,8,0:3:0:0:
22,148,142786,1,0,0:0:0:0:
256,128,142914,6,0,P|312:160|248:216,1,170,8|8,0:0|0:3,0:0:0:0:
160,272,143295,2,8,L|244:279,1,85,0|0,0:0|0:0,0:0:0:0:
464,96,143677,2,0,L|457:189,1,85,8|8,0:3|0:0,0:0:0:0:
248,56,143931,6,0,P|168:56|112:120,1,170,0|8,0:0|0:3,0:0:0:0:
208,136,144312,2,0,L|304:144,1,85,8|8,0:0|0:0,0:0:0:0:
56,192,144693,2,0,L|48:296,1,85,8|0,0:3|0:0,0:0:0:0:
280,192,144948,6,0,P|336:240|272:288,1,170,2|8,0:1|0:3,0:0:0:0:
72,48,145456,2,0,P|16:96|80:144,1,170,8|8,0:0|0:3,0:0:0:0:
272,64,145965,6,0,P|360:64|384:144,1,170,2|8,0:1|0:3,0:0:0:0:
288,152,146346,1,0,0:0:0:0:
388,130,146473,5,8,0:0:0:0:
168,184,146600,2,0,P|112:240|176:288,1,170,0|0,0:0|0:0,0:0:0:0:
392,200,146981,6,0,P|456:240|384:272,1,170,4|8,0:1|0:3,0:0:0:0:
184,88,147490,1,8,0:0:0:0:
360,88,147744,1,8,0:3:0:0:
144,192,147871,6,0,P|88:232|152:288,1,170,8|8,0:0|0:0,0:0:0:0:
256,248,148253,2,0,L|352:240,1,85,8|8,0:3|0:0,0:0:0:0:
208,64,148507,2,0,L|112:72,1,85,8|0,0:0|0:0,0:0:0:0:
240,96,148761,2,0,L|328:88,1,85,8|0,0:3|0:0,0:0:0:0:
104,192,149015,6,0,P|48:240|120:272,1,170,8|8,0:0|0:3,0:0:0:0:
264,192,149524,1,0,0:0:0:0:
88,40,149778,1,8,0:3:0:0:
288,48,149905,6,0,P|248:136|184:136,1,170,8|8,0:0|0:0,0:0:0:0:
88,144,150287,1,8,0:3:0:0:
288,304,150541,2,0,L|192:312,1,85,8|0,0:0|0:0,0:0:0:0:
312,224,150795,2,0,L|400:216,1,85,8|0,0:3|0:0,0:0:0:0:
168,64,151049,6,0,P|112:112|176:160,1,170,8|8,0:0|0:3,0:0:0:0:
376,80,151558,1,8,0:0:0:0:
168,64,151812,1,8,0:3:0:0:
368,192,151939,6,0,P|424:240|360:296,1,170,8|8,0:0|0:0,0:0:0:0:
176,232,152320,2,0,L|296:224,1,85,8|8,0:3|0:0,0:0:0:0:
171,55,152574,1,8,0:0:0:0:
91,72,152701,1,0,0:0:0:0:
57,146,152828,1,8,0:3:0:0:
95,218,152955,1,0,0:0:0:0:
176,232,153082,5,8,0:0:0:0:
496,104,153337,2,0,P|448:160|352:160,2,170,8|8|8,0:3|0:0|0:3,0:0:0:0:
128,248,154099,6,0,P|216:248|280:312,2,170,8|8|8,0:0|0:3|0:0,0:0:0:0:
368,192,154863,1,8,0:3:0:0:
16,96,155116,6,0,P|32:176|112:176,1,170,4|8,0:1|0:3,0:0:0:0:
296,112,155625,1,8,0:0:0:0:
120,80,155879,1,8,0:3:0:0:
336,304,156134,6,0,P|224:304|184:256,1,170,0|8,0:0|0:3,0:0:0:0:
432,72,156642,2,0,P|480:144|440:208,1,170,8|8,0:0|0:3,0:0:0:0:
336,168,157023,1,8,0:0:0:0:
120,72,157151,6,0,P|32:104|24:176,1,170,4|8,0:1|0:3,0:0:0:0:
416,216,157659,6,0,P|456:288|392:328,1,170,4|8,0:1|0:3,0:0:0:0:
24,224,158167,6,0,P|96:184|168:232,1,170,4|8,0:1|0:3,0:0:0:0:
400,48,158676,2,0,L|484:41,3,85,8|0|8|8,0:0|0:0|0:1|0:0,0:0:0:0:
256,288,159184,6,0,P|176:288|176:208,1,170,4|8,0:1|0:3,0:0:0:0:
264,192,159565,1,0,0:0:0:0:
336,240,159692,1,8,0:0:0:0:
120,176,159947,2,0,L|112:272,1,85,8|8,0:3|0:0,0:0:0:0:
328,56,160201,6,0,P|240:56|192:120,2,170,0|8|8,0:0|0:3|0:0,0:0:0:0:
464,104,160964,5,8,0:3:0:0:
264,208,161091,2,0,L|176:224,1,85,0|8,0:0|0:0,0:0:0:0:
400,216,161473,2,0,P|464:240|416:312,1,170,8|8,0:3|0:0,0:0:0:0:
192,72,161981,1,8,0:3:0:0:
408,192,162108,6,0,P|440:264|368:296,1,170,8|8,0:0|0:0,0:0:0:0:
272,272,162490,1,8,0:3:0:0:
372,297,162617,1,8,0:0:0:0:
184,336,162744,1,8,0:1:0:0:
80,312,162871,1,0,0:0:0:0:
24,240,162998,1,8,0:0:0:0:
16,136,163125,1,0,0:0:0:0:
288,120,163252,6,0,P|360:176|312:216,1,170,8|8,0:0|0:0,0:0:0:0:
160,72,163760,2,0,L|72:80,2,85,8|8|8,0:3|0:0|0:0,0:0:0:0:
248,64,164141,6,8,P|328:64|368:136,1,170,8|8,0:1|0:1,0:0:0:0:
280,152,164523,1,8,0:3:0:0:
205,179,164650,1,8,0:0:0:0:
204,259,164777,1,8,0:0:0:0:
279,288,164904,1,8,0:3:0:0:
368,328,165031,2,0,L|272:336,1,85,8|8,0:0|0:0,0:0:0:0:
136,40,165285,6,8,P|56:88|88:136,1,170,0|0,0:0|0:0,0:0:0:0:
312,240,165795,1,0,0:0:0:0:
400,312,165921,1,8,0:0:0:0:
312,320,166048,1,8,0:0:0:0:
224,328,166175,6,8,P|168:280|224:224,1,170.999994781494,8|8,0:1|0:1,0:0:0:0:
312,320,166557,1,8,0:3:0:0:
144,40,166811,1,8,0:0:0:0:
70,69,166938,1,8,0:3:0:0:
67,150,167065,1,8,0:0:0:0:
140,184,167192,1,8,0:0:0:0:
352,192,167319,6,0,P|408:240|352:296,1,170.999994781494,12|8,0:0|0:0,0:0:0:0:
176,312,167828,2,8,L|264:320,3,85,8|8|8|8,0:3|0:0|0:0|0:1,0:0:0:0:
488,96,168464,5,8,0:1:0:0:
392,72,168591,1,8,0:3:0:0:
320,120,168718,1,8,0:0:0:0:
424,96,168845,1,8,0:0:0:0:
499,123,168972,1,8,0:3:0:0:
500,203,169099,1,8,0:0:0:0:
425,232,169226,1,8,0:0:0:0:
272,232,169353,5,8,0:0:0:0:
128,80,169608,1,8,0:0:0:0:
280,80,169735,1,8,0:1:0:0:
360,136,169862,1,8,0:0:0:0:
360,192,169989,1,0,0:0:0:0:
280,80,170116,1,8,0:0:0:0:
184,80,170243,1,0,0:0:0:0:
400,240,170371,6,0,L|216:248,1,170,2|8,0:1|0:0,0:0:0:0:
320,240,170751,1,2,0:1:0:0:
64,192,171007,2,0,P|64:272|144:272,1,170,2|8,0:1|0:0,0:0:0:0:
368,40,171388,6,0,P|432:88|400:160,1,170,4|8,0:1|0:1,0:0:0:0:
176,64,171896,2,0,P|96:64|40:136,1,170,8|8,0:0|0:0,0:0:0:0:
144,144,172278,6,0,P|232:144|280:216,1,170,8|8,0:0|0:0,0:0:0:0:
120,272,172659,2,0,P|216:272|272:328,2,170,8|8|8,0:1|0:0|0:0,0:0:0:0:
376,64,173422,6,0,P|432:112|368:152,1,170,8|8,0:0|0:0,0:0:0:0:
112,80,173930,2,0,L|296:88,1,170,8|8,0:1|0:0,0:0:0:0:
160,136,174312,6,0,P|88:160|112:240,1,170,8|8,0:0|0:0,0:0:0:0:
264,272,174693,2,0,P|168:280|120:336,2,170,8|8|8,0:1|0:0|0:0,0:0:0:0:
360,288,175329,1,0,0:0:0:0:
128,56,175456,6,0,P|144:136|224:136,1,170,4|8,0:1|0:0,0:0:0:0:
448,192,175964,2,0,P|496:256|440:312,1,170,8|8,0:1|0:0,0:0:0:0:
352,264,176346,6,0,L|176:288,1,170,8|8,0:1|0:0,0:0:0:0:
336,48,176727,2,0,L|368:144,1,85,8|8,0:1|0:0,0:0:0:0:
264,128,176981,1,8,0:0:0:0:
192,159,177108,1,0,0:0:0:0:
210,235,177235,1,8,0:0:0:0:
288,231,177362,1,0,0:0:0:0:
56,192,177490,5,8,0:1:0:0:
400,192,177998,1,8,0:1:0:0:
136,112,178507,6,0,L|104:288,1,170,8|8,0:0|0:0,0:0:0:0:
360,192,178888,1,8,0:1:0:0:
152,72,179142,1,0,0:0:0:0:
130,73,179173,1,0,0:0:0:0:
112,84,179205,1,0,0:0:0:0:
100,101,179237,1,0,0:0:0:0:
96,121,179269,1,0,0:0:0:0:
101,142,179300,1,0,0:0:0:0:
113,158,179332,1,0,0:0:0:0:
132,168,179364,1,0,0:0:0:0:
153,169,179396,1,0,0:0:0:0:
368,88,179524,6,0,P|448:96|488:176,1,170,4|8,0:0|0:3,0:0:0:0:
280,240,180032,2,0,P|192:248|136:312,1,170,8|8,0:0|0:3,0:0:0:0:
232,320,180413,1,0,0:0:0:0:
456,48,180668,5,8,0:0:0:0:
488,122,180795,1,8,0:3:0:0:
440,186,180922,1,8,0:0:0:0:
359,175,181049,1,8,0:0:0:0:
152,56,181303,2,0,L|48:64,1,85,8|0,0:3|0:0,0:0:0:0:
280,96,181557,6,0,P|336:112|280:184,1,170,8|8,0:0|0:3,0:0:0:0:
192,240,181939,2,0,P|296:272|368:248,1,170,8|8,0:0|0:0,0:0:0:0:
136,112,182320,1,8,0:3:0:0:
40,112,182447,6,0,P|32:192|112:216,1,170,8|8,0:0|0:0,0:0:0:0:
320,168,182829,2,8,L|304:72,1,85,8|8,0:3|0:0,0:0:0:0:
119,159,183083,2,0,L|135:263,1,85,8|0,0:0|0:0,0:0:0:0:
32,320,183337,2,0,L|115:305,1,85,8|0,0:3|0:0,0:0:0:0:
320,80,183591,6,0,L|489:64,2,170,8|8|8,0:0|0:3|0:0,0:0:0:0:
80,232,184354,2,0,L|96:144,1,85,8|8,0:3|0:0,0:0:0:0:
241,145,184608,6,0,P|168:110|88:158,1,170,0|8,0:0|0:3,0:0:0:0:
328,312,185117,1,8,0:0:0:0:
240,272,185244,1,0,0:0:0:0:
328,224,185371,2,0,P|373:219|400:168,1,85,8|0,0:3|0:0,0:0:0:0:
176,48,185625,6,0,P|72:64|32:136,1,170,8|8,0:0|0:3,0:0:0:0:
128,136,186007,2,0,L|216:144,2,85,0|0|0,0:3|0:3|0:3,0:0:0:0:
344,48,186388,1,4,0:1:0:0:
440,48,186515,6,0,P|488:104|416:152,1,170,0|0,0:0|0:0,0:0:0:0:
272,288,186896,2,0,L|384:280,2,85,8|0|8,0:0|0:0|0:0,0:0:0:0:
202,245,187278,1,0,0:0:0:0:
205,164,187405,1,8,0:0:0:0:
277,126,187532,1,0,0:0:0:0:
496,176,187659,6,0,L|320:160,2,170,4|8|8,0:0|0:3|0:0,0:0:0:0:
320,56,188422,1,8,0:3:0:0:
480,232,188549,6,0,P|464:320|392:312,1,170,8|8,0:0|0:0,0:0:0:0:
248,112,188930,2,0,L|160:104,1,85,8|8,0:3|0:0,0:0:0:0:
320,208,189185,2,0,L|416:216,1,85,8|0,0:0|0:0,0:0:0:0:
192,168,189439,2,0,L|176:272,1,85,8|0,0:3|0:0,0:0:0:0:
392,48,189693,6,0,P|448:96|392:152,1,170,8|8,0:0|0:3,0:0:0:0:
304,128,190074,1,0,0:0:0:0:
152,240,190202,2,0,P|272:240|328:280,1,170,8|8,0:0|0:3,0:0:0:0:
208,296,190583,6,0,P|96:296|40:344,1,170,8|8,0:0|0:0,0:0:0:0:
208,192,190964,2,0,L|192:96,1,85,8|8,0:3|0:0,0:0:0:0:
48,128,191218,2,0,L|64:216,1,85,8|0,0:0|0:0,0:0:0:0:
320,248,191473,2,0,L|296:152,1,85,8|0,0:3|0:0,0:0:0:0:
168,48,191727,6,0,L|176:136,1,85,8|0,0:0|0:0,0:0:0:0:
392,72,191981,2,0,L|304:80,1,85,8|0,0:3|0:0,0:0:0:0:
192,88,192235,2,0,L|208:176,1,85,8|0,0:0|0:0,0:0:0:0:
416,296,192490,2,0,L|376:216,1,85,8|8,0:3|0:0,0:0:0:0:
264,296,192744,6,0,L|248:200,1,85,0|8,0:0|0:0,0:0:0:0:
40,128,192998,2,0,L|128:136,1,85,8|8,0:3|0:0,0:0:0:0:
240,136,193252,2,0,L|232:224,1,85,8|0,0:0|0:0,0:0:0:0:
392,104,193507,2,0,L|384:192,1,85,8|0,0:3|0:0,0:0:0:0:
168,256,193761,6,0,P|88:288|48:224,1,170,2|8,0:1|0:3,0:0:0:0:
304,40,194269,2,0,P|392:48|448:104,1,170,8|8,0:0|0:3,0:0:0:0:
232,136,194651,5,0,0:0:0:0:
151,132,194778,1,2,0:1:0:0:
111,202,194905,1,8,0:0:0:0:
157,269,195032,1,8,0:1:0:0:
236,258,195159,1,0,0:0:0:0:
456,80,195286,1,8,0:0:0:0:
499,147,195413,1,0,0:0:0:0:
461,219,195540,1,8,0:0:0:0:
380,218,195667,1,0,0:0:0:0:
176,152,195795,6,0,P|96:152|40:216,1,170,8|0,0:1|0:0,0:0:0:0:
176,224,196176,2,8,P|264:224|312:288,1,170,0|0,0:0|0:0,0:0:0:0:
104,16,196558,2,0,L|88:104,1,85,8|0,0:1|0:0,0:0:0:0:
328,72,196812,6,0,P|400:104|360:176,1,170,4|0,0:1|0:0,0:0:0:0:
272,176,197193,1,0,0:0:0:0:
192,216,197320,1,0,0:0:0:0:
272,264,197447,2,0,P|368:256|416:312,1,170,0|0,0:0|0:0,0:0:0:0:
216,40,197829,6,0,P|216:304|224:40,1,815.999975097657,4|8,0:1|0:0,0:0:0:0:
488,128,199227,1,8,0:0:0:0:
384,128,199354,2,0,L|208:128,1,170,8|8,0:0|0:0,0:0:0:0:
464,192,200117,5,4,0:1:0:0:
48,192,200625,5,4,0:1:0:0:
416,40,201134,2,0,L|320:48,1,85,4|0,0:1|0:0,0:0:0:0:
224,64,201388,1,8,0:0:0:0:
158,106,201515,1,0,0:0:0:0:
186,180,201642,1,8,0:0:0:0:
263,168,201769,1,0,0:0:0:0:
480,192,201896,6,0,P|488:272|408:288,1,170,8|8,0:0|0:0,0:0:0:0:
208,88,202405,2,0,P|112:80|56:128,1,170,8|0,0:1|0:0,0:0:0:0:
152,160,202786,1,8,0:0:0:0:
304,160,202913,6,0,P|384:168|424:240,1,170,8|8,0:0|0:0,0:0:0:0:
240,256,203422,2,0,P|320:296|392:256,1,170,8|8,0:0|0:0,0:0:0:0:
16,80,203930,6,0,P|16:160|96:160,1,170,4|8,0:1|0:0,0:0:0:0:
248,80,204312,2,0,P|328:80|328:160,1,170,4|0,0:1|0:0,0:0:0:0:
184,96,204693,6,0,P|96:96|96:176,1,170,8|8,0:1|0:0,0:0:0:0:
184,192,205074,1,0,0:0:0:0:
256,245,205201,1,8,0:0:0:0:
231,331,205328,1,0,0:0:0:0:
142,339,205455,1,8,0:0:0:0:
232,64,205583,1,0,0:0:0:0:
144,48,205710,1,8,0:0:0:0:
80,56,205837,1,0,0:0:0:0:
296,120,205964,6,0,P|384:144|360:208,1,170,8|8,0:1|0:0,0:0:0:0:
272,232,206346,1,8,0:0:0:0:
368,256,206473,1,8,0:1:0:0:
144,344,206727,6,0,L|48:336,2,85,8|0|8,0:0|0:0|0:0,0:0:0:0:
368,32,207235,2,0,L|384:120,1,85,0|0,0:0|0:0,0:0:0:0:
240,40,207490,2,0,L|232:128,1,85,8|0,0:1|0:0,0:0:0:0:
384,200,207744,2,0,L|288:208,1,85,8|0,0:0|0:0,0:0:0:0:
88,184,207998,6,0,P|48:232|120:280,1,170,4|8,0:1|0:0,0:0:0:0:
320,56,208507,2,0,P|248:48|184:120,1,170,8|0,0:1|0:0,0:0:0:0:
288,136,208888,6,0,P|376:120|424:176,1,170,8|8,0:0|0:0,0:0:0:0:
320,224,209269,2,0,L|232:240,2,85,8|0|8,0:0|0:0|0:1,0:0:0:0:
136,56,209778,2,0,L|120:160,1,85,8|0,0:0|0:0,0:0:0:0:
336,56,210032,6,0,P|416:56|464:128,1,170,4|8,0:1|0:0,0:0:0:0:
360,136,210413,2,0,L|264:128,1,85,8|8,0:0|0:1,0:0:0:0:
104,112,210795,2,0,L|88:200,1,85,8|0,0:0|0:0,0:0:0:0:
192,240,211049,6,0,P|256:200|336:248,1,170,8|8,0:0|0:0,0:0:0:0:
240,336,211430,1,8,0:0:0:0:
144,264,211557,2,0,P|128:304|160:344,1,85,8|0,0:1|0:0,0:0:0:0:
248,184,211812,1,8,0:1:0:0:
144,168,211939,1,8,0:1:0:0:
408,24,212066,6,0,P|456:80|392:128,1,170,4|8,0:1|0:1,0:0:0:0:
192,80,212574,2,0,P|120:40|32:72,1,170,4|8,0:1|0:1,0:0:0:0:
120,128,212956,1,8,0:0:0:0:
328,152,213083,6,0,P|392:200|312:240,1,170,4|8,0:1|0:1,0:0:0:0:
248,240,213464,1,0,0:0:0:0:
176,264,213591,1,8,0:0:0:0:
392,336,213718,2,0,P|464:320|464:232,1,170,0|0,0:0|0:0,0:0:0:0:
232,184,214100,6,0,P|144:192|112:264,1,170,4|8,0:1|0:3,0:0:0:0:
328,88,214609,1,8,0:0:0:0:
152,88,214863,1,8,0:3:0:0:
368,192,214990,6,0,P|424:232|360:288,1,170,8|8,0:0|0:0,0:0:0:0:
272,256,215371,1,8,0:3:0:0:
200,272,215498,1,8,0:0:0:0:
352,48,215626,2,0,L|368:144,1,85,8|0,0:0|0:0,0:0:0:0:
152,88,215880,2,0,L|168:176,1,85,8|0,0:3|0:0,0:0:0:0:
376,192,216134,6,0,P|432:240|368:288,1,170,8|8,0:0|0:3,0:0:0:0:
184,192,216643,1,8,0:0:0:0:
392,48,216897,1,8,0:3:0:0:
192,48,217024,6,0,P|136:96|200:144,1,170,8|8,0:0|0:0,0:0:0:0:
288,144,217406,1,8,0:3:0:0:
72,256,217660,2,0,L|80:352,1,85,8|0,0:0|0:0,0:0:0:0:
288,256,217914,2,0,L|200:264,1,85,8|0,0:3|0:0,0:0:0:0:
432,64,218168,6,0,P|488:112|424:160,1,170,8|8,0:0|0:3,0:0:0:0:
184,80,218677,1,8,0:0:0:0:
368,64,218931,1,8,0:3:0:0:
144,192,219058,6,0,P|88:240|152:296,1,170,8|8,0:0|0:0,0:0:0:0:
336,232,219439,2,0,L|216:224,1,85,8|8,0:3|0:0,0:0:0:0:
341,55,219693,1,8,0:0:0:0:
421,72,219820,1,0,0:0:0:0:
455,146,219947,1,8,0:3:0:0:
417,218,220074,1,0,0:0:0:0:
336,232,220201,5,8,0:0:0:0:
16,104,220456,2,0,P|64:160|160:160,2,170,8|8|8,0:3|0:0|0:3,0:0:0:0:
400,256,221218,6,0,P|312:256|248:320,2,170,8|8|8,0:0|0:3|0:0,0:0:0:0:
144,192,221982,5,8,0:3:0:0:
496,96,222235,6,0,P|480:176|400:176,1,170,4|8,0:1|0:3,0:0:0:0:
216,112,222744,1,8,0:0:0:0:
392,80,222998,1,8,0:3:0:0:
176,304,223253,6,0,P|288:304|328:256,1,170,0|8,0:0|0:3,0:0:0:0:
80,72,223761,2,0,P|32:144|72:208,1,170,8|8,0:0|0:3,0:0:0:0:
176,168,224142,1,8,0:0:0:0:
392,72,224270,6,0,P|480:104|488:176,1,170,4|8,0:1|0:3,0:0:0:0:
96,216,224778,6,0,P|56:288|120:328,1,170,4|8,0:1|0:3,0:0:0:0:
488,224,225286,6,0,P|416:184|344:232,1,170,4|8,0:1|0:3,0:0:0:0:
112,48,225795,1,0,0:0:0:0:
184,81,225922,1,0,0:0:0:0:
180,161,226049,1,0,0:0:0:0:
104,187,226176,1,0,0:0:0:0:
320,288,226303,6,0,P|400:288|432:208,1,170,4|8,0:1|0:3,0:0:0:0:
224,192,226811,1,8,0:0:0:0:
440,64,227066,2,0,L|456:160,1,85,8|8,0:3|0:0,0:0:0:0:
248,72,227320,6,0,P|160:80|112:144,2,170,0|8|8,0:0|0:3|0:0,0:0:0:0:
64,96,228083,1,8,0:3:0:0:
264,168,228210,6,0,L|352:176,1,85,8|8,0:0|0:0,0:0:0:0:
136,216,228592,2,0,P|72:248|120:312,1,170,8|8,0:3|0:0,0:0:0:0:
320,72,229100,1,8,0:3:0:0:
200,104,229227,6,0,P|112:120|72:192,1,170,8|8,0:0|0:0,0:0:0:0:
200,208,229609,1,8,0:3:0:0:
440,232,229863,1,8,0:1:0:0:
358,247,229990,1,0,0:0:0:0:
283,209,230117,1,0,0:0:0:0:
248,134,230244,1,0,0:0:0:0:
488,56,230371,6,0,P|488:128|400:160,1,170,4|8,0:1|0:0,0:0:0:0:
264,328,230752,2,0,P|264:136|272:328,1,595,8|0,0:0|0:0,0:0:0:0:
456,80,231896,2,0,L|472:256,1,170,8|0,0:0|0:0,0:0:0:0:
96,328,232405,6,0,L|80:152,1,170,4|0,0:1|0:0,0:0:0:0:
328,288,232913,2,0,L|336:112,1,170,8|0,0:0|0:0,0:0:0:0:
88,80,233422,5,4,0:1:0:0:
312,272,233803,2,0,L|208:264,1,85,0|8,0:0|0:0,0:0:0:0:
432,280,234185,1,0,0:0:0:0:
48,88,234439,6,0,P|130:90|200:144,2,170,4|8|8,0:0|0:3|0:0,0:0:0:0:
280,176,235202,1,8,0:3:0:0:
176,192,235329,2,0,P|112:240|176:280,1,170,8|8,0:0|0:0,0:0:0:0:
272,280,235710,2,0,L|384:296,1,85,8|8,0:3|0:0,0:0:0:0:
424,256,235964,1,8,0:0:0:0:
193,58,236218,2,0,L|96:64,1,85,8|0,0:3|0:0,0:0:0:0:
320,64,236473,6,0,P|424:64|496:128,2,170,2|8|8,0:1|0:3|0:0,0:0:0:0:
128,144,237235,1,8,0:3:0:0:
264,176,237362,6,0,P|288:248|208:280,1,170,8|8,0:0|0:0,0:0:0:0:
80,64,237744,2,0,P|24:112|88:160,1,170,8|8,0:3|0:0,0:0:0:0:
304,80,238252,2,0,L|392:56,1,85,8|8,0:3|0:0,0:0:0:0:
176,152,238507,2,0,P|80:168|32:304,2,255,4|8|8,0:1|0:0|0:0,0:0:0:0:
80,88,239396,1,0,0:0:0:0:
296,48,239524,5,8,0:1:0:0:
378,57,239651,1,0,0:0:0:0:
436,117,239778,1,8,0:0:0:0:
442,200,239905,1,0,0:0:0:0:
296,192,240032,1,8,0:0:0:0:
218,162,240159,1,0,0:0:0:0:
142,195,240286,1,8,0:0:0:0:
110,272,240413,1,0,0:0:0:0:
320,312,240540,6,0,P|400:328|488:280,1,170,4|0,0:1|0:0,0:0:0:0:
272,72,240922,2,0,P|184:64|128:128,1,170,8|0,0:0|0:0,0:0:0:0:
392,160,241303,1,4,0:1:0:0:
256,192,241557,12,0,244608,0:0:0:0:
