osu file format v14

[General]
AudioFilename: audio.mp3
AudioLeadIn: 0
PreviewTime: 130011
Countdown: 0
SampleSet: Soft
StackLeniency: 0.7
Mode: 2
LetterboxInBreaks: 0
WidescreenStoryboard: 1

[Editor]
Bookmarks: 8668,26973,43244,61549,94092,110363,130702,163244,179516,197821,214092,222227,230363
DistanceSpacing: 1
BeatDivisor: 4
GridSize: 8
TimelineZoom: 2.799999

[Metadata]
Title:Girls' Carnival
TitleUnicode:Girls' Carnival
Artist:Yuuka
ArtistUnicode:ユウカ
Creator:Dapuluous
Version:Hex's Platter
Source:Making*Lovers
Tags:eroge visual novel opening op video game japanese making lovers making*lovers SMEE メイキング ラバーズ jpop entergram -luminate luminate -hex- hex
BeatmapID:2528752
BeatmapSetID:1147479

[Difficulty]
HPDrainRate:4
CircleSize:3.4
OverallDifficulty:8
ApproachRate:8
SliderMultiplier:1.3
SliderTickRate:1

[Events]
//Background and Video events
0,0,"MashiroXAko.jpg",0,0
//Break Periods
//Storyboard Layer 0 (Background)
//Storyboard Layer 1 (Fail)
//Storyboard Layer 2 (Pass)
//Storyboard Layer 3 (Foreground)
//Storyboard Layer 4 (Overlay)
//Storyboard Sound Samples

[TimingPoints]
541,254.237288135593,4,2,1,30,1,0
541,-100,4,2,1,30,0,0
795,-100,4,2,1,30,0,0
4608,-100,4,2,1,45,0,0
6642,-100,4,2,2,60,0,0
8168,-100,4,2,0,15,0,0
8676,-100,4,2,2,75,0,1
8803,-100,4,2,2,75,0,0
16812,-100,4,2,2,75,0,0
24947,-100,4,2,2,75,0,0
26981,-100,4,2,2,60,0,0
42617,-100,4,3,0,45,0,0
43252,-100,4,2,2,60,0,0
50879,-100,4,3,0,45,0,0
51388,-100,4,2,2,60,0,0
59015,-100,4,2,2,60,0,0
59524,-100,4,2,2,60,0,0
61557,-90.9090909090909,4,2,2,80,0,1
76812,-90.9090909090909,4,2,2,80,0,0
77193,-90.9090909090909,4,2,2,65,0,0
77829,-90.9090909090909,4,2,2,80,0,1
89524,-90.9090909090909,4,2,2,80,0,1
90032,-90.9090909090909,4,2,2,80,0,1
92320,-90.9090909090909,4,2,2,85,0,1
93718,-90.9090909090909,4,2,2,85,0,1
94100,-100,4,2,2,60,0,0
109735,-100,4,2,2,60,0,0
110371,-100,4,2,2,60,0,0
117998,-100,4,2,2,60,0,0
118507,-100,4,2,2,60,0,0
122574,-100,4,2,2,60,0,0
127913,-100,4,2,2,60,0,0
128676,-100,4,2,2,60,0,0
129057,-100,4,2,2,60,0,0
129439,-100,4,2,2,60,0,0
130710,-90.9090909090909,4,2,2,80,0,1
145964,-100,4,2,2,80,0,0
146346,-100,4,2,2,65,0,0
146981,-90.9090909090909,4,2,2,80,0,1
158676,-100,4,2,2,80,0,1
159185,-100,4,2,2,80,0,1
162871,-100,4,2,2,80,0,1
163252,-100,4,2,1,30,0,0
163761,-100,4,2,1,45,0,0
169608,-100,4,2,1,45,0,0
169863,-100,4,2,1,45,0,0
170371,-100,4,2,2,60,0,0
176854,-100,4,2,2,60,0,0
177490,-100,4,2,2,60,0,0
179524,-100,4,2,2,60,0,0
186769,-100,4,2,2,60,0,0
187659,-100,4,2,2,60,0,0
195413,-100,4,2,2,60,0,0
195795,-100,4,2,2,45,0,0
197829,-100,4,2,2,60,0,0
200117,-100,4,2,2,70,0,1
200244,-100,4,2,2,70,0,0
200625,-100,4,2,2,70,0,1
200752,-100,4,2,2,70,0,0
201134,-100,4,2,2,70,0,1
201261,-100,4,2,2,70,0,0
201896,-100,4,2,2,70,0,0
205074,-100,4,2,2,70,0,0
205964,-100,4,2,2,70,0,0
213464,-100,4,2,2,70,0,0
214100,-90.9090909090908,4,2,2,70,0,1
222235,-90.9090909090909,4,2,2,70,0,1
229990,-100,4,3,0,50,0,1
230371,-100,4,2,2,80,0,0
242066,-100,4,2,0,80,0,0
242574,-100,4,2,0,70,0,0
243083,-100,4,2,0,60,0,0
243591,-100,4,2,0,50,0,0
244100,-100,4,2,0,35,0,0
244608,-100,4,2,0,15,0,0

[Colours]
Combo1 : 124,207,194
Combo2 : 246,130,152
Combo3 : 255,185,71
Combo4 : 167,144,200
Combo5 : 205,190,153

[HitObjects]
210,247,541,6,0,L|94:172,2,130,8|8|8,0:0|0:0|0:3,0:0:0:0:
279,251,1176,1,8,0:0:0:0:
403,167,1430,2,8,P|442:138|440:57,1,130,8|8,0:1|0:1,0:0:0:0:
377,44,1812,2,8,P|339:89|357:160,1,130,8|8,0:3|0:0,0:0:0:0:
418,162,2193,2,0,L|492:178,1,65,8|8,0:3|0:0,0:0:0:0:
247,284,2574,6,8,L|105:275,1,130,0|0,0:0|0:0,0:0:0:0:
248,190,3083,2,0,L|255:121,1,65,0|8,0:0|0:0,0:0:0:0:
125,21,3464,2,8,L|279:30,1,130,8|8,0:1|0:1,0:0:0:0:
320,88,3846,2,8,L|173:95,1,130,8|8,0:3|0:0,0:0:0:0:
125,99,4227,2,8,L|44:90,1,65,8|8,0:3|0:0,0:0:0:0:
386,258,4608,6,0,L|506:206,2,130,12|8|8,0:0|0:0|0:3,0:0:0:0:
320,267,5244,1,8,0:0:0:0:
452,155,5498,2,8,P|495:120|459:62,1,130,8|8,0:1|0:1,0:0:0:0:
395,62,5879,2,8,L|236:59,1,130,8|8,0:3|0:0,0:0:0:0:
332,141,6261,2,0,L|406:140,1,65,8|8,0:3|0:0,0:0:0:0:
163,148,6642,6,0,P|128:186|168:257,1,130,8|0,0:0|0:0,0:0:0:0:
285,322,7151,2,0,L|139:325,1,130,8|0,0:0|0:0,0:0:0:0:
189,255,7532,1,0,0:0:0:0:
403,254,7659,5,8,0:0:0:0:
466,221,7786,1,8,0:0:0:0:
462,159,7913,1,8,0:0:0:0:
397,132,8040,1,8,0:0:0:0:
248,184,8168,5,0,0:0:0:0:
228,192,8210,1,0,0:0:0:0:
213,208,8252,1,0,0:0:0:0:
207,228,8295,1,0,0:0:0:0:
210,249,8337,1,0,0:0:0:0:
223,267,8379,1,0,0:0:0:0:
241,278,8422,1,0,0:0:0:0:
327,25,8549,1,0,0:0:0:0:
132,266,8676,6,0,L|0:229,2,130,4|2|8,0:0|0:0|0:0,0:0:0:0:
366,317,9439,1,8,0:0:0:0:
432,288,9566,2,0,P|465:249|445:173,1,130,8|8,0:0|0:0,0:0:0:0:
382,173,9947,2,0,L|247:161,1,130,2|8,0:0|0:0,0:0:0:0:
376,42,10456,1,2,0:0:0:0:
155,242,10710,6,0,L|305:247,1,130,8|2,0:0|0:0,0:0:0:0:
408,264,11218,2,0,P|450:217|408:174,1,130,8|2,0:0|0:0,0:0:0:0:
269,176,11600,2,0,L|114:174,1,130,8|8,0:0|0:0,0:0:0:0:
207,107,11981,1,2,0:0:0:0:
83,226,12235,1,8,0:0:0:0:
79,290,12362,1,0,0:0:0:0:
75,355,12489,1,2,0:0:0:0:
310,350,12744,6,0,P|347:308|300:247,1,130,8|2,0:0|0:0,0:0:0:0:
198,150,13252,2,0,L|344:152,1,130,8|2,0:0|0:0,0:0:0:0:
479,60,13634,2,0,L|480:206,1,130,8|8,0:0|0:0,0:0:0:0:
414,189,14015,1,2,0:0:0:0:
290,321,14269,1,8,0:0:0:0:
361,320,14396,1,0,0:0:0:0:
432,319,14523,1,2,0:0:0:0:
217,220,14778,6,0,L|77:204,2,130,8|2|8,0:0|0:0|0:0,0:0:0:0:
276,223,15413,1,0,0:0:0:0:
51,328,15668,2,0,L|47:184,1,130,8|8,0:0|0:0,0:0:0:0:
111,164,16049,1,2,0:0:0:0:
238,66,16303,1,8,0:0:0:0:
173,64,16430,1,0,0:0:0:0:
108,63,16557,1,8,0:0:0:0:
173,136,16685,1,0,0:0:0:0:
381,296,16812,6,0,P|424:288|487:209,2,130,4|2|8,0:0|0:0|0:0,0:0:0:0:
147,151,17574,1,2,0:0:0:0:
80,78,17702,2,8,L|215:79,1,130,0|0,0:0|0:0,0:0:0:0:
276,82,18083,1,2,0:0:0:0:
146,259,18337,2,0,P|110:241|58:165,1,130,8|2,0:0|0:0,0:0:0:0:
288,122,18846,6,0,L|434:119,2,130,8|2|8,0:0|0:0|0:0,0:0:0:0:
223,128,19481,1,0,0:0:0:0:
446,339,19735,2,0,P|481:290|452:221,1,130,8|8,0:0|0:0,0:0:0:0:
393,226,20117,1,2,0:0:0:0:
263,235,20371,1,8,0:0:0:0:
189,232,20498,1,0,0:0:0:0:
118,226,20625,1,2,0:0:0:0:
338,46,20879,6,0,L|480:45,1,130,8|2,0:0|0:0,0:0:0:0:
338,140,21388,2,0,P|297:173|356:220,1,130,8|2,0:0|0:0,0:0:0:0:
485,330,21769,2,0,L|327:323,1,130,8|8,0:0|0:0,0:0:0:0:
421,262,22151,1,2,0:0:0:0:
297,154,22405,1,8,0:0:0:0:
428,43,22659,1,2,0:0:0:0:
92,214,22913,6,0,L|7:108,2,130,4|2|8,0:1|0:0|0:0,0:0:0:0:
221,285,23676,2,0,L|310:290,1,65,2|8,0:0|0:0,0:0:0:0:
142,200,23930,2,0,P|98:162|150:120,1,130,0|2,0:0|0:0,0:0:0:0:
269,89,24439,1,8,0:0:0:0:
340,89,24566,1,0,0:0:0:0:
412,90,24693,1,8,0:0:0:0:
87,286,24947,6,0,P|47:252|82:185,1,130,4|0,0:0|0:0,0:0:0:0:
138,176,25329,2,0,L|282:180,1,130,8|0,0:0|0:0,0:0:0:0:
118,47,25710,2,0,P|56:70|128:143,1,195,4|8,0:0|0:0,0:0:0:0:
171,173,26218,1,8,0:0:0:0:
198,230,26345,1,0,0:0:0:0:
180,291,26472,1,8,0:0:0:0:
126,324,26600,2,0,L|41:300,2,65,0|8|0,0:0|0:0|0:0,0:0:0:0:
347,311,26981,6,0,L|496:333,2,130,4|8|8,0:0|0:1|0:0,0:0:0:0:
113,115,27744,1,8,0:1:0:0:
54,49,27871,2,0,P|22:68|40:152,1,130,8|8,0:0|0:0,0:0:0:0:
99,223,28252,2,0,P|137:214|210:161,1,130,8|8,0:1|0:0,0:0:0:0:
77,42,28761,2,0,L|160:42,1,65,8|0,0:1|0:0,0:0:0:0:
295,136,29015,6,0,L|430:177,2,130,8|8|8,0:0|0:1|0:0,0:0:0:0:
70,212,29778,1,8,0:1:0:0:
133,308,29905,2,0,L|-8:301,1,130,2|8,0:1|0:0,0:0:0:0:
69,218,30286,2,0,L|212:212,1,130,8|8,0:1|0:0,0:0:0:0:
317,106,30795,1,8,0:1:0:0:
83,297,31049,6,0,L|219:296,2,130,8|8|8,0:0|0:1|0:0,0:0:0:0:
316,209,31812,1,8,0:1:0:0:
385,206,31939,2,0,P|419:174|425:95,1,130,8|8,0:0|0:0,0:0:0:0:
358,81,32320,2,0,L|211:58,2,130,8|8|8,0:1|0:0|0:1,0:0:0:0:
124,274,33083,6,0,L|8:216,2,130,8|8|8,0:0|0:1|0:0,0:0:0:0:
358,200,33846,1,8,0:1:0:0:
284,125,33973,2,0,L|442:129,1,130,8|8,0:0|0:0,0:0:0:0:
478,128,34354,1,8,0:1:0:0:
413,45,34481,2,0,P|384:69|415:157,1,130,8|8,0:0|0:0,0:0:0:0:
470,220,34863,2,0,L|380:220,1,65,8|8,0:1|0:0,0:0:0:0:
192,282,35117,6,0,L|36:270,2,130,4|8|8,0:0|0:1|0:0,0:0:0:0:
425,220,35879,1,8,0:1:0:0:
490,131,36007,2,0,L|344:129,1,130,8|8,0:0|0:0,0:0:0:0:
295,65,36388,2,0,L|435:64,1,130,8|8,0:1|0:0,0:0:0:0:
308,215,36896,2,0,L|392:215,1,65,8|8,0:1|0:0,0:0:0:0:
222,338,37151,6,0,L|83:324,2,130,8|8|8,0:0|0:1|0:0,0:0:0:0:
38,218,37913,1,8,0:1:0:0:
105,219,38040,2,0,P|136:194|108:121,1,130,2|8,0:1|0:0,0:0:0:0:
39,106,38422,2,0,L|196:106,1,130,8|8,0:1|0:0,0:0:0:0:
52,30,38930,1,8,0:1:0:0:
287,247,39185,6,0,L|134:239,2,130,2|8|8,0:1|0:1|0:0,0:0:0:0:
407,153,39947,2,8,L|326:151,1,65,8|0,0:1|0:0,0:0:0:0:
189,164,40202,2,0,P|154:142|200:87,1,130,2|8,0:1|0:1,0:0:0:0:
267,39,40583,2,0,L|129:39,1,130,8|0,0:0|0:0,0:0:0:0:
69,44,40964,1,8,0:1:0:0:
391,118,41218,6,0,P|430:165|384:225,1,130,4|8,0:1|0:1,0:0:0:0:
166,327,41727,2,0,P|145:288|166:205,1,130,8|8,0:0|0:1,0:0:0:0:
373,205,42108,6,0,P|426:172|428:89,1,130,4|8,0:1|0:0,0:0:0:0:
368,105,42490,2,0,L|290:104,2,65,8|0|0,0:1|0:0|0:0,0:0:0:0:
442,104,42871,2,0,L|446:190,1,65,0|0,0:0|0:0,0:0:0:0:
377,210,43125,1,0,0:0:0:0:
167,340,43252,6,0,L|6:332,2,130,4|8|8,0:0|0:3|0:0,0:0:0:0:
399,305,44015,1,8,0:1:0:0:
468,294,44142,2,0,P|469:230|429:175,1,130,8|0,0:0|0:0,0:0:0:0:
367,183,44524,1,8,0:3:0:0:
243,70,44778,2,0,L|384:69,1,130,0|8,0:0|0:1,0:0:0:0:
308,140,45159,1,0,0:0:0:0:
158,205,45286,6,0,L|21:193,2,130,8|8|8,0:0|0:3|0:0,0:0:0:0:
368,329,46049,1,8,0:1:0:0:
433,243,46176,2,0,L|284:232,1,130,8|0,0:0|0:0,0:0:0:0:
362,156,46557,1,8,0:3:0:0:
142,182,46812,2,0,L|-3:174,1,130,2|8,0:0|0:1,0:0:0:0:
78,105,47193,1,8,0:0:0:0:
225,330,47320,6,0,L|359:321,2,130,8|8|8,0:0|0:3|0:0,0:0:0:0:
348,233,48083,2,0,L|266:232,1,65,8|0,0:1|0:0,0:0:0:0:
133,234,48337,2,0,P|119:193|119:105,1,130,8|8,0:0|0:3,0:0:0:0:
246,62,48846,2,0,L|101:61,1,130,8|8,0:0|0:1,0:0:0:0:
352,76,49354,6,0,L|493:77,1,130,8|8,0:0|0:3,0:0:0:0:
354,216,49863,2,0,L|204:216,1,130,8|8,0:0|0:0,0:0:0:0:
288,146,50244,1,0,0:0:0:0:
436,37,50371,2,0,P|450:69|430:162,1,130,8|8,0:0|0:3,0:0:0:0:
368,162,50752,1,0,0:0:0:0:
209,172,50879,1,0,0:0:0:0:
143,175,51006,1,0,0:0:0:0:
76,176,51133,1,0,0:0:0:0:
438,351,51388,6,0,P|458:291|426:213,1,130,4|8,0:0|0:0,0:0:0:0:
373,222,51769,1,0,0:0:0:0:
308,226,51896,1,8,0:1:0:0:
438,155,52151,2,0,L|282:158,1,130,8|8,0:0|0:0,0:0:0:0:
221,333,52659,2,0,L|378:333,1,130,8|8,0:0|0:1,0:0:0:0:
415,337,53040,2,0,L|488:335,2,65,8|8|0,0:0|0:0|0:0,0:0:0:0:
263,247,53422,6,0,P|230:210|233:123,1,130,4|8,0:0|0:0,0:0:0:0:
475,77,53930,2,0,L|480:208,1,130,8|8,0:1|0:0,0:0:0:0:
414,223,54312,1,0,0:0:0:0:
266,307,54439,6,0,L|109:299,2,130,8|8|8,0:0|0:0|0:1,0:0:0:0:
331,312,55074,2,0,L|336:239,1,65,8|8,0:0|0:0,0:0:0:0:
267,221,55329,1,0,0:0:0:0:
51,226,55456,6,0,P|40:173|114:134,1,130,4|0,0:0|0:0,0:0:0:0:
161,135,55837,1,8,0:0:0:0:
229,140,55964,2,0,L|233:70,1,65,8|0,0:1|0:0,0:0:0:0:
168,43,56218,1,8,0:0:0:0:
491,133,56473,6,0,L|480:283,1,130,4|8,0:1|0:0,0:0:0:0:
344,344,56981,2,0,L|493:353,1,130,8|8,0:0|0:1,0:0:0:0:
408,269,57363,1,8,0:0:0:0:
213,273,57490,6,0,L|65:273,1,130,4|8,0:1|0:1,0:0:0:0:
212,196,57998,2,0,P|233:147|219:72,1,130,8|8,0:0|0:1,0:0:0:0:
157,73,58379,1,8,0:0:0:0:
7,276,58507,2,0,L|166:275,1,130,0|8,0:0|0:1,0:0:0:0:
198,257,58888,1,8,0:0:0:0:
235,206,59015,1,8,0:0:0:0:
232,142,59142,1,0,0:0:0:0:
189,94,59269,1,8,0:0:0:0:
127,83,59396,1,0,0:0:0:0:
352,348,59524,6,8,L|183:227,2,195,8|8|8,0:1|0:1|0:1,0:0:0:0:
23,48,60540,1,4,0:1:0:0:
129,163,60922,2,0,L|80:240,1,65,0|0,0:0|0:0,0:0:0:0:
29,232,61176,1,0,0:0:0:0:
480,347,61557,6,0,L|374:241,2,143.000004364014,4|8|8,0:1|0:3|0:0,0:0:0:0:
243,215,62320,1,8,0:3:0:0:
175,143,62447,2,0,L|324:142,1,143.000004364014,8|8,0:0|0:0,0:0:0:0:
385,142,62829,1,8,0:3:0:0:
162,278,63083,2,0,P|90:236|91:153,1,143.000004364014,8|8,0:0|0:3,0:0:0:0:
409,226,63591,6,0,L|499:342,2,143.000004364014,8|8|8,0:0|0:3|0:0,0:0:0:0:
173,338,64354,1,8,0:3:0:0:
241,293,64481,2,0,P|271:270|237:178,1,143.000004364014,8|8,0:0|0:0,0:0:0:0:
178,180,64863,1,8,0:3:0:0:
421,201,65117,2,0,P|448:129|436:43,1,143.000004364014,8|8,0:0|0:3,0:0:0:0:
78,224,65625,6,0,L|191:326,2,143.000004364014,8|8|8,0:0|0:3|0:0,0:0:0:0:
315,154,66388,1,8,0:3:0:0:
382,84,66515,2,0,L|216:76,1,143.000004364014,8|8,0:0|0:0,0:0:0:0:
172,78,66896,1,8,0:3:0:0:
423,283,67151,2,0,P|454:262|462:162,1,143.000004364014,8|8,0:0|0:3,0:0:0:0:
122,327,67659,6,0,P|59:322|10:231,2,143.000004364014,8|8|8,0:0|0:3|0:0,0:0:0:0:
250,330,68422,2,0,L|332:326,1,71.5000021820069,8|8,0:3|0:0,0:0:0:0:
178,255,68676,2,0,L|87:240,2,71.5000021820069,0|8|8,0:0|0:0|0:3,0:0:0:0:
308,250,69185,2,0,L|460:245,1,143.000004364014,8|8,0:0|0:3,0:0:0:0:
108,120,69693,6,0,L|208:234,2,143.000004364014,4|8|8,0:1|0:3|0:0,0:0:0:0:
237,349,70456,2,0,L|321:348,1,71.5000021820069,8|8,0:3|0:0,0:0:0:0:
464,352,70710,2,0,L|503:274,2,71.5000021820069,0|8|8,0:0|0:0|0:3,0:0:0:0:
317,184,71218,2,0,L|477:180,1,143.000004364014,8|8,0:0|0:3,0:0:0:0:
224,315,71727,6,0,L|74:298,2,143.000004364014,8|8|8,0:0|0:3|0:0,0:0:0:0:
461,171,72490,1,8,0:3:0:0:
389,179,72617,2,0,P|356:206|400:283,1,143.000004364014,8|8,0:0|0:0,0:0:0:0:
464,337,72998,1,8,0:3:0:0:
235,331,73252,1,8,0:0:0:0:
381,155,73507,2,0,L|481:154,1,71.5000021820069,8|0,0:3|0:0,0:0:0:0:
250,114,73761,6,0,L|77:101,1,143.000004364014,8|8,0:0|0:3,0:0:0:0:
177,190,74142,2,0,L|329:197,1,143.000004364014,0|0,0:0|0:0,0:0:0:0:
392,201,74524,2,0,L|389:280,1,71.5000021820069,8|8,0:3|0:0,0:0:0:0:
239,331,74778,6,0,L|137:316,2,71.5000021820069,0|8|8,0:0|0:0|0:3,0:0:0:0:
308,336,75159,2,0,P|350:312|307:237,1,143.000004364014,8|0,0:0|0:0,0:0:0:0:
164,234,75540,2,0,L|154:149,1,71.5000021820069,8|0,0:3|0:0,0:0:0:0:
366,27,75795,6,0,P|424:51|458:144,1,143.000004364014,8|8,0:0|0:3,0:0:0:0:
316,244,76303,2,0,L|460:250,1,143.000004364014,8|8,0:0|0:0,0:0:0:0:
394,318,76685,1,0,0:0:0:0:
176,328,76812,2,0,P|131:298|182:236,1,143.000004364014,2|8,0:1|0:3,0:0:0:0:
232,229,77193,1,0,0:0:0:0:
382,233,77320,1,0,0:0:0:0:
454,202,77447,2,0,L|455:123,1,71.5000021820069,0|0,0:0|0:0,0:0:0:0:
383,103,77701,1,0,0:0:0:0:
150,107,77829,6,0,L|8:153,2,143.000004364014,4|8|8,0:1|0:3|0:0,0:0:0:0:
392,322,78591,1,8,0:3:0:0:
464,322,78718,2,0,P|490:280|464:187,1,143.000004364014,8|8,0:0|0:0,0:0:0:0:
397,196,79100,1,8,0:3:0:0:
167,207,79354,2,0,L|13:155,1,143.000004364014,8|8,0:0|0:3,0:0:0:0:
384,286,79863,6,0,L|272:377,2,143.000004364014,8|8|8,0:0|0:3|0:0,0:0:0:0:
144,206,80625,1,8,0:3:0:0:
214,208,80752,2,0,P|279:176|326:114,1,143.000004364014,8|8,0:0|0:0,0:0:0:0:
251,98,81134,1,8,0:3:0:0:
476,40,81388,2,0,P|487:77|473:183,1,143.000004364014,8|8,0:0|0:3,0:0:0:0:
132,322,81896,6,0,P|74:307|28:235,2,143.000004364014,8|8|8,0:0|0:3|0:0,0:0:0:0:
369,213,82659,1,8,0:3:0:0:
297,285,82786,2,0,L|445:286,1,143.000004364014,8|8,0:0|0:0,0:0:0:0:
440,352,83168,1,8,0:3:0:0:
225,185,83422,2,0,L|131:183,2,71.5000021820069,8|0|8,0:0|0:0|0:3,0:0:0:0:
460,62,83930,6,0,L|323:111,2,143.000004364014,8|8|8,0:0|0:3|0:0,0:0:0:0:
324,252,84693,2,0,L|397:279,1,71.5000021820069,8|8,0:3|0:0,0:0:0:0:
199,339,84947,2,0,L|116:330,2,71.5000021820069,8|0|8,0:0|0:0|0:3,0:0:0:0:
429,344,85456,2,0,P|462:300|456:209,1,143.000004364014,8|8,0:0|0:3,0:0:0:0:
110,53,85964,6,0,L|221:160,2,143.000004364014,4|8|8,0:1|0:3|0:0,0:0:0:0:
231,276,86727,2,0,L|144:242,1,71.5000021820069,8|8,0:3|0:0,0:0:0:0:
318,197,86981,2,0,L|416:198,2,71.5000021820069,0|8|8,0:0|0:0|0:3,0:0:0:0:
174,201,87490,2,0,P|122:172|41:215,1,143.000004364014,8|8,0:0|0:3,0:0:0:0:
399,324,87998,6,0,P|455:304|491:208,1,143.000004364014,4|8,0:1|0:3,0:0:0:0:
356,128,88507,2,0,L|506:130,1,143.000004364014,4|8,0:1|0:3,0:0:0:0:
118,298,89015,2,0,P|72:242|127:199,1,143.000004364014,4|8,0:1|0:3,0:0:0:0:
341,150,89524,1,8,0:0:0:0:
412,150,89651,1,0,0:0:0:0:
483,150,89778,1,8,0:1:0:0:
106,58,90032,6,0,P|48:92|102:154,1,143.000004364014,4|8,0:1|0:3,0:0:0:0:
149,156,90413,2,0,P|152:208|76:256,1,143.000004364014,0|0,0:0|0:0,0:0:0:0:
14,268,90795,2,0,L|21:345,1,71.5000021820069,8|8,0:3|0:0,0:0:0:0:
177,349,91049,6,0,L|336:341,1,143.000004364014,0|8,0:0|0:3,0:0:0:0:
253,280,91430,1,8,0:0:0:0:
321,286,91557,2,0,L|327:133,1,143.000004364014,8|8,0:0|0:3,0:0:0:0:
254,139,91939,1,8,0:0:0:0:
404,26,92066,1,0,0:0:0:0:
407,61,92129,1,0,0:0:0:0:
410,97,92193,1,0,0:0:0:0:
202,117,92320,6,0,P|154:141|212:197,1,143.000004364014,4|8,0:1|0:0,0:0:0:0:
227,200,92638,1,8,0:0:0:0:
262,200,92702,1,8,0:0:0:0:
412,197,92829,2,0,L|422:290,1,71.5000021820069,8|0,0:3|0:0,0:0:0:0:
192,349,93083,6,0,P|137:327|152:253,1,143.000004364014,4|8,0:1|0:1,0:0:0:0:
349,228,93464,2,0,L|520:229,1,143.000004364014,4|8,0:1|0:0,0:0:0:0:
426,155,93846,1,8,0:0:0:0:
493,77,93973,1,8,0:0:0:0:
259,75,94100,6,0,L|122:69,2,130,4|8|8,0:0|0:1|0:0,0:0:0:0:
31,22,94863,1,8,0:1:0:0:
95,28,94990,2,0,P|126:81|96:135,1,130,8|8,0:0|0:0,0:0:0:0:
26,145,95371,2,0,L|158:145,1,130,8|8,0:1|0:0,0:0:0:0:
272,260,95879,2,0,L|191:259,1,65,8|8,0:1|0:0,0:0:0:0:
357,346,96134,6,0,L|518:337,2,130,8|8|8,0:0|0:1|0:0,0:0:0:0:
137,101,96896,1,8,0:1:0:0:
203,106,97024,2,0,L|349:104,1,130,2|8,0:1|0:0,0:0:0:0:
399,178,97405,2,0,L|249:176,1,130,10|2,0:1|0:1,0:0:0:0:
393,299,97913,1,8,0:1:0:0:
165,51,98168,6,0,L|312:40,2,130,2|8|8,0:1|0:1|0:0,0:0:0:0:
392,299,98930,1,8,0:1:0:0:
457,298,99057,2,0,P|480:267|478:174,1,130,8|8,0:0|0:0,0:0:0:0:
414,155,99439,2,0,L|262:145,2,130,8|8|8,0:1|0:0|0:1,0:0:0:0:
178,287,100202,6,0,L|331:277,2,130,8|8|8,0:0|0:1|0:0,0:0:0:0:
398,314,100964,1,8,0:1:0:0:
466,237,101091,2,0,L|320:224,1,130,8|8,0:0|0:0,0:0:0:0:
409,166,101473,1,8,0:1:0:0:
481,160,101600,2,0,P|495:109|420:71,1,130,8|8,0:0|0:0,0:0:0:0:
375,68,101981,1,8,0:1:0:0:
440,66,102108,1,8,0:0:0:0:
203,80,102235,6,0,L|64:65,2,130,4|8|8,0:0|0:1|0:0,0:0:0:0:
430,37,102998,1,8,0:1:0:0:
492,99,103125,2,0,P|480:153|405:191,1,130,8|8,0:0|0:0,0:0:0:0:
347,195,103507,2,0,P|305:188|270:109,1,130,8|8,0:1|0:0,0:0:0:0:
405,43,104015,2,0,L|312:49,1,65,8|8,0:1|0:0,0:0:0:0:
184,204,104269,6,0,L|39:215,2,130,8|8|8,0:0|0:1|0:0,0:0:0:0:
414,333,105032,1,8,0:1:0:0:
346,311,105159,2,0,P|356:247|411:204,1,130,2|8,0:1|0:0,0:0:0:0:
469,133,105540,2,0,L|309:133,1,130,8|8,0:1|0:0,0:0:0:0:
463,36,106049,1,8,0:1:0:0:
224,251,106303,6,0,L|375:241,2,130,2|8|8,0:1|0:1|0:0,0:0:0:0:
96,134,107066,2,8,L|175:137,1,65,8|0,0:1|0:0,0:0:0:0:
312,137,107320,2,0,P|356:176|330:252,1,130,2|8,0:1|0:1,0:0:0:0:
279,290,107702,2,0,L|421:295,1,130,8|0,0:0|0:0,0:0:0:0:
474,291,108083,1,8,0:1:0:0:
136,215,108337,6,0,L|54:214,1,65,4|0,0:1|0:0,0:0:0:0:
135,145,108591,2,0,L|210:145,2,65,8|0|8,0:1|0:0|0:0,0:0:0:0:
17,61,109100,1,8,0:1:0:0:
237,67,109227,6,0,P|328:67|398:68,1,130,4|8,0:1|0:0,0:0:0:0:
296,200,109608,1,8,0:1:0:0:
360,200,109735,1,0,0:0:0:0:
297,280,109863,2,0,L|230:278,2,65,8|0|8,0:0|0:0|0:0,0:0:0:0:
362,278,110244,1,0,0:0:0:0:
130,340,110371,6,0,P|64:339|21:280,2,130,4|8|8,0:0|0:3|0:0,0:0:0:0:
362,265,111134,1,8,0:1:0:0:
428,263,111261,2,0,P|460:232|431:161,1,130,0|0,0:0|0:0,0:0:0:0:
365,161,111642,1,8,0:3:0:0:
483,51,111896,1,0,0:0:0:0:
251,254,112151,2,0,L|172:253,1,65,8|0,0:1|0:0,0:0:0:0:
326,163,112405,6,0,L|461:164,2,130,8|8|8,0:0|0:3|0:0,0:0:0:0:
93,162,113168,1,8,0:1:0:0:
160,195,113295,2,0,P|165:244|87:279,1,130,0|8,0:0|0:0,0:0:0:0:
36,285,113676,1,8,0:3:0:0:
172,347,113930,2,0,L|305:343,1,130,8|8,0:0|0:1,0:0:0:0:
302,272,114312,1,0,0:0:0:0:
145,179,114439,6,0,L|2:163,2,130,8|8|8,0:0|0:3|0:0,0:0:0:0:
262,292,115202,2,0,L|346:292,1,65,8|8,0:1|0:0,0:0:0:0:
179,216,115456,2,0,P|149:191|191:122,1,130,0|8,0:0|0:3,0:0:0:0:
299,66,115964,2,0,L|141:63,1,130,8|8,0:0|0:1,0:0:0:0:
404,291,116473,6,0,P|440:273|395:211,1,130,8|8,0:0|0:3,0:0:0:0:
275,130,116981,2,0,L|433:129,1,130,8|8,0:0|0:1,0:0:0:0:
252,260,117363,2,0,L|106:259,1,130,0|0,0:0|0:0,0:0:0:0:
123,186,117744,1,8,0:3:0:0:
188,184,117871,1,0,0:0:0:0:
30,269,117998,1,8,0:0:0:0:
28,204,118125,1,0,0:0:0:0:
26,139,118252,1,8,0:0:0:0:
355,348,118507,6,0,L|507:341,1,130,4|0,0:0|0:0,0:0:0:0:
408,268,118888,1,0,0:0:0:0:
330,192,119015,1,8,0:1:0:0:
462,94,119269,2,0,L|329:82,2,130,8|8|8,0:0|0:0|0:0,0:0:0:0:
329,254,120032,2,0,L|473:251,1,130,8|8,0:1|0:0,0:0:0:0:
94,320,120540,6,0,P|58:285|96:224,1,130,4|8,0:0|0:0,0:0:0:0:
160,217,120922,1,0,0:0:0:0:
306,115,121049,2,0,L|161:109,1,130,8|8,0:1|0:0,0:0:0:0:
319,28,121430,2,0,P|344:72|311:150,1,130,0|0,0:0|0:0,0:0:0:0:
254,154,121812,1,8,0:0:0:0:
460,347,122066,2,0,L|506:297,2,65,8|0|8,0:1|0:0|0:0,0:0:0:0:
82,88,122574,6,0,L|201:178,2,130,4|8|8,0:1|0:0|0:0,0:0:0:0:
211,255,123337,2,0,L|294:250,1,65,8|8,0:1|0:0,0:0:0:0:
435,152,123591,2,0,L|285:149,2,130,0|8|8,0:0|0:1|0:0,0:0:0:0:
304,272,124354,2,0,L|223:270,1,65,8|0,0:1|0:0,0:0:0:0:
80,179,124608,6,0,L|223:176,2,130,8|8|8,0:0|0:1|0:0,0:0:0:0:
209,295,125371,2,0,L|295:297,1,65,8|8,0:1|0:0,0:0:0:0:
433,300,125625,2,0,P|474:263|437:203,1,130,0|8,0:0|0:1,0:0:0:0:
315,120,126134,2,0,L|465:122,1,130,8|8,0:0|0:1,0:0:0:0:
380,51,126515,1,8,0:0:0:0:
172,54,126642,6,0,L|37:53,1,130,8|8,0:1|0:1,0:0:0:0:
189,130,127024,2,8,P|233:178|227:238,1,130,4|8,0:1|0:0,0:0:0:0:
25,327,127405,1,4,0:1:0:0:
155,324,127659,5,8,0:0:0:0:
216,296,127786,1,8,0:1:0:0:
216,234,127913,1,8,0:0:0:0:
153,215,128040,1,0,0:0:0:0:
10,82,128168,2,0,L|10:169,1,65,8|0,0:0|0:0,0:0:0:0:
80,26,128422,2,0,L|11:26,1,65,8|0,0:0|0:0,0:0:0:0:
215,347,128676,6,0,L|426:320,1,195,8|8,0:1|0:0,0:0:0:0:
174,124,129439,1,8,0:1:0:0:
501,35,129693,5,4,0:1:0:0:
363,149,130074,2,0,L|419:223,1,65,8|0,0:0|0:0,0:0:0:0:
475,216,130329,1,0,0:0:0:0:
25,240,130710,6,0,L|132:345,2,143.000004364014,4|8|8,0:1|0:3|0:0,0:0:0:0:
256,101,131473,1,8,0:3:0:0:
190,100,131600,2,0,P|147:85|49:106,1,143.000004364014,8|8,0:0|0:0,0:0:0:0:
120,173,131981,1,8,0:3:0:0:
349,304,132235,2,0,P|391:269|399:182,1,143.000004364014,8|8,0:0|0:3,0:0:0:0:
54,98,132744,6,0,L|168:204,2,143.000004364014,8|8|8,0:0|0:3|0:0,0:0:0:0:
296,323,133507,1,8,0:3:0:0:
367,323,133634,2,0,L|227:268,1,143.000004364014,8|8,0:0|0:0,0:0:0:0:
303,217,134015,1,8,0:3:0:0:
72,245,134269,2,0,L|58:92,1,143.000004364014,8|8,0:0|0:3,0:0:0:0:
423,90,134778,6,0,L|305:184,2,143.000004364014,8|8|8,0:0|0:3|0:0,0:0:0:0:
189,287,135540,1,8,0:3:0:0:
261,273,135668,2,0,P|260:222|184:168,1,143.000004364014,8|8,0:0|0:0,0:0:0:0:
121,172,136049,1,8,0:3:0:0:
348,176,136303,2,0,L|506:130,1,143.000004364014,8|8,0:0|0:3,0:0:0:0:
146,307,136812,6,0,L|10:211,2,143.000004364014,8|8|8,0:0|0:3|0:0,0:0:0:0:
281,305,137574,2,0,L|365:289,1,71.5000021820069,8|8,0:3|0:0,0:0:0:0:
198,190,137829,2,0,L|121:149,2,71.5000021820069,0|8|8,0:0|0:0|0:3,0:0:0:0:
69,31,138337,2,0,L|45:194,1,143.000004364014,8|8,0:0|0:3,0:0:0:0:
418,149,138846,6,0,L|295:239,2,143.000004364014,4|8|8,0:1|0:3|0:0,0:0:0:0:
289,304,139608,2,0,L|204:299,1,71.5000021820069,8|8,0:3|0:0,0:0:0:0:
63,291,139863,2,0,L|17:220,2,71.5000021820069,0|8|8,0:0|0:0|0:3,0:0:0:0:
193,92,140371,2,0,L|40:91,1,143.000004364014,8|8,0:0|0:3,0:0:0:0:
294,280,140879,6,0,L|451:270,2,143.000004364014,8|8|8,0:0|0:3|0:0,0:0:0:0:
67,217,141642,1,8,0:3:0:0:
138,202,141769,2,0,P|174:173|125:104,1,143.000004364014,8|8,0:0|0:0,0:0:0:0:
61,104,142151,1,8,0:3:0:0:
299,107,142405,1,8,0:0:0:0:
183,194,142659,2,0,L|91:192,1,71.5000021820069,8|0,0:3|0:0,0:0:0:0:
348,313,142913,6,0,P|385:301|387:196,1,143.000004364014,8|8,0:0|0:3,0:0:0:0:
321,205,143295,2,8,P|320:153|411:109,1,143.000004364014,0|0,0:0|0:0,0:0:0:0:
460,106,143676,2,0,L|468:22,1,71.5000021820069,8|8,0:3|0:0,0:0:0:0:
311,39,143930,6,0,L|155:38,1,143.000004364014,0|0,0:0|0:0,0:0:0:0:
241,119,144312,2,0,L|71:117,1,143.000004364014,8|0,0:0|0:0,0:0:0:0:
256,204,144693,2,0,L|261:287,1,71.5000021820069,8|0,0:3|0:0,0:0:0:0:
32,340,144947,6,0,P|34:291|127:244,1,143.000004364014,2|8,0:1|0:3,0:0:0:0:
235,232,145456,2,0,P|288:208|325:119,1,143.000004364014,8|8,0:0|0:3,0:0:0:0:
255,117,145837,1,0,0:0:0:0:
44,33,145964,2,0,P|13:73|62:139,1,130,2|8,0:1|0:3,0:0:0:0:
112,135,146346,1,0,0:0:0:0:
261,134,146473,1,8,0:0:0:0:
327,133,146600,1,0,0:0:0:0:
394,133,146727,1,8,0:0:0:0:
336,212,146854,1,0,0:0:0:0:
136,293,146981,6,0,L|250:395,2,143.000004364014,4|8|8,0:1|0:3|0:0,0:0:0:0:
359,238,147744,1,8,0:3:0:0:
434,235,147871,2,0,P|474:212|462:122,1,143.000004364014,8|8,0:0|0:0,0:0:0:0:
400,126,148252,1,8,0:3:0:0:
198,46,148507,2,0,L|356:45,1,143.000004364014,8|8,0:0|0:3,0:0:0:0:
21,240,149015,6,0,L|139:346,2,143.000004364014,8|8|0,0:0|0:3|0:0,0:0:0:0:
242,185,149778,1,8,0:3:0:0:
177,185,149905,2,0,P|113:169|29:122,1,143.000004364014,8|8,0:0|0:0,0:0:0:0:
111,87,150286,1,8,0:3:0:0:
326,122,150540,2,0,L|480:93,1,143.000004364014,8|8,0:0|0:3,0:0:0:0:
106,341,151049,6,0,L|212:242,2,143.000004364014,8|8|8,0:0|0:3|0:0,0:0:0:0:
340,193,151812,1,8,0:3:0:0:
412,123,151939,2,0,L|254:112,1,143.000004364014,8|8,0:0|0:0,0:0:0:0:
337,51,152320,1,8,0:3:0:0:
132,256,152574,2,0,L|50:251,2,71.5000021820069,8|0|8,0:0|0:0|0:3,0:0:0:0:
359,260,153083,6,0,L|515:242,2,143.000004364014,8|8|8,0:0|0:3|0:0,0:0:0:0:
230,154,153846,2,0,L|156:126,1,71.5000021820069,8|8,0:3|0:0,0:0:0:0:
367,72,154100,2,0,L|463:70,2,71.5000021820069,8|0|8,0:0|0:0|0:3,0:0:0:0:
152,87,154608,2,0,L|2:132,1,143.000004364014,8|8,0:0|0:3,0:0:0:0:
367,285,155117,6,0,L|266:180,2,143.000004364014,4|8|8,0:1|0:3|0:0,0:0:0:0:
234,354,155879,2,0,L|310:324,1,71.5000021820069,8|8,0:3|0:0,0:0:0:0:
155,235,156134,2,0,L|54:221,2,71.5000021820069,0|8|8,0:0|0:0|0:3,0:0:0:0:
298,238,156642,2,0,L|451:187,1,143.000004364014,8|8,0:0|0:3,0:0:0:0:
96,28,157151,6,0,B|27:28|27:28|115:29|115:29,1,143.000004364014,4|8,0:1|0:3,0:0:0:0:
225,278,157659,2,0,L|60:275,1,143.000004364014,4|8,0:1|0:3,0:0:0:0:
427,359,158168,2,0,L|303:259,1,143.000004364014,4|8,0:1|0:3,0:0:0:0:
93,245,158676,1,8,0:0:0:0:
88,180,158803,1,0,0:0:0:0:
84,115,158930,1,8,0:1:0:0:
404,183,159185,6,0,P|436:162|383:93,1,130,4|8,0:1|0:3,0:0:0:0:
329,94,159566,2,0,L|473:94,1,130,0|0,0:0|0:0,0:0:0:0:
459,94,159947,2,0,L|459:180,1,65,8|8,0:3|0:0,0:0:0:0:
295,304,160202,6,0,L|148:290,1,130,0|8,0:0|0:3,0:0:0:0:
233,230,160583,1,8,0:0:0:0:
166,231,160710,2,0,L|159:99,1,130,8|8,0:0|0:3,0:0:0:0:
227,82,161091,1,0,0:0:0:0:
388,85,161218,2,0,L|239:70,2,130,8|8|8,0:0|0:3|0:0,0:0:0:0:
493,218,161981,1,8,0:3:0:0:
258,313,162108,6,0,P|208:285|254:229,1,130,8|8,0:0|0:0,0:0:0:0:
306,220,162490,2,0,L|314:141,1,65,8|8,0:3|0:0,0:0:0:0:
243,137,162744,1,8,0:1:0:0:
465,41,162998,2,0,L|478:120,1,65,8|0,0:0|0:0,0:0:0:0:
243,271,163252,6,0,L|109:269,2,130,8|8|8,0:0|0:0|0:3,0:0:0:0:
313,269,163888,1,8,0:0:0:0:
181,188,164142,2,8,P|153:165|202:93,1,130,8|8,0:1|0:1,0:0:0:0:
254,91,164524,2,8,P|286:123|240:189,1,130,8|8,0:3|0:0,0:0:0:0:
186,209,164905,2,0,L|121:202,1,65,8|8,0:3|0:0,0:0:0:0:
350,315,165286,6,0,P|391:311|489:260,2,130,0|0|0,0:0|0:0|0:0,0:0:0:0:
282,316,165922,1,8,0:0:0:0:
158,162,166176,2,8,L|309:164,1,130,8|8,0:1|0:1,0:0:0:0:
354,86,166557,2,8,L|195:85,1,130,8|8,0:3|0:0,0:0:0:0:
290,166,166939,2,8,L|356:163,1,65,8|8,0:3|0:0,0:0:0:0:
33,309,167320,6,0,P|15:268|80:212,1,130,12|8,0:0|0:0,0:0:0:0:
185,156,167829,2,0,L|280:155,1,65,8|8,0:3|0:0,0:0:0:0:
106,46,168210,2,8,L|262:48,1,130,8|8,0:1|0:1,0:0:0:0:
163,112,168591,2,8,P|121:143|166:204,1,130,8|8,0:3|0:0,0:0:0:0:
216,210,168973,1,8,0:3:0:0:
141,216,169100,1,8,0:0:0:0:
375,324,169354,6,0,P|386:256|335:208,1,130,8|8,0:0|0:0,0:0:0:0:
282,201,169735,2,0,L|203:196,2,65,8|8|0,0:1|0:0|0:0,0:0:0:0:
354,198,170117,2,0,L|365:106,1,65,8|0,0:0|0:0,0:0:0:0:
158,68,170371,6,0,L|6:64,1,130,2|8,0:1|0:0,0:0:0:0:
171,165,170752,2,0,L|306:168,2,130,2|2|8,0:1|0:1|0:0,0:0:0:0:
377,314,171388,5,4,0:1:0:0:
261,245,171642,1,8,0:1:0:0:
386,133,171896,2,0,L|467:105,2,65,8|0|8,0:0|0:0|0:0,0:0:0:0:
235,136,172278,2,0,L|85:128,1,130,8|8,0:0|0:0,0:0:0:0:
170,65,172659,1,8,0:1:0:0:
310,193,172913,2,0,L|447:269,1,130,8|8,0:0|0:0,0:0:0:0:
185,328,173422,5,8,0:0:0:0:
309,253,173676,1,8,0:0:0:0:
184,155,173930,2,0,L|118:104,2,65,8|0|8,0:1|0:0|0:0,0:0:0:0:
340,162,174312,2,0,L|492:148,1,130,8|8,0:0|0:0,0:0:0:0:
409,81,174693,1,8,0:1:0:0:
175,51,174947,2,0,L|52:94,1,130,8|8,0:0|0:0,0:0:0:0:
119,151,175329,1,0,0:0:0:0:
328,247,175456,6,0,L|473:268,2,130,4|8|8,0:1|0:0|0:1,0:0:0:0:
270,216,176091,1,0,0:0:0:0:
214,194,176218,1,8,0:0:0:0:
366,141,176346,2,0,P|408:100|352:55,1,130,8|8,0:1|0:0,0:0:0:0:
306,50,176727,1,8,0:1:0:0:
372,44,176854,1,8,0:0:0:0:
218,119,176981,1,8,0:0:0:0:
148,120,177108,1,0,0:0:0:0:
77,116,177235,1,8,0:0:0:0:
417,300,177490,6,0,L|425:168,1,130,8|0,0:1|0:0,0:0:0:0:
185,295,177998,2,0,L|174:139,1,130,8|0,0:1|0:0,0:0:0:0:
239,149,178379,1,0,0:0:0:0:
444,157,178507,6,0,P|480:131|433:68,1,130,8|8,0:0|0:0,0:0:0:0:
235,75,178888,2,0,P|193:113|239:171,1,130,8|0,0:1|0:0,0:0:0:0:
297,167,179269,1,0,0:0:0:0:
301,199,179332,1,0,0:0:0:0:
304,231,179396,1,0,0:0:0:0:
74,357,179524,6,0,P|41:318|89:260,1,130,4|8,0:0|0:3,0:0:0:0:
205,183,180032,2,0,L|68:178,1,130,8|8,0:0|0:3,0:0:0:0:
225,122,180413,2,0,P|260:106|212:44,1,130,0|8,0:0|0:0,0:0:0:0:
161,38,180795,1,8,0:3:0:0:
290,31,181049,1,8,0:0:0:0:
354,31,181176,1,0,0:0:0:0:
419,31,181303,1,8,0:3:0:0:
187,251,181557,6,0,L|320:236,1,130,8|8,0:0|0:3,0:0:0:0:
383,173,181939,2,0,L|233:159,1,130,8|8,0:0|0:0,0:0:0:0:
100,168,182320,2,0,P|61:147|119:97,1,130,8|0,0:3|0:0,0:0:0:0:
163,91,182702,1,8,0:0:0:0:
318,83,182829,1,8,0:3:0:0:
188,162,183083,1,8,0:0:0:0:
118,188,183210,1,0,0:0:0:0:
117,249,183337,1,8,0:3:0:0:
186,272,183464,1,0,0:0:0:0:
401,342,183591,6,0,P|437:331|470:242,2,130,8|8|8,0:0|0:3|0:0,0:0:0:0:
270,281,184354,2,0,L|268:187,1,65,8|8,0:3|0:0,0:0:0:0:
423,207,184608,2,0,L|434:63,1,130,0|8,0:0|0:3,0:0:0:0:
204,208,185117,2,0,L|59:178,1,130,8|8,0:0|0:3,0:0:0:0:
426,315,185625,6,0,P|464:281|413:218,1,130,8|8,0:0|0:3,0:0:0:0:
365,227,186007,2,0,L|356:143,1,65,0|0,0:3|0:3,0:0:0:0:
424,133,186261,1,0,0:3:0:0:
219,99,186388,5,4,0:1:0:0:
152,98,186515,1,0,0:0:0:0:
294,289,186769,2,0,L|384:290,2,65,0|8|0,0:0|0:0|0:0,0:0:0:0:
234,267,187151,1,8,0:0:0:0:
210,209,187278,1,0,0:0:0:0:
237,152,187405,1,8,0:0:0:0:
297,133,187532,1,0,0:0:0:0:
96,352,187659,6,0,L|184:253,2,130,4|8|8,0:0|0:3|0:0,0:0:0:0:
318,332,188422,1,8,0:3:0:0:
383,331,188549,2,0,P|409:307|380:222,1,130,8|8,0:0|0:0,0:0:0:0:
321,190,188930,2,0,L|469:192,1,130,8|8,0:3|0:0,0:0:0:0:
321,72,189439,1,8,0:3:0:0:
65,215,189693,6,0,P|64:158|140:115,1,130,8|8,0:0|0:3,0:0:0:0:
176,117,190074,1,0,0:0:0:0:
337,114,190202,2,0,L|356:252,1,130,8|8,0:0|0:3,0:0:0:0:
203,310,190583,2,0,P|179:287|234:224,1,130,8|8,0:0|0:0,0:0:0:0:
293,219,190964,1,8,0:3:0:0:
167,191,191218,2,0,L|27:152,1,130,8|8,0:0|0:3,0:0:0:0:
398,44,191727,5,8,0:0:0:0:
265,40,191981,2,0,L|264:193,1,130,8|8,0:3|0:0,0:0:0:0:
42,197,192490,1,8,0:3:0:0:
261,192,192744,2,0,L|260:335,1,130,0|8,0:0|0:3,0:0:0:0:
482,332,193252,1,8,0:0:0:0:
363,231,193507,2,0,L|445:231,1,65,8|0,0:3|0:0,0:0:0:0:
191,148,193761,6,0,L|58:145,1,130,2|8,0:1|0:3,0:0:0:0:
190,254,194269,2,0,L|335:255,1,130,8|8,0:0|0:3,0:0:0:0:
386,250,194651,1,0,0:0:0:0:
231,168,194778,2,0,P|190:149|236:103,1,130,2|8,0:1|0:1,0:0:0:0:
294,120,195159,1,0,0:0:0:0:
332,171,195286,1,8,0:0:0:0:
333,234,195413,1,0,0:0:0:0:
295,286,195540,1,8,0:0:0:0:
234,305,195667,1,0,0:0:0:0:
459,355,195795,6,8,L|289:234,2,195,8|0|8,0:1|0:0|0:1,0:0:0:0:
50,134,196812,1,4,0:1:0:0:
158,198,197193,2,0,L|83:235,1,65,0|0,0:0|0:0,0:0:0:0:
32,235,197447,1,0,0:0:0:0:
490,316,197829,6,0,B|368:322|256:334|293:219|521:227|551:150|472:85|321:100,1,520,4|8,0:1|0:0,0:0:0:0:
203,119,199100,2,0,L|295:117,1,65,0|8,0:0|0:0,0:0:0:0:
203,195,199354,2,0,L|65:195,1,130,8|8,0:0|0:0,0:0:0:0:
462,345,200117,6,0,L|466:206,1,130,4|0,0:1|0:0,0:0:0:0:
218,332,200625,2,0,L|74:335,1,130,4|0,0:1|0:0,0:0:0:0:
344,199,201134,2,0,L|435:199,1,65,4|0,0:1|0:0,0:0:0:0:
343,136,201388,2,0,L|335:60,1,65,8|0,0:0|0:0,0:0:0:0:
403,40,201642,1,8,0:0:0:0:
85,49,201896,6,0,P|48:66|97:127,1,130,8|8,0:0|0:0,0:0:0:0:
206,246,202405,2,0,L|53:242,1,130,8|0,0:1|0:0,0:0:0:0:
233,169,202786,2,0,P|273:157|235:84,1,130,8|0,0:0|0:0,0:0:0:0:
187,79,203168,1,8,0:0:0:0:
319,269,203422,2,0,L|411:269,1,65,8|0,0:0|0:0,0:0:0:0:
447,208,203676,2,0,L|363:206,1,65,8|0,0:0|0:0,0:0:0:0:
174,208,203930,6,0,P|127:194|103:117,1,130,4|8,0:1|0:0,0:0:0:0:
251,84,204312,2,0,L|394:84,1,130,4|0,0:1|0:0,0:0:0:0:
173,45,204693,2,0,L|99:46,1,65,8|0,0:1|0:0,0:0:0:0:
172,118,204947,2,0,L|171:192,1,65,8|0,0:0|0:0,0:0:0:0:
106,254,205202,2,0,L|197:261,1,65,8|0,0:0|0:0,0:0:0:0:
228,232,205456,1,8,0:0:0:0:
251,173,205583,1,0,0:0:0:0:
227,114,205710,1,8,0:0:0:0:
169,89,205837,1,0,0:0:0:0:
372,284,205964,6,0,P|455:252|483:194,2,130,8|8|8,0:1|0:0|0:1,0:0:0:0:
254,170,206727,2,0,L|169:171,1,65,8|0,0:0|0:0,0:0:0:0:
122,177,206981,2,0,L|122:258,1,65,8|0,0:0|0:0,0:0:0:0:
189,269,207235,2,0,L|261:269,2,65,0|0|8,0:0|0:0|0:1,0:0:0:0:
55,89,207744,1,8,0:0:0:0:
381,328,207998,6,0,P|440:316|488:241,2,130,4|8|8,0:1|0:0|0:1,0:0:0:0:
156,125,208761,1,0,0:0:0:0:
225,124,208888,2,0,L|372:119,1,130,8|8,0:0|0:0,0:0:0:0:
287,192,209269,1,8,0:0:0:0:
417,189,209524,2,0,L|488:189,2,65,8|0|8,0:1|0:0|0:0,0:0:0:0:
85,61,210032,6,0,P|51:88|103:159,1,130,4|8,0:1|0:0,0:0:0:0:
144,200,210413,2,0,L|8:198,1,130,8|0,0:0|0:0,0:0:0:0:
80,132,210795,1,8,0:0:0:0:
313,114,211049,2,0,L|332:262,1,130,8|8,0:0|0:0,0:0:0:0:
259,250,211430,2,0,L|180:237,2,65,8|8|0,0:0|0:1|0:0,0:0:0:0:
327,255,211812,2,0,L|338:181,1,65,8|8,0:1|0:1,0:0:0:0:
132,53,212066,6,0,L|16:135,1,130,4|8,0:1|0:1,0:0:0:0:
154,294,212574,2,0,L|3:293,1,130,4|8,0:1|0:1,0:0:0:0:
393,260,213083,2,0,P|435:208|389:184,1,130,4|8,0:1|0:1,0:0:0:0:
325,185,213464,1,0,0:0:0:0:
474,183,213591,1,8,0:0:0:0:
466,119,213718,1,0,0:0:0:0:
426,69,213845,1,0,0:0:0:0:
365,47,213972,1,0,0:0:0:0:
163,101,214100,6,0,L|3:138,2,143.000004364014,4|8|8,0:1|0:3|0:0,0:0:0:0:
399,299,214863,1,8,0:3:0:0:
332,281,214990,2,0,P|292:256|276:165,1,143.000004364014,8|8,0:0|0:0,0:0:0:0:
340,159,215371,1,8,0:3:0:0:
107,173,215625,2,0,L|83:23,1,143.000004364014,8|8,0:0|0:3,0:0:0:0:
446,248,216134,6,0,L|330:334,2,143.000004364014,8|8|8,0:0|0:3|0:0,0:0:0:0:
210,197,216896,1,8,0:3:0:0:
275,192,217024,2,0,L|440:170,1,143.000004364014,8|8,0:0|0:0,0:0:0:0:
481,158,217405,1,8,0:3:0:0:
248,341,217659,2,0,L|105:279,1,143.000004364014,8|8,0:0|0:3,0:0:0:0:
468,128,218168,6,0,L|359:229,2,143.000004364014,8|8|8,0:0|0:3|0:0,0:0:0:0:
231,337,218930,1,8,0:3:0:0:
159,313,219057,2,0,P|115:283|109:186,1,143.000004364014,8|8,0:0|0:0,0:0:0:0:
173,180,219439,1,8,0:3:0:0:
373,130,219693,2,0,L|468:132,2,71.5000021820069,8|0|8,0:0|0:0|0:3,0:0:0:0:
143,237,220202,6,0,L|-10:224,2,143.000004364014,8|8|8,0:0|0:3|0:0,0:0:0:0:
272,348,220964,2,0,L|190:311,1,71.5000021820069,8|8,0:3|0:0,0:0:0:0:
408,243,221218,2,0,L|497:219,2,71.5000021820069,8|0|8,0:0|0:0|0:3,0:0:0:0:
180,248,221727,2,0,L|34:205,1,143.000004364014,8|8,0:0|0:3,0:0:0:0:
405,68,222235,6,0,L|291:154,2,143.000004364014,4|8|8,0:1|0:3|0:0,0:0:0:0:
275,287,222998,2,0,L|358:259,1,71.5000021820069,8|8,0:3|0:0,0:0:0:0:
192,171,223252,2,0,L|103:144,2,71.5000021820069,0|8|8,0:0|0:0|0:3,0:0:0:0:
336,182,223761,2,0,L|473:117,1,143.000004364014,8|8,0:0|0:3,0:0:0:0:
137,40,224269,6,0,P|106:59|164:138,1,143.000004364014,4|8,0:1|0:3,0:0:0:0:
285,140,224778,2,0,L|452:138,1,143.000004364014,4|8,0:1|0:3,0:0:0:0:
72,313,225286,2,0,P|27:294|74:240,1,143.000004364014,4|8,0:1|0:3,0:0:0:0:
298,182,225795,1,0,0:0:0:0:
369,182,225922,1,0,0:0:0:0:
441,182,226049,1,0,0:0:0:0:
106,331,226303,6,0,P|64:319|23:226,1,143.000004364014,4|8,0:1|0:3,0:0:0:0:
92,206,226685,2,0,L|250:207,1,143.000004364014,0|0,0:0|0:0,0:0:0:0:
307,209,227066,2,0,L|313:128,1,71.5000021820069,8|8,0:3|0:0,0:0:0:0:
160,105,227320,6,0,P|117:85|176:32,1,143.000004364014,0|8,0:0|0:3,0:0:0:0:
232,21,227702,1,8,0:0:0:0:
306,71,227829,2,0,L|149:66,1,143.000004364014,8|8,0:0|0:3,0:0:0:0:
91,73,228210,1,8,0:0:0:0:
326,265,228337,2,0,L|489:243,2,143.000004364014,8|8|8,0:0|0:3|0:0,0:0:0:0:
396,184,228973,1,0,0:0:0:0:
469,181,229100,1,8,0:3:0:0:
234,189,229227,6,0,P|187:146|254:120,1,143.000004364014,8|0,0:0|0:0,0:0:0:0:
301,115,229608,2,0,L|383:115,1,71.5000021820069,8|8,0:3|0:0,0:0:0:0:
205,123,229863,1,8,0:1:0:0:
139,157,229990,1,0,0:0:0:0:
139,225,230117,1,0,0:0:0:0:
205,256,230244,1,0,0:0:0:0:
423,253,230371,5,4,0:1:0:0:
256,192,230625,12,0,232151,0:0:0:0:
366,333,232405,6,0,L|383:188,1,130,4|0,0:1|0:0,0:0:0:0:
148,213,232913,2,0,L|132:69,1,130,8|0,0:0|0:0,0:0:0:0:
472,32,233422,6,0,L|322:29,1,130,4|0,0:1|0:0,0:0:0:0:
405,107,233803,1,0,0:0:0:0:
256,105,233930,1,8,0:0:0:0:
367,214,234185,1,0,0:0:0:0:
49,277,234439,5,4,0:0:0:0:
170,281,234693,2,0,L|288:346,2,130,8|8|8,0:3|0:0|0:3,0:0:0:0:
12,189,235329,2,0,P|20:148|107:95,1,130,8|8,0:0|0:0,0:0:0:0:
149,95,235710,1,8,0:3:0:0:
282,91,235964,2,0,L|425:92,1,130,8|8,0:0|0:3,0:0:0:0:
474,93,236346,1,0,0:0:0:0:
259,252,236473,6,0,P|217:226|261:176,1,130,2|8,0:1|0:3,0:0:0:0:
491,35,236981,2,0,L|492:180,1,130,8|8,0:0|0:3,0:0:0:0:
426,171,237363,1,8,0:0:0:0:
278,174,237490,2,0,L|128:170,1,130,0|8,0:0|0:3,0:0:0:0:
148,104,237871,1,8,0:0:0:0:
297,106,237998,1,8,0:0:0:0:
362,106,238125,1,0,0:0:0:0:
427,106,238252,1,8,0:3:0:0:
56,247,238507,6,0,L|200:384,2,195,4|8|8,0:1|0:0|0:0,0:0:0:0:
124,232,239396,1,0,0:0:0:0:
276,226,239524,2,0,L|361:227,2,65,8|0|8,0:1|0:0|0:0,0:0:0:0:
214,211,239905,1,0,0:0:0:0:
175,160,240032,1,8,0:0:0:0:
178,96,240159,1,0,0:0:0:0:
221,49,240286,1,8,0:0:0:0:
284,40,240413,1,0,0:0:0:0:
90,355,240540,6,0,B|30:347|30:347|23:195,1,195,4|8,0:1|0:0,0:0:0:0:
489,112,241303,1,4,0:1:0:0:
256,192,241557,12,0,244608,0:0:0:0:
