osu file format v14

[General]
AudioFilename: audio.mp3
AudioLeadIn: 0
PreviewTime: 130011
Countdown: 0
SampleSet: Soft
StackLeniency: 0.7
Mode: 2
LetterboxInBreaks: 0
WidescreenStoryboard: 0

[Editor]
Bookmarks: 8549,8676,26981,43252,61557,94092,110363,130702,163244,179516,197821,214092,222227,230363
DistanceSpacing: 1
BeatDivisor: 6
GridSize: 8
TimelineZoom: 2.799999

[Metadata]
Title:Girls' Carnival
TitleUnicode:Girls' Carnival
Artist:Yuuka
ArtistUnicode:ユウカ
Creator:Dapuluous
Version:Collab Overdose
Source:Making*Lovers
Tags:eroge visual novel opening op video game japanese making lovers making*lovers SMEE メイキング ラバーズ jpop entergram -luminate luminate -hex- hex
BeatmapID:2396039
BeatmapSetID:1147479

[Difficulty]
HPDrainRate:6
CircleSize:4.2
OverallDifficulty:9.3
ApproachRate:9.3
SliderMultiplier:1.9
SliderTickRate:2

[Events]
//Background and Video events
0,0,"Karen.jpg",0,0
//Break Periods
//Storyboard Layer 0 (Background)
//Storyboard Layer 1 (Fail)
//Storyboard Layer 2 (Pass)
//Storyboard Layer 3 (Foreground)
//Storyboard Layer 4 (Overlay)
//Storyboard Sound Samples

[TimingPoints]
541,254.237288135593,4,2,1,30,1,0
541,-111.111111111111,4,2,1,30,0,0
795,-100,4,2,1,30,0,0
4608,-111.111111111111,4,2,1,45,0,0
6642,-111.111111111111,4,2,2,60,0,0
8168,-66.6666666666667,4,2,0,15,0,0
8676,-100,4,2,2,75,0,1
8803,-100,4,2,2,75,0,0
16812,-100,4,2,2,75,0,0
24947,-100,4,2,2,75,0,0
26981,-100,4,2,2,60,0,0
42617,-100,4,3,0,45,0,0
43252,-111.111111111111,4,2,2,60,0,0
50879,-111.111111111111,4,3,0,45,0,0
51388,-111.111111111111,4,2,2,60,0,0
59015,-111.111111111111,4,2,2,60,0,0
59524,-111.111111111111,4,2,2,60,0,0
61176,-90.9090909090909,4,2,2,15,0,0
61557,-100,4,2,2,80,0,1
76812,-100,4,2,2,80,0,0
77193,-100,4,2,2,65,0,0
77829,-100,4,2,2,80,0,1
89524,-100,4,2,2,80,0,1
90032,-100,4,2,2,80,0,1
92066,-100,4,2,2,15,0,1
92320,-100,4,2,2,85,0,1
93718,-100,4,2,2,85,0,1
94100,-100,4,2,2,60,0,0
109735,-100,4,2,2,60,0,0
110371,-100,4,2,2,60,0,0
117998,-100,4,2,2,60,0,0
118507,-111.111111111111,4,2,2,60,0,0
122574,-100,4,2,2,60,0,0
127913,-100,4,2,2,60,0,0
128676,-100,4,2,2,60,0,0
129057,-83.3333333333333,4,2,2,60,0,0
129439,-100,4,2,2,60,0,0
130202,-100,4,2,2,15,0,0
130710,-90.9090909090909,4,2,2,80,0,1
145964,-90.9090909090909,4,2,2,80,0,0
146346,-90.9090909090909,4,2,2,65,0,0
146981,-90.9090909090909,4,2,2,80,0,1
158676,-90.9090909090909,4,2,2,80,0,1
159185,-90.9090909090909,4,2,2,80,0,1
162871,-90.9090909090909,4,2,2,80,0,1
163252,-125,4,2,1,30,0,0
163761,-125,4,2,1,45,0,0
169608,-125,4,2,1,45,0,0
169863,-125,4,2,1,45,0,0
170371,-125,4,2,2,60,0,0
176854,-125,4,2,2,60,0,0
177490,-125,4,2,2,60,0,0
179142,-125,4,2,2,15,0,0
179524,-100,4,2,2,60,0,0
186769,-100,4,2,2,60,0,0
187659,-100,4,2,2,60,0,0
195413,-100,4,2,2,60,0,0
195795,-100,4,2,2,45,0,0
197829,-100,4,2,2,60,0,0
200117,-142.857142857143,4,2,2,70,0,1
200244,-142.857142857143,4,2,2,70,0,0
200625,-142.857142857143,4,2,2,70,0,1
200752,-142.857142857143,4,2,2,70,0,0
201134,-142.857142857143,4,2,2,70,0,1
201261,-100,4,2,2,70,0,0
201896,-100,4,2,2,70,0,0
205074,-100,4,2,2,70,0,0
205964,-100,4,2,2,70,0,0
213464,-100,4,2,2,70,0,0
214100,-83.3333333333333,4,2,2,70,0,1
222235,-100,4,2,2,70,0,1
229990,-100,4,3,0,50,0,1
230371,-100,4,2,2,80,0,0
242066,-90.9090909090909,4,2,0,80,0,0
242574,-90.9090909090909,4,2,0,70,0,0
243083,-90.9090909090909,4,2,0,60,0,0
243591,-90.9090909090909,4,2,0,50,0,0
244100,-90.9090909090909,4,2,0,35,0,0
244608,-90.9090909090909,4,2,0,15,0,0

[Colours]
Combo1 : 124,207,194
Combo2 : 246,130,152
Combo3 : 255,185,71
Combo4 : 167,144,200
Combo5 : 205,190,153

[HitObjects]
424,256,541,6,0,P|424:336|344:336,1,170.999994781494,8|8,0:0|0:0,0:0:0:0:
176,40,1049,2,0,L|128:128,1,95,8|8,0:3|0:0,0:0:0:0:
216,120,1303,1,8,0:0:0:0:
304,120,1430,6,8,P|264:192|168:184,1,190,8|8,0:1|0:1,0:0:0:0:
359,39,1812,2,8,P|391:71|392:120,1,95,8|8,0:3|0:0,0:0:0:0:
304,120,2066,1,8,0:0:0:0:
392,110,2193,1,8,0:3:0:0:
408,184,2320,1,8,0:0:0:0:
336,232,2447,1,8,0:0:0:0:
184,272,2574,6,8,P|264:272|336:352,2,190,0|0|0,0:0|0:0|0:0,0:0:0:0:
96,304,3210,1,8,0:0:0:0:
184,360,3337,1,8,0:0:0:0:
272,328,3464,6,8,P|328:280|256:208,1,190,8|8,0:1|0:1,0:0:0:0:
176,40,3846,2,8,L|127:127,1,95,8|8,0:3|0:0,0:0:0:0:
216,120,4100,1,8,0:0:0:0:
129,122,4227,2,8,L|32:128,2,95,8|8|8,0:3|0:0|0:0,0:0:0:0:
344,192,4608,6,0,P|400:240|344:296,1,170.999994781494,12|8,0:0|0:0,0:0:0:0:
168,312,5117,2,0,L|256:320,2,85.4999973907472,8|8|8,0:3|0:0|0:0,0:0:0:0:
253,319,5498,6,8,P|309:267|248:224,1,170.999994781494,8|8,0:1|0:1,0:0:0:0:
336,40,5879,2,8,L|432:48,1,85.4999973907472,8|8,0:3|0:0,0:0:0:0:
328,112,6134,1,8,0:0:0:0:
416,128,6261,2,0,L|488:192,2,85.4999973907472,8|8|8,0:3|0:0|0:0,0:0:0:0:
200,192,6642,5,8,0:0:0:0:
456,192,7151,1,8,0:0:0:0:
152,312,7659,5,8,0:0:0:0:
264,304,7786,1,8,0:0:0:0:
376,296,7913,1,8,0:0:0:0:
488,288,8040,1,8,0:0:0:0:
256,48,8168,5,0,0:0:0:0:
212,65,8210,1,0,0:0:0:0:
189,105,8252,1,0,0:0:0:0:
195,152,8295,1,0,0:0:0:0:
228,184,8337,1,0,0:0:0:0:
274,190,8379,1,0,0:0:0:0:
314,166,8422,1,0,0:0:0:0:
331,123,8464,1,0,0:0:0:0:
318,78,8506,1,0,0:0:0:0:
281,51,8549,1,0,0:0:0:0:
24,200,8676,6,0,L|152:176,1,95,4|0,0:0|0:0,0:0:0:0:
232,264,8930,2,0,L|120:240,1,95,2|0,0:0|0:0,0:0:0:0:
264,336,9185,2,0,L|472:312,1,190,8|8,0:0|0:0,0:0:0:0:
128,208,9566,2,0,P|80:120|144:80,1,190,8|8,0:0|0:0,0:0:0:0:
240,64,9947,1,2,0:0:0:0:
336,32,10074,1,8,0:0:0:0:
240,16,10202,1,8,0:0:0:0:
448,40,10456,2,0,L|456:144,1,95,2|0,0:0|0:0,0:0:0:0:
208,304,10710,6,0,P|72:256|40:200,1,190,8|2,0:0|0:0,0:0:0:0:
296,264,11218,2,0,P|352:176|280:136,1,190,8|2,0:0|0:0,0:0:0:0:
160,96,11600,6,0,L|384:96,1,190,8|8,0:0|0:0,0:0:0:0:
256,224,11981,1,2,0:0:0:0:
160,184,12108,1,8,0:0:0:0:
256,152,12235,1,8,0:0:0:0:
64,272,12490,2,0,L|200:272,1,95,2|0,0:0|0:0,0:0:0:0:
424,280,12744,6,0,L|224:280,1,190,8|2,0:0|0:0,0:0:0:0:
464,192,13252,2,0,P|496:88|416:48,1,190,8|2,0:0|0:0,0:0:0:0:
320,192,13634,2,0,P|208:144|184:64,1,190,8|8,0:0|0:0,0:0:0:0:
304,80,14015,1,2,0:0:0:0:
120,280,14269,2,0,L|112:176,1,95,8|0,0:0|0:0,0:0:0:0:
240,168,14524,2,0,L|344:168,1,95,2|0,0:0|0:0,0:0:0:0:
96,336,14778,6,0,L|-8:336,1,95,8|0,0:0|0:0,0:0:0:0:
240,312,15032,2,0,L|248:208,1,95,2|0,0:0|0:0,0:0:0:0:
136,192,15286,2,0,L|264:192,2,95,8|0|2,0:0|0:0|0:0,0:0:0:0:
368,288,15668,6,0,P|376:224|248:176,1,190,8|8,0:0|0:0,0:0:0:0:
392,176,16049,2,0,P|472:112|432:32,1,190,2|8,0:0|0:0,0:0:0:0:
128,72,16430,1,0,0:0:0:0:
224,48,16557,1,8,0:0:0:0:
446,41,16685,1,0,0:0:0:0:
216,320,16812,6,0,P|80:272|64:232,1,190,4|2,0:0|0:0,0:0:0:0:
264,328,17320,2,0,P|376:288|416:200,1,190,8|2,0:0|0:0,0:0:0:0:
144,224,17702,6,8,P|96:128|168:96,1,190,0|0,0:0|0:0,0:0:0:0:
256,80,18083,1,2,0:0:0:0:
368,48,18210,1,8,0:0:0:0:
256,16,18337,1,8,0:0:0:0:
40,32,18591,2,0,L|144:32,1,95,2|0,0:0|0:0,0:0:0:0:
400,168,18846,6,0,L|192:168,1,190,8|2,0:0|0:0,0:0:0:0:
424,336,19354,2,0,L|512:296,2,95,8|0|2,0:0|0:0|0:0,0:0:0:0:
312,208,19735,6,0,P|360:136|464:112,1,190,8|8,0:0|0:0,0:0:0:0:
336,352,20117,1,2,0:0:0:0:
240,288,20244,1,8,0:0:0:0:
336,240,20371,1,8,0:0:0:0:
160,224,20625,1,2,0:0:0:0:
368,208,20879,6,0,P|424:136|328:72,1,190,8|2,0:0|0:0,0:0:0:0:
48,80,21388,2,0,L|264:80,1,190,8|2,0:0|0:0,0:0:0:0:
120,248,21769,6,0,P|64:200|160:136,1,190,8|8,0:0|0:0,0:0:0:0:
232,144,22151,2,0,L|240:40,1,95,2|8,0:0|0:0,0:0:0:0:
144,120,22405,2,0,L|248:120,1,95,8|0,0:0|0:0,0:0:0:0:
360,128,22659,1,2,0:0:0:0:
32,304,22913,6,0,L|208:208,2,190,4|2|8,0:1|0:0|0:0,0:0:0:0:
272,344,23676,1,2,0:0:0:0:
384,344,23803,6,0,P|432:288|360:208,1,190,8|8,0:0|0:0,0:0:0:0:
264,208,24185,1,2,0:0:0:0:
480,192,24439,1,8,0:0:0:0:
384,144,24566,1,0,0:0:0:0:
488,96,24693,1,8,0:0:0:0:
384,64,24820,1,0,0:0:0:0:
168,48,24947,6,0,P|80:80|16:168,1,190,4|0,0:0|0:0,0:0:0:0:
176,216,25329,1,8,0:0:0:0:
56,240,25456,2,0,L|48:344,1,95,8|0,0:0|0:0,0:0:0:0:
360,352,25710,6,0,P|432:272|304:192,1,285,4|8,0:0|0:0,0:0:0:0:
200,184,26218,1,8,0:0:0:0:
304,136,26346,1,0,0:0:0:0:
200,112,26473,1,8,0:0:0:0:
88,96,26600,1,0,0:0:0:0:
200,32,26727,1,8,0:0:0:0:
88,8,26854,1,0,0:0:0:0:
440,192,26981,6,0,L|464:288,1,95,4|0,0:0|0:0,0:0:0:0:
368,200,27235,2,0,L|272:224,1,95,8|0,0:1|0:0,0:0:0:0:
368,200,27490,2,0,P|432:256|360:312,1,190,8|8,0:0|0:1,0:0:0:0:
176,248,27871,6,0,P|176:336|264:336,1,190,8|8,0:0|0:0,0:0:0:0:
360,264,28252,2,0,L|408:352,2,95,8|8|8,0:1|0:0|0:0,0:0:0:0:
264,160,28634,2,0,L|365:188,2,95,0|8|0,0:0|0:1|0:0,0:0:0:0:
64,48,29015,6,0,L|40:144,1,95,8|0,0:0|0:0,0:0:0:0:
133,118,29269,2,0,L|29:142,1,95,8|0,0:1|0:0,0:0:0:0:
160,288,29524,2,0,L|256:264,2,95,8|0|8,0:0|0:0|0:1,0:0:0:0:
376,48,29905,6,0,P|440:96|376:160,1,190,2|8,0:1|0:0,0:0:0:0:
280,144,30286,2,0,L|184:168,1,95,8|8,0:1|0:0,0:0:0:0:
288,232,30540,2,0,P|216:288|144:240,1,190,8|8,0:0|0:1,0:0:0:0:
496,24,31049,6,0,L|472:136,1,95,8|0,0:0|0:0,0:0:0:0:
344,40,31303,2,0,L|368:144,1,95,8|0,0:1|0:0,0:0:0:0:
496,216,31557,2,0,P|496:304|408:304,1,190,8|8,0:0|0:1,0:0:0:0:
216,184,31939,6,0,P|312:184|384:248,1,190,8|8,0:0|0:0,0:0:0:0:
248,256,32320,2,0,L|224:352,1,95,8|0,0:1|0:0,0:0:0:0:
360,256,32574,2,0,L|384:352,1,95,8|0,0:0|0:0,0:0:0:0:
264,152,32829,2,0,L|168:176,1,95,8|0,0:1|0:0,0:0:0:0:
392,80,33083,6,0,P|312:32|232:80,2,190,8|8|8,0:0|0:1|0:0,0:0:0:0:
235,74,33846,1,8,0:1:0:0:
432,192,33973,6,0,P|432:280|344:280,1,190,8|8,0:0|0:0,0:0:0:0:
248,160,34354,2,0,L|344:184,2,95,8|8|8,0:1|0:0|0:0,0:0:0:0:
152,240,34735,2,0,L|248:264,2,95,8|8|8,0:0|0:1|0:0,0:0:0:0:
392,192,35117,6,0,L|416:288,1,95,4|0,0:0|0:0,0:0:0:0:
320,200,35371,2,0,L|224:216,1,95,8|0,0:1|0:0,0:0:0:0:
320,200,35625,2,0,P|384:248|312:304,1,190,8|8,0:0|0:1,0:0:0:0:
112,192,36007,6,0,P|112:280|200:280,1,190,8|8,0:0|0:0,0:0:0:0:
296,328,36388,2,0,L|200:352,2,95,8|8|8,0:1|0:0|0:0,0:0:0:0:
204,170,36769,2,0,L|100:194,2,95,0|8|8,0:0|0:1|0:0,0:0:0:0:
432,128,37151,6,0,L|464:224,1,95,8|0,0:0|0:0,0:0:0:0:
368,232,37405,2,0,L|465:217,1,95,8|0,0:1|0:0,0:0:0:0:
328,240,37659,2,0,L|304:336,1,95,8|0,0:0|0:0,0:0:0:0:
400,336,37913,1,8,0:1:0:0:
200,192,38040,6,0,P|136:248|200:304,1,190,2|8,0:1|0:0,0:0:0:0:
320,56,38422,2,0,L|416:32,1,95,8|0,0:1|0:0,0:0:0:0:
312,120,38676,2,0,L|408:96,1,95,8|0,0:0|0:0,0:0:0:0:
208,152,38930,2,0,L|104:176,1,95,8|0,0:1|0:0,0:0:0:0:
336,224,39185,6,0,P|264:272|184:224,2,190,2|8|8,0:1|0:1|0:0,0:0:0:0:
136,56,39947,2,8,L|112:152,1,95,8|0,0:1|0:0,0:0:0:0:
312,80,40202,6,0,P|224:80|176:160,1,190,2|8,0:1|0:1,0:0:0:0:
288,160,40583,2,0,P|384:160|448:232,1,190,8|0,0:0|0:0,0:0:0:0:
352,232,40964,1,8,0:1:0:0:
32,48,41218,6,0,P|120:48|120:136,1,190,4|8,0:1|0:1,0:0:0:0:
32,136,41600,1,0,0:0:0:0:
136,208,41727,2,0,L|40:232,2,95,8|0|8,0:0|0:0|0:1,0:0:0:0:
376,192,42108,6,0,P|376:280|288:280,1,190,4|8,0:1|0:0,0:0:0:0:
192,208,42490,2,0,L|296:232,2,95,8|0|0,0:1|0:0|0:0,0:0:0:0:
96,248,42871,1,0,0:0:0:0:
192,112,42998,1,0,0:0:0:0:
96,96,43125,1,0,0:0:0:0:
352,192,43252,6,0,P|456:144|480:64,2,170.999994781494,4|8|8,0:0|0:3|0:0,0:0:0:0:
144,328,44015,1,8,0:1:0:0:
264,328,44142,2,0,P|384:256|376:128,1,256.499992172241,8|8,0:0|0:3,0:0:0:0:
120,192,44778,2,0,P|72:120|128:64,1,170.999994781494,0|8,0:0|0:1,0:0:0:0:
240,96,45159,1,0,0:0:0:0:
360,232,45286,6,0,P|240:176|232:128,2,170.999994781494,8|8|8,0:0|0:3|0:0,0:0:0:0:
144,328,46049,1,8,0:1:0:0:
32,272,46176,2,0,P|32:160|168:112,1,256.499992172241,8|8,0:0|0:3,0:0:0:0:
480,264,46812,2,0,L|464:72,1,170.999994781494,2|8,0:0|0:1,0:0:0:0:
344,96,47193,1,8,0:0:0:0:
224,120,47320,6,0,P|120:64|96:-8,2,170.999994781494,8|8|8,0:0|0:3|0:0,0:0:0:0:
392,328,48083,2,0,L|496:320,1,85.4999973907472,8|0,0:1|0:0,0:0:0:0:
368,288,48337,6,0,L|264:272,1,85.4999973907472,8|0,0:0|0:0,0:0:0:0:
168,248,48591,2,0,L|208:160,1,85.4999973907472,8|0,0:3|0:0,0:0:0:0:
96,160,48846,2,0,P|48:72|120:40,1,170.999994781494,8|8,0:0|0:1,0:0:0:0:
440,224,49354,6,0,L|288:96,2,170.999994781494,8|8|8,0:0|0:3|0:0,0:0:0:0:
176,328,50117,2,0,L|168:232,1,85.4999973907472,8|0,0:0|0:0,0:0:0:0:
400,192,50371,6,0,L|504:192,2,85.4999973907472,8|0|8,0:0|0:0|0:3,0:0:0:0:
64,216,50879,1,0,0:0:0:0:
24,144,51007,1,0,0:0:0:0:
48,64,51134,1,0,0:0:0:0:
136,48,51261,1,0,0:0:0:0:
360,48,51388,6,0,P|432:80|464:176,1,170.999994781494,4|8,0:0|0:0,0:0:0:0:
240,312,51896,1,8,0:1:0:0:
408,320,52151,2,0,L|224:280,1,170.999994781494,8|8,0:0|0:0,0:0:0:0:
456,256,52659,2,0,P|504:176|440:128,1,170.999994781494,8|8,0:0|0:1,0:0:0:0:
368,112,53040,1,8,0:0:0:0:
456,80,53168,1,8,0:0:0:0:
56,296,53422,6,0,P|32:184|96:152,1,170.999994781494,4|8,0:0|0:0,0:0:0:0:
297,293,53930,2,0,P|360:226|324:157,1,170.999994781494,8|8,0:1|0:0,0:0:0:0:
144,144,54439,6,0,L|256:144,2,85.4999973907472,8|0|8,0:0|0:0|0:0,0:0:0:0:
384,320,54947,1,8,0:1:0:0:
480,272,55074,1,8,0:0:0:0:
480,184,55202,1,8,0:0:0:0:
64,224,55456,6,0,P|40:120|152:48,1,256.499992172241,4|8,0:0|0:0,0:0:0:0:
256,48,55964,1,8,0:1:0:0:
88,128,56218,1,8,0:0:0:0:
456,312,56473,6,0,L|296:208,2,170.999994781494,4|8|8,0:1|0:0|0:0,0:0:0:0:
208,328,57235,2,0,L|104:328,1,85.4999973907472,8|8,0:1|0:0,0:0:0:0:
312,224,57490,6,0,P|416:192|448:112,1,170.999994781494,4|8,0:1|0:1,0:0:0:0:
256,224,57998,2,0,P|144:168|136:112,1,170.999994781494,8|8,0:0|0:1,0:0:0:0:
248,168,58379,2,0,P|296:88|224:40,1,170.999994781494,8|8,0:0|0:0,0:0:0:0:
136,40,58761,2,0,L|32:80,2,85.4999973907472,8|8|8,0:1|0:0|0:0,0:0:0:0:
280,120,59142,1,0,0:0:0:0:
184,104,59269,1,8,0:0:0:0:
88,88,59396,1,0,0:0:0:0:
416,328,59524,6,0,P|464:240|400:208,1,170.999994781494,8|0,0:1|0:0,0:0:0:0:
192,216,59905,2,8,L|328:72,1,170.999994781494,8|0,0:1|0:0,0:0:0:0:
56,80,60286,1,8,0:1:0:0:
408,344,60540,6,0,P|480:288|384:200,1,256.499992172241,4|0,0:1|0:0,0:0:0:0:
472,192,61049,1,0,0:0:0:0:
240,72,61176,1,0,0:0:0:0:
264,63,61207,1,0,0:0:0:0:
290,60,61239,1,0,0:0:0:0:
316,62,61271,1,0,0:0:0:0:
341,70,61303,1,0,0:0:0:0:
363,84,61334,1,0,0:0:0:0:
382,101,61366,1,0,0:0:0:0:
397,123,61398,1,0,0:0:0:0:
406,147,61430,1,0,0:0:0:0:
111,191,61557,6,0,L|80:280,1,95,4|0,0:1|0:0,0:0:0:0:
204,168,61812,2,0,L|108:192,1,95,8|0,0:3|0:0,0:0:0:0:
312,224,62066,2,0,L|336:320,1,95,8|0,0:0|0:0,0:0:0:0:
136,296,62320,1,8,0:3:0:0:
384,192,62447,6,0,P|384:280|296:280,1,190,8|8,0:0|0:0,0:0:0:0:
424,280,62829,2,0,L|456:184,1,95,8|8,0:3|0:0,0:0:0:0:
320,48,63083,2,0,L|288:144,1,95,8|0,0:0|0:0,0:0:0:0:
424,160,63337,2,0,L|328:128,1,95,8|0,0:3|0:0,0:0:0:0:
112,240,63591,6,0,P|200:240|264:320,1,190,8|8,0:0|0:3,0:0:0:0:
168,320,63973,2,0,L|72:296,2,95,0|8|0,0:0|0:0|0:0,0:0:0:0:
288,192,64354,1,8,0:3:0:0:
80,80,64481,6,0,P|16:128|88:184,1,190,8|8,0:0|0:0,0:0:0:0:
224,40,64863,2,8,L|336:64,1,95,8|8,0:3|0:0,0:0:0:0:
200,216,65117,2,0,L|104:192,1,95,8|0,0:0|0:0,0:0:0:0:
328,192,65371,2,0,L|432:216,1,95,8|0,0:3|0:0,0:0:0:0:
160,216,65625,6,0,L|136:312,1,95,8|0,0:0|0:0,0:0:0:0:
336,48,65879,2,0,L|312:144,1,95,8|0,0:3|0:0,0:0:0:0:
120,48,66134,2,0,L|96:152,1,95,8|0,0:0|0:0,0:0:0:0:
328,152,66388,1,8,0:3:0:0:
64,192,66515,6,0,L|32:288,2,95,8|0|8,0:0|0:0|0:0,0:0:0:0:
208,256,66896,2,0,L|312:280,1,95,8|8,0:3|0:0,0:0:0:0:
496,48,67151,2,0,L|456:136,1,95,8|0,0:0|0:0,0:0:0:0:
240,48,67405,2,0,L|200:144,1,95,8|0,0:3|0:0,0:0:0:0:
432,208,67659,6,0,P|344:208|280:288,2,190,8|8|8,0:0|0:3|0:0,0:0:0:0:
304,144,68295,1,0,0:0:0:0:
400,168,68422,2,0,L|496:192,1,95,8|8,0:3|0:0,0:0:0:0:
248,56,68676,6,0,L|152:80,1,95,0|8,0:0|0:0,0:0:0:0:
280,192,68930,2,0,L|312:296,1,95,8|8,0:3|0:0,0:0:0:0:
184,192,69185,2,0,L|216:296,1,95,8|0,0:0|0:0,0:0:0:0:
400,248,69439,2,0,L|504:272,1,95,8|0,0:3|0:0,0:0:0:0:
256,72,69693,6,0,L|160:96,1,95,4|0,0:1|0:0,0:0:0:0:
280,192,69947,2,0,P|360:152|448:192,2,190,8|8|8,0:3|0:0|0:3,0:0:0:0:
384,192,70583,1,8,0:0:0:0:
168,56,70710,6,0,L|136:152,1,95,0|8,0:0|0:0,0:0:0:0:
272,56,70964,2,0,L|392:40,1,95,8|8,0:3|0:0,0:0:0:0:
328,192,71218,2,0,L|224:216,1,95,8|0,0:0|0:0,0:0:0:0:
432,192,71473,2,0,L|464:296,1,95,8|0,0:3|0:0,0:0:0:0:
216,56,71727,6,0,L|120:80,1,95,8|0,0:0|0:0,0:0:0:0:
224,136,71981,2,0,P|320:136|376:208,2,190,8|8|8,0:3|0:0|0:3,0:0:0:0:
440,120,72617,6,0,P|496:192|440:256,1,190,8|8,0:0|0:0,0:0:0:0:
344,264,72998,2,0,L|248:288,1,95,8|8,0:3|0:0,0:0:0:0:
376,264,73252,2,0,L|408:360,1,95,8|0,0:0|0:0,0:0:0:0:
288,192,73507,1,8,0:3:0:0:
472,192,73634,1,0,0:0:0:0:
240,256,73761,6,0,P|144:256|96:336,1,190,8|8,0:0|0:3,0:0:0:0:
192,328,74142,1,0,0:0:0:0:
80,56,74269,2,0,L|48:152,1,95,8|0,0:0|0:0,0:0:0:0:
176,72,74524,2,0,L|272:96,1,95,8|8,0:3|0:0,0:0:0:0:
80,192,74778,6,0,L|48:288,1,95,0|8,0:0|0:0,0:0:0:0:
160,192,75032,1,8,0:3:0:0:
272,248,75159,2,0,P|184:288|104:248,1,190,8|0,0:0|0:0,0:0:0:0:
304,80,75540,2,0,L|400:104,1,95,8|0,0:3|0:0,0:0:0:0:
136,48,75795,6,0,L|104:144,1,95,8|0,0:0|0:0,0:0:0:0:
232,232,76049,2,0,P|152:192|64:240,2,190,8|8|8,0:3|0:0|0:0,0:0:0:0:
328,256,76685,1,0,0:0:0:0:
88,56,76812,6,0,L|32:152,2,95,2|8|8,0:1|0:0|0:3,0:0:0:0:
184,56,77193,1,0,0:0:0:0:
408,56,77320,1,0,0:0:0:0:
144,192,77447,2,0,P|80:248|152:304,1,190,0|0,0:0|0:0,0:0:0:0:
408,192,77829,6,0,L|440:288,1,95,4|0,0:1|0:0,0:0:0:0:
312,136,78083,2,0,L|216:160,1,95,8|0,0:3|0:0,0:0:0:0:
416,184,78338,2,0,L|448:280,1,95,8|0,0:0|0:0,0:0:0:0:
200,208,78592,1,8,0:3:0:0:
440,192,78718,6,0,P|495:259|432:320,1,190,8|8,0:0|0:0,0:0:0:0:
304,40,79101,2,0,L|328:136,1,95,8|8,0:3|0:0,0:0:0:0:
464,32,79355,2,0,L|488:128,1,95,8|0,0:0|0:0,0:0:0:0:
248,120,79609,2,0,L|152:144,1,95,8|0,0:3|0:0,0:0:0:0:
368,192,79863,6,0,P|272:192|216:264,1,190,8|8,0:0|0:3,0:0:0:0:
312,272,80245,1,0,0:0:0:0:
216,260,80371,2,0,L|104:244,2,95,8|0|8,0:0|0:0|0:3,0:0:0:0:
408,136,80753,6,0,P|472:192|408:248,1,190,8|8,0:0|0:0,0:0:0:0:
288,192,81134,2,0,L|392:216,2,95,8|8|8,0:3|0:0|0:0,0:0:0:0:
408,72,81515,1,0,0:0:0:0:
216,144,81643,2,0,L|120:120,1,95,8|0,0:3|0:0,0:0:0:0:
392,192,81897,6,0,L|432:280,1,95,8|0,0:0|0:0,0:0:0:0:
232,192,82151,2,0,L|200:288,1,95,8|0,0:3|0:0,0:0:0:0:
400,56,82405,2,0,L|376:160,1,95,8|0,0:0|0:0,0:0:0:0:
240,48,82660,1,8,0:3:0:0:
456,192,82787,6,0,L|496:288,2,95,8|0|8,0:0|0:0|0:0,0:0:0:0:
256,256,83168,2,0,L|152:232,1,95,8|8,0:3|0:0,0:0:0:0:
24,88,83423,2,0,L|88:176,1,95,8|0,0:0|0:0,0:0:0:0:
320,40,83676,1,8,0:3:0:0:
233,100,83803,1,0,0:0:0:0:
271,198,83930,1,8,0:0:0:0:
376,183,84057,1,0,0:0:0:0:
136,280,84185,6,0,P|208:336|272:280,1,190,8|8,0:3|0:0,0:0:0:0:
176,136,84566,2,0,L|272:160,1,95,0|8,0:0|0:3,0:0:0:0:
144,128,84820,1,8,0:0:0:0:
368,192,84947,6,0,L|416:296,1,95,8|0,0:0|0:0,0:0:0:0:
264,184,85202,2,0,L|312:296,1,95,8|8,0:3|0:0,0:0:0:0:
440,176,85457,2,0,L|328:200,1,95,8|0,0:0|0:0,0:0:0:0:
152,288,85711,2,0,L|48:312,1,95,8|0,0:3|0:0,0:0:0:0:
304,56,85965,6,0,P|400:56|464:120,2,190,4|8|8,0:1|0:3|0:0,0:0:0:0:
152,192,86727,2,0,L|104:280,1,95,8|8,0:3|0:0,0:0:0:0:
304,232,86982,6,0,L|400:264,1,95,0|8,0:0|0:0,0:0:0:0:
272,48,87235,2,0,L|368:80,1,95,8|8,0:3|0:0,0:0:0:0:
240,128,87490,2,0,L|144:96,2,95,8|0|8,0:0|0:0|0:3,0:0:0:0:
112,192,87871,1,8,0:0:0:0:
360,192,87998,6,0,P|424:248|352:296,1,190,4|8,0:1|0:3,0:0:0:0:
24,192,88507,6,0,P|24:280|112:280,1,190,4|8,0:1|0:3,0:0:0:0:
448,264,89015,6,0,P|368:224|280:264,1,190,4|8,0:1|0:3,0:0:0:0:
88,80,89524,5,8,0:0:0:0:
208,128,89651,1,0,0:0:0:0:
84,191,89778,2,0,L|108:287,1,95,8|8,0:1|0:0,0:0:0:0:
368,320,90032,6,0,P|456:320|456:232,1,190,4|8,0:1|0:3,0:0:0:0:
264,104,90413,1,0,0:0:0:0:
169,149,90540,1,8,0:0:0:0:
200,249,90667,1,0,0:0:0:0:
304,234,90794,1,8,0:3:0:0:
168,64,90922,1,8,0:0:0:0:
408,168,91049,6,0,L|448:264,1,95,0|8,0:0|0:0,0:0:0:0:
312,176,91303,2,0,L|352:272,1,95,8|8,0:3|0:0,0:0:0:0:
480,288,91557,2,0,P|408:344|336:296,1,190,8|8,0:0|0:3,0:0:0:0:
432,336,91939,1,8,0:0:0:0:
144,112,92066,6,0,L|128:144,6,23.75,0|0|0|0|0|0|0,0:0|0:0|0:0|0:0|0:0|0:0|0:0,0:0:0:0:
352,40,92320,2,0,L|456:40,1,95,4|0,0:1|0:0,0:0:0:0:
328,120,92574,2,0,L|304:176,2,47.5,8|8|8,0:0|0:0|0:0,0:0:0:0:
448,120,92829,1,8,0:3:0:0:
80,192,93083,6,0,P|80:280|168:280,1,190,4|8,0:1|0:1,0:0:0:0:
392,240,93464,2,0,P|312:192|240:248,1,190,4|8,0:1|0:0,0:0:0:0:
344,240,93846,1,8,0:0:0:0:
242,242,93973,1,8,0:0:0:0:
464,208,94100,6,0,L|456:88,1,95,4|0,0:0|0:0,0:0:0:0:
336,304,94354,2,0,L|344:192,1,95,8|0,0:1|0:0,0:0:0:0:
464,208,94608,2,0,L|240:176,1,190,8|8,0:0|0:1,0:0:0:0:
136,144,94990,6,0,L|328:128,1,190,8|8,0:0|0:0,0:0:0:0:
176,336,95371,2,0,P|128:240|192:216,1,190,8|8,0:1|0:0,0:0:0:0:
304,192,95752,1,0,0:0:0:0:
184,144,95879,1,8,0:1:0:0:
304,112,96007,1,8,0:0:0:0:
72,344,96134,6,0,L|64:224,1,95,8|0,0:0|0:0,0:0:0:0:
176,248,96388,2,0,L|184:152,1,95,8|0,0:1|0:0,0:0:0:0:
56,160,96642,2,0,L|176:160,2,95,8|0|8,0:0|0:0|0:1,0:0:0:0:
304,328,97024,6,0,P|344:224|280:216,1,190,2|8,0:1|0:0,0:0:0:0:
160,184,97405,2,0,L|376:184,2,190,10|2|8,0:1|0:1|0:1,0:0:0:0:
480,320,98168,6,0,L|488:224,1,95,2|0,0:1|0:0,0:0:0:0:
376,232,98422,2,0,L|360:128,1,95,8|0,0:1|0:0,0:0:0:0:
248,136,98676,2,0,L|472:120,1,190,8|8,0:0|0:1,0:0:0:0:
296,336,99057,6,0,L|64:312,1,190,8|8,0:0|0:0,0:0:0:0:
200,256,99439,2,0,L|208:136,1,95,8|0,0:1|0:0,0:0:0:0:
96,128,99693,2,0,L|208:128,1,95,8|0,0:0|0:0,0:0:0:0:
320,136,99947,2,0,L|432:136,1,95,8|0,0:1|0:0,0:0:0:0:
192,304,100202,6,0,L|-16:280,2,190,8|8|8,0:0|0:1|0:0,0:0:0:0:
48,336,100964,1,8,0:1:0:0:
296,344,101091,6,0,P|352:264|280:224,1,190,8|8,0:0|0:0,0:0:0:0:
176,208,101473,2,0,L|72:200,2,95,8|8|8,0:1|0:0|0:0,0:0:0:0:
296,160,101854,1,8,0:0:0:0:
192,136,101981,1,8,0:1:0:0:
96,120,102108,1,8,0:0:0:0:
416,344,102235,6,0,L|424:216,1,95,4|0,0:0|0:0,0:0:0:0:
312,264,102490,2,0,L|304:160,1,95,8|0,0:1|0:0,0:0:0:0:
416,128,102744,2,0,L|216:120,1,190,8|8,0:0|0:1,0:0:0:0:
336,320,103125,6,0,P|392:248|320:184,1,190,8|8,0:0|0:0,0:0:0:0:
208,152,103507,2,0,L|424:136,1,190,8|8,0:1|0:0,0:0:0:0:
288,320,103888,1,8,0:0:0:0:
288,224,104015,1,8,0:1:0:0:
400,216,104142,1,8,0:0:0:0:
80,184,104269,6,0,L|280:112,2,190,8|8|8,0:0|0:1|0:0,0:0:0:0:
304,256,105032,1,8,0:1:0:0:
88,336,105159,6,0,P|48:232|120:224,1,190,2|8,0:1|0:0,0:0:0:0:
192,200,105540,2,0,L|304:192,1,95,8|0,0:1|0:0,0:0:0:0:
168,120,105795,2,0,L|56:112,1,95,8|0,0:0|0:0,0:0:0:0:
352,328,106049,2,0,L|464:320,1,95,8|0,0:1|0:0,0:0:0:0:
224,272,106303,6,0,P|160:224|224:224,2,190,2|8|8,0:1|0:1|0:0,0:0:0:0:
448,328,107066,2,8,L|328:320,1,95,8|0,0:1|0:0,0:0:0:0:
72,272,107320,5,2,0:1:0:0:
176,248,107447,1,0,0:0:0:0:
272,224,107574,1,8,0:1:0:0:
144,224,107702,2,0,P|88:144|184:104,1,190,8|0,0:0|0:0,0:0:0:0:
368,96,108083,2,0,L|480:112,1,95,8|0,0:1|0:0,0:0:0:0:
224,312,108337,6,0,L|0:344,1,190,4|8,0:1|0:1,0:0:0:0:
288,328,108846,2,0,L|296:216,1,95,8|0,0:0|0:0,0:0:0:0:
192,224,109100,1,8,0:1:0:0:
472,160,109227,6,0,L|248:144,1,190,4|8,0:1|0:0,0:0:0:0:
184,304,109608,1,8,0:1:0:0:
288,280,109735,1,0,0:0:0:0:
392,248,109863,1,8,0:0:0:0:
288,208,109990,1,0,0:0:0:0:
288,112,110117,1,8,0:0:0:0:
392,88,110244,1,0,0:0:0:0:
88,88,110371,6,0,L|280:112,2,190,4|8|8,0:0|0:3|0:0,0:0:0:0:
288,40,111134,2,0,P|352:96|280:152,1,190,8|0,0:1|0:0,0:0:0:0:
200,192,111515,1,0,0:0:0:0:
128,152,111642,1,8,0:3:0:0:
312,296,111896,2,0,P|359:284|368:240,1,95,0|0,0:0|0:0,0:0:0:0:
208,192,112151,1,8,0:1:0:0:
448,192,112278,1,0,0:0:0:0:
352,40,112405,6,0,L|160:64,2,190,8|8|8,0:0|0:3|0:0,0:0:0:0:
160,184,113168,2,0,P|160:272|248:272,1,190,8|0,0:1|0:0,0:0:0:0:
344,128,113549,1,8,0:0:0:0:
316,130,113676,1,8,0:3:0:0:
120,192,113930,2,0,P|208:192|272:264,1,190,8|8,0:0|0:1,0:0:0:0:
176,264,114312,1,0,0:0:0:0:
400,296,114439,6,0,L|208:344,2,190,8|8|8,0:0|0:3|0:0,0:0:0:0:
152,48,115202,2,0,L|96:136,1,95,8|8,0:1|0:0,0:0:0:0:
224,48,115456,2,0,L|288:136,1,95,0|8,0:0|0:0,0:0:0:0:
152,128,115710,1,8,0:3:0:0:
384,80,115964,2,0,P|472:80|472:168,1,190,8|8,0:0|0:1,0:0:0:0:
376,168,116346,1,0,0:0:0:0:
168,232,116473,6,0,P|104:280|168:344,1,190,8|8,0:0|0:3,0:0:0:0:
360,48,116981,2,0,L|328:144,1,95,8|0,0:0|0:0,0:0:0:0:
472,160,117235,1,8,0:1:0:0:
368,192,117363,1,0,0:0:0:0:
264,224,117490,5,2,0:1:0:0:
160,248,117617,2,0,L|184:352,1,95,0|8,0:0|0:3,0:0:0:0:
288,320,117871,1,0,0:0:0:0:
144,144,117998,1,8,0:0:0:0:
256,144,118125,1,0,0:0:0:0:
136,72,118252,1,8,0:0:0:0:
264,72,118379,1,0,0:0:0:0:
64,192,118507,6,0,P|64:312|248:312,1,341.999989562989,4|8,0:0|0:1,0:0:0:0:
104,48,119269,2,0,L|144:128,1,85.4999973907472,8|0,0:0|0:0,0:0:0:0:
288,120,119524,6,0,L|336:200,1,85.4999973907472,8|0,0:0|0:0,0:0:0:0:
192,176,119778,2,0,L|136:248,1,85.4999973907472,8|0,0:0|0:0,0:0:0:0:
272,320,120032,2,0,P|192:352|112:320,1,170.999994781494,8|8,0:1|0:0,0:0:0:0:
432,144,120540,6,0,P|488:192|424:248,1,170.999994781494,4|8,0:0|0:0,0:0:0:0:
224,160,121049,2,0,P|168:208|232:264,1,170.999994781494,8|8,0:1|0:0,0:0:0:0:
304,160,121430,1,0,0:0:0:0:
96,232,121557,6,0,L|272:280,2,170.999994781494,8|8|8,0:0|0:0|0:1,0:0:0:0:
328,64,122320,2,0,L|424:80,1,85.4999973907472,8|0,0:0|0:0,0:0:0:0:
200,192,122574,6,0,P|280:232|368:184,1,190,4|8,0:1|0:0,0:0:0:0:
264,232,122956,1,0,0:0:0:0:
463,215,123083,2,0,L|479:311,1,95,8|0,0:0|0:0,0:0:0:0:
344,312,123337,1,8,0:1:0:0:
479,309,123464,1,8,0:0:0:0:
280,48,123591,6,0,P|216:104|288:152,1,190,0|8,0:0|0:1,0:0:0:0:
136,192,123973,2,0,L|72:272,2,95,8|8|0,0:0|0:0|0:0,0:0:0:0:
272,192,124354,1,8,0:1:0:0:
136,192,124481,1,0,0:0:0:0:
352,80,124608,6,0,L|160:120,2,190,8|8|8,0:0|0:1|0:0,0:0:0:0:
96,192,125371,2,0,L|120:296,1,95,8|8,0:1|0:0,0:0:0:0:
328,256,125625,6,0,L|432:232,1,95,0|8,0:0|0:0,0:0:0:0:
304,32,125879,1,8,0:1:0:0:
363,97,126006,1,8,0:0:0:0:
318,173,126133,1,8,0:0:0:0:
232,152,126260,1,0,0:0:0:0:
360,256,126388,1,8,0:1:0:0:
160,248,126515,1,8,0:0:0:0:
400,192,126642,6,0,P|464:248|392:304,1,190,8|8,0:1|0:1,0:0:0:0:
200,104,127024,2,8,P|280:64|360:120,1,190,4|8,0:1|0:0,0:0:0:0:
104,192,127405,6,0,P|40:240|112:296,1,190,4|8,0:1|0:0,0:0:0:0:
224,216,127786,2,0,L|320:232,1,95,8|8,0:1|0:0,0:0:0:0:
176,40,128040,1,0,0:0:0:0:
296,48,128167,1,8,0:0:0:0:
376,72,128294,1,0,0:0:0:0:
168,192,128422,1,8,0:0:0:0:
360,192,128549,1,0,0:0:0:0:
112,136,128676,6,0,P|24:136|24:224,1,190,8|0,0:1|0:0,0:0:0:0:
311,137,129057,2,0,P|207:89|108:140,1,227.999993041992,8|0,0:0|0:0,0:0:0:0:
344,208,129439,2,0,L|232:216,1,95,8|0,0:1|0:0,0:0:0:0:
496,296,129693,6,0,P|416:248|336:304,1,190,4|0,0:1|0:0,0:0:0:0:
424,320,130074,1,8,0:0:0:0:
184,64,130202,1,0,0:0:0:0:
206,56,130233,1,0,0:0:0:0:
229,51,130265,1,0,0:0:0:0:
253,50,130297,1,0,0:0:0:0:
276,53,130329,1,0,0:0:0:0:
299,59,130360,1,0,0:0:0:0:
321,69,130392,1,0,0:0:0:0:
341,82,130424,1,0,0:0:0:0:
359,98,130456,1,0,0:0:0:0:
374,116,130488,1,0,0:0:0:0:
386,136,130519,1,0,0:0:0:0:
395,158,130551,1,0,0:0:0:0:
400,182,130583,1,0,0:0:0:0:
104,296,130710,6,0,L|0:288,1,104.500003189087,4|0,0:1|0:0,0:0:0:0:
272,328,130964,2,0,L|384:320,1,104.500003189087,8|0,0:3|0:0,0:0:0:0:
176,256,131218,2,0,L|168:136,1,104.500003189087,8|0,0:0|0:0,0:0:0:0:
280,136,131473,1,8,0:3:0:0:
64,144,131600,6,0,P|16:80|120:32,1,209.000006378174,8|8,0:0|0:0,0:0:0:0:
208,280,131981,2,0,L|88:272,1,104.500003189087,8|8,0:3|0:0,0:0:0:0:
232,352,132235,2,0,L|240:232,1,104.500003189087,8|0,0:0|0:0,0:0:0:0:
128,208,132490,2,0,L|248:200,1,104.500003189087,8|0,0:3|0:0,0:0:0:0:
472,224,132744,6,0,L|256:192,2,209.000006378174,8|8|8,0:0|0:3|0:0,0:0:0:0:
232,312,133507,1,8,0:3:0:0:
448,288,133634,6,0,P|512:208|416:160,1,209.000006378174,8|8,0:0|0:0,0:0:0:0:
224,232,134015,2,8,L|216:120,1,104.500003189087,8|8,0:3|0:0,0:0:0:0:
320,160,134269,2,0,L|328:48,1,104.500003189087,8|0,0:0|0:0,0:0:0:0:
80,64,134524,2,0,L|200:64,1,104.500003189087,8|0,0:3|0:0,0:0:0:0:
432,336,134778,6,0,L|440:216,1,104.500003189087,8|0,0:0|0:0,0:0:0:0:
192,192,135032,2,0,L|72:184,1,104.500003189087,8|0,0:3|0:0,0:0:0:0:
344,112,135286,2,0,L|456:96,1,104.500003189087,8|0,0:0|0:0,0:0:0:0:
192,280,135540,1,8,0:3:0:0:
440,344,135668,6,0,P|496:272|384:232,1,209.000006378174,8|8,0:0|0:0,0:0:0:0:
168,216,136049,2,0,L|176:88,1,104.500003189087,8|8,0:3|0:0,0:0:0:0:
296,128,136303,2,0,L|304:0,1,104.500003189087,8|0,0:0|0:0,0:0:0:0:
432,128,136557,2,0,L|320:128,1,104.500003189087,8|0,0:3|0:0,0:0:0:0:
72,312,136812,6,0,L|296:248,2,209.000006378174,8|8|8,0:0|0:3|0:0,0:0:0:0:
192,320,137447,1,0,0:0:0:0:
64,296,137574,2,0,L|56:176,1,104.500003189087,8|8,0:3|0:0,0:0:0:0:
304,176,137829,6,0,L|320:48,1,104.500003189087,0|8,0:0|0:0,0:0:0:0:
192,144,138083,2,0,L|176:16,1,104.500003189087,8|8,0:3|0:0,0:0:0:0:
288,256,138337,2,0,L|160:248,1,104.500003189087,8|0,0:0|0:0,0:0:0:0:
408,344,138591,2,0,L|520:328,1,104.500003189087,8|0,0:3|0:0,0:0:0:0:
264,320,138846,6,0,L|56:264,2,209.000006378174,4|8|8,0:1|0:3|0:0,0:0:0:0:
104,320,139608,2,0,L|88:184,1,104.500003189087,8|8,0:3|0:0,0:0:0:0:
392,160,139863,6,0,L|264:144,1,104.500003189087,0|8,0:0|0:0,0:0:0:0:
408,312,140117,2,0,L|416:192,1,104.500003189087,8|8,0:3|0:0,0:0:0:0:
296,216,140371,2,0,L|288:88,1,104.500003189087,8|0,0:0|0:0,0:0:0:0:
488,72,140625,2,0,L|344:56,1,104.500003189087,8|0,0:3|0:0,0:0:0:0:
96,280,140879,6,0,L|328:256,1,209.000006378174,8|8,0:0|0:3,0:0:0:0:
72,216,141388,2,0,P|40:120|136:72,1,209.000006378174,8|8,0:0|0:3,0:0:0:0:
256,216,141769,6,0,L|40:192,1,209.000006378174,8|8,0:0|0:0,0:0:0:0:
136,280,142151,2,0,L|240:272,2,104.500003189087,8|8|8,0:3|0:0|0:0,0:0:0:0:
320,336,142659,1,8,0:3:0:0:
224,336,142786,1,0,0:0:0:0:
456,264,142913,6,0,P|496:200|400:120,1,209.000006378174,8|8,0:0|0:3,0:0:0:0:
144,256,143295,2,8,P|112:160|216:128,1,209.000006378174,0|0,0:0|0:0,0:0:0:0:
320,104,143676,2,0,L|208:88,1,104.500003189087,8|8,0:3|0:0,0:0:0:0:
16,176,143930,5,0,0:0:0:0:
128,184,144057,2,0,L|344:216,1,209.000006378174,8|8,0:0|0:0,0:0:0:0:
240,352,144439,2,0,L|232:248,1,104.500003189087,8|0,0:0|0:0,0:0:0:0:
472,224,144693,6,0,P|440:128|336:96,1,209.000006378174,8|2,0:3|0:1,0:0:0:0:
88,336,145202,2,0,P|40:216|104:144,1,209.000006378174,8|8,0:3|0:0,0:0:0:0:
360,256,145710,2,0,L|368:136,1,104.500003189087,8|0,0:3|0:0,0:0:0:0:
144,320,145964,6,0,P|48:256|56:136,1,209.000006378174,2|8,0:1|0:3,0:0:0:0:
152,160,146346,1,0,0:0:0:0:
392,128,146473,1,8,0:0:0:0:
200,80,146600,1,0,0:0:0:0:
304,224,146727,2,0,L|312:88,1,104.500003189087,8|0,0:0|0:0,0:0:0:0:
72,328,146981,6,0,L|64:216,1,104.500003189087,4|0,0:1|0:0,0:0:0:0:
288,208,147235,2,0,L|424:200,1,104.500003189087,8|0,0:3|0:0,0:0:0:0:
160,80,147490,2,0,L|296:72,1,104.500003189087,8|0,0:0|0:0,0:0:0:0:
488,64,147744,1,8,0:3:0:0:
264,320,147871,6,0,P|144:280|80:200,1,209.000006378174,8|8,0:0|0:0,0:0:0:0:
200,224,148252,2,0,L|208:104,1,104.500003189087,8|8,0:3|0:0,0:0:0:0:
88,152,148507,2,0,L|80:40,1,104.500003189087,8|0,0:0|0:0,0:0:0:0:
208,224,148761,2,0,L|64:216,1,104.500003189087,8|0,0:3|0:0,0:0:0:0:
392,344,149015,6,0,P|464:280|360:224,1,209.000006378174,8|8,0:0|0:3,0:0:0:0:
224,232,149524,2,0,L|208:96,1,104.500003189087,0|0,0:0|0:0,0:0:0:0:
320,120,149778,1,8,0:3:0:0:
64,304,149905,6,0,L|288:288,1,209.000006378174,8|8,0:0|0:0,0:0:0:0:
176,248,150286,2,8,L|32:240,1,104.500003189087,8|8,0:3|0:0,0:0:0:0:
304,320,150540,2,0,L|312:192,1,104.500003189087,8|0,0:0|0:0,0:0:0:0:
192,232,150795,2,0,L|184:120,1,104.500003189087,8|0,0:3|0:0,0:0:0:0:
448,216,151049,6,0,L|456:96,1,104.500003189087,8|0,0:0|0:0,0:0:0:0:
208,104,151303,2,0,L|352:96,1,104.500003189087,8|0,0:3|0:0,0:0:0:0:
80,312,151557,2,0,L|72:200,1,104.500003189087,8|0,0:0|0:0,0:0:0:0:
312,184,151812,1,8,0:3:0:0:
72,176,151939,6,0,P|24:80|120:40,1,209.000006378174,8|8,0:0|0:0,0:0:0:0:
368,232,152320,2,0,L|240:224,1,104.500003189087,8|8,0:3|0:0,0:0:0:0:
464,344,152574,2,0,L|344:336,1,104.500003189087,8|0,0:0|0:0,0:0:0:0:
104,320,152829,6,0,P|16:240|32:112,1,209.000006378174,8|8,0:3|0:0,0:0:0:0:
376,320,153337,2,0,P|496:240|496:160,1,209.000006378174,8|8,0:3|0:0,0:0:0:0:
384,168,153718,1,0,0:0:0:0:
280,120,153846,1,8,0:3:0:0:
384,88,153973,1,8,0:0:0:0:
176,328,154100,6,0,L|152:200,1,104.500003189087,8|0,0:0|0:0,0:0:0:0:
280,232,154354,2,0,L|256:104,1,104.500003189087,8|8,0:3|0:0,0:0:0:0:
384,104,154608,2,0,L|264:88,1,104.500003189087,8|0,0:0|0:0,0:0:0:0:
40,168,154863,2,0,L|160:168,1,104.500003189087,8|0,0:3|0:0,0:0:0:0:
464,304,155117,6,0,P|432:224|304:184,2,209.000006378174,4|8|8,0:1|0:3|0:0,0:0:0:0:
232,336,155879,2,0,P|136:312|120:296,1,104.500003189087,8|8,0:3|0:0,0:0:0:0:
384,296,156134,6,0,L|416:152,1,104.500003189087,0|8,0:0|0:0,0:0:0:0:
288,184,156388,2,0,L|304:32,1,104.500003189087,8|8,0:3|0:0,0:0:0:0:
176,48,156642,2,0,L|328:32,1,104.500003189087,8|0,0:0|0:0,0:0:0:0:
480,152,156896,1,8,0:3:0:0:
256,208,157024,1,8,0:0:0:0:
472,336,157151,6,0,P|456:216|344:192,1,209.000006378174,4|8,0:1|0:3,0:0:0:0:
272,192,157659,2,0,P|376:160|432:56,1,209.000006378174,4|8,0:1|0:3,0:0:0:0:
48,336,158168,6,0,P|16:200|80:144,1,209.000006378174,4|8,0:1|0:3,0:0:0:0:
312,144,158676,1,8,0:0:0:0:
208,120,158803,1,0,0:0:0:0:
448,240,158930,1,8,0:1:0:0:
240,304,159057,1,8,0:0:0:0:
40,280,159185,6,0,L|248:208,1,209.000006378174,4|8,0:1|0:3,0:0:0:0:
112,184,159566,2,0,P|64:104|152:56,1,209.000006378174,0|0,0:0|0:0,0:0:0:0:
248,48,159947,1,8,0:3:0:0:
144,24,160074,1,8,0:0:0:0:
408,344,160202,6,0,L|416:240,1,104.500003189087,0|8,0:0|0:0,0:0:0:0:
296,240,160456,2,0,L|184:240,1,104.500003189087,8|8,0:3|0:0,0:0:0:0:
320,184,160710,2,0,L|328:64,1,104.500003189087,8|0,0:0|0:0,0:0:0:0:
216,56,160964,1,8,0:3:0:0:
328,40,161091,1,0,0:0:0:0:
96,320,161218,6,0,P|40:232|128:168,1,209.000006378174,8|8,0:0|0:3,0:0:0:0:
328,336,161727,2,0,P|424:280|432:176,1,209.000006378174,8|8,0:0|0:3,0:0:0:0:
144,280,162108,6,0,P|72:248|40:112,1,209.000006378174,8|8,0:0|0:0,0:0:0:0:
136,112,162490,1,8,0:3:0:0:
40,88,162617,1,8,0:0:0:0:
312,336,162744,1,8,0:1:0:0:
424,312,162871,1,0,0:0:0:0:
480,240,162998,1,8,0:0:0:0:
488,136,163125,1,0,0:0:0:0:
256,192,163252,5,8,0:0:0:0:
432,192,163506,1,8,0:0:0:0:
200,48,163761,2,0,L|112:40,1,76,8|8,0:3|0:0,0:0:0:0:
160,144,164014,1,8,0:0:0:0:
256,232,164142,6,8,P|192:264|120:232,1,152,8|8,0:1|0:1,0:0:0:0:
264,160,164523,2,8,L|328:88,2,76,8|8|8,0:3|0:0|0:0,0:0:0:0:
184,96,164905,2,0,L|248:24,2,76,8|8|8,0:3|0:0|0:0,0:0:0:0:
56,96,165285,5,0,0:0:0:0:
288,192,165540,1,0,0:0:0:0:
80,200,165794,2,0,L|32:272,1,76,0|8,0:0|0:0,0:0:0:0:
136,264,166048,1,8,0:0:0:0:
37,263,166176,6,8,P|40:336|112:336,1,152,8|8,0:1|0:1,0:0:0:0:
200,128,166557,2,8,L|264:72,2,76,8|8|8,0:3|0:0|0:0,0:0:0:0:
120,120,166939,2,8,L|32:112,1,76,8|8,0:3|0:0,0:0:0:0:
400,192,167319,5,12,0:0:0:0:
232,192,167574,1,8,0:0:0:0:
376,40,167829,2,0,L|296:32,1,76,8|8,0:3|0:0,0:0:0:0:
392,120,168082,1,8,0:0:0:0:
480,208,168209,6,8,L|320:192,1,152,8|8,0:1|0:1,0:0:0:0:
232,280,168591,2,8,L|136:272,2,76,8|8|8,0:3|0:0|0:0,0:0:0:0:
328,344,168973,2,0,L|344:248,1,76,8|8,0:3|0:0,0:0:0:0:
216,192,169226,1,8,0:0:0:0:
88,192,169353,5,8,0:0:0:0:
248,80,169608,1,8,0:0:0:0:
120,80,169735,1,8,0:1:0:0:
187,110,169862,1,8,0:0:0:0:
216,178,169989,1,0,0:0:0:0:
189,248,170116,1,8,0:0:0:0:
122,279,170243,1,0,0:0:0:0:
352,56,170371,6,0,P|424:56|424:128,1,152,2|8,0:1|0:0,0:0:0:0:
240,56,170751,1,2,0:1:0:0:
456,192,171007,2,0,P|456:256|384:256,1,152,2|8,0:1|0:0,0:0:0:0:
176,192,171388,6,0,P|128:240|184:288,1,152,4|8,0:1|0:1,0:0:0:0:
256,192,171769,1,0,0:0:0:0:
136,48,171896,2,0,L|80:104,1,76,8|0,0:0|0:0,0:0:0:0:
176,120,172151,1,8,0:0:0:0:
272,160,172278,6,0,P|208:192|152:144,1,152,8|8,0:0|0:0,0:0:0:0:
288,248,172659,2,0,L|312:328,1,76,8|8,0:1|0:0,0:0:0:0:
168,216,172913,2,0,L|192:304,1,76,8|0,0:0|0:0,0:0:0:0:
40,192,173168,2,0,L|56:272,1,76,8|0,0:0|0:0,0:0:0:0:
248,96,173422,6,0,P|320:72|392:96,1,152,8|8,0:0|0:0,0:0:0:0:
272,144,173803,1,0,0:0:0:0:
392,336,173930,2,0,L|448:264,2,76,8|0|8,0:1|0:0|0:0,0:0:0:0:
280,192,174312,6,0,P|344:160|408:208,1,152,8|8,0:0|0:0,0:0:0:0:
256,40,174693,2,0,L|216:120,1,76,8|8,0:1|0:0,0:0:0:0:
368,56,174947,2,0,L|328:136,1,76,8|0,0:0|0:0,0:0:0:0:
480,48,175202,2,0,L|440:136,1,76,8|0,0:0|0:0,0:0:0:0:
248,176,175456,6,0,L|96:192,1,152,4|8,0:1|0:0,0:0:0:0:
192,184,175837,1,0,0:0:0:0:
80,200,175964,2,0,L|40:280,2,76,8|0|8,0:1|0:0|0:0,0:0:0:0:
176,184,176346,6,0,L|328:216,1,152,8|8,0:1|0:0,0:0:0:0:
184,48,176727,2,0,L|280:64,1,76,8|8,0:1|0:0,0:0:0:0:
128,112,176981,5,8,0:0:0:0:
48,184,177108,1,0,0:0:0:0:
184,208,177235,1,8,0:0:0:0:
320,232,177363,1,0,0:0:0:0:
96,320,177490,5,8,0:1:0:0:
96,320,177998,1,8,0:1:0:0:
376,192,178507,6,0,L|376:352,1,152,8|8,0:0|0:0,0:0:0:0:
136,192,178888,1,8,0:1:0:0:
346,140,179142,1,0,0:0:0:0:
325,120,179173,1,0,0:0:0:0:
299,106,179205,1,0,0:0:0:0:
273,98,179237,1,0,0:0:0:0:
244,95,179269,1,0,0:0:0:0:
216,99,179300,1,0,0:0:0:0:
189,109,179332,1,0,0:0:0:0:
165,124,179364,1,0,0:0:0:0:
145,143,179396,1,0,0:0:0:0:
392,280,179524,6,0,L|512:264,1,95,4|0,0:0|0:0,0:0:0:0:
248,336,179778,2,0,L|240:224,1,95,8|0,0:3|0:0,0:0:0:0:
344,200,180032,2,0,P|304:128|176:88,1,190,8|8,0:0|0:3,0:0:0:0:
320,80,180413,1,0,0:0:0:0:
136,344,180668,5,8,0:0:0:0:
99,259,180795,1,8,0:3:0:0:
134,173,180922,1,8,0:0:0:0:
219,138,181049,1,8,0:0:0:0:
304,175,181176,1,0,0:0:0:0:
216,240,181303,1,8,0:3:0:0:
304,288,181430,1,0,0:0:0:0:
56,352,181557,6,0,P|40:256|136:176,1,190,8|8,0:0|0:3,0:0:0:0:
200,168,181939,2,0,L|-8:152,1,190,8|8,0:0|0:0,0:0:0:0:
256,336,182320,1,8,0:3:0:0:
376,320,182447,6,0,P|416:240|344:168,1,190,8|8,0:0|0:0,0:0:0:0:
120,216,182829,2,8,L|128:104,1,95,8|8,0:3|0:0,0:0:0:0:
248,112,183083,2,0,L|384:104,1,95,8|0,0:0|0:0,0:0:0:0:
456,80,183337,2,0,L|352:72,1,95,8|0,0:3|0:0,0:0:0:0:
152,296,183591,6,0,L|344:256,2,190,8|8|8,0:0|0:3|0:0,0:0:0:0:
48,272,184227,1,0,0:0:0:0:
280,320,184354,2,0,L|264:208,1,95,8|8,0:3|0:0,0:0:0:0:
376,192,184608,5,0,0:0:0:0:
272,168,184735,1,8,0:0:0:0:
168,144,184863,1,8,0:3:0:0:
424,336,185117,1,8,0:0:0:0:
336,264,185244,1,0,0:0:0:0:
440,232,185371,2,0,L|456:104,1,95,8|0,0:3|0:0,0:0:0:0:
192,288,185625,6,0,P|168:176|208:168,1,190,8|8,0:0|0:3,0:0:0:0:
432,144,186007,1,0,0:3:0:0:
200,120,186134,2,0,L|88:120,1,95,0|0,0:3|0:3,0:0:0:0:
328,328,186388,1,4,0:1:0:0:
216,320,186515,6,0,P|80:224|64:176,1,190,0|0,0:0|0:0,0:0:0:0:
320,216,186896,1,8,0:0:0:0:
224,176,187024,1,0,0:0:0:0:
320,136,187151,1,8,0:0:0:0:
104,120,187278,1,0,0:0:0:0:
208,96,187405,1,8,0:0:0:0:
448,128,187532,1,0,0:0:0:0:
208,312,187659,6,0,L|200:200,1,95,4|0,0:0|0:0,0:0:0:0:
320,232,187913,2,0,L|328:120,1,95,8|0,0:3|0:0,0:0:0:0:
440,168,188168,2,0,L|440:48,1,95,8|0,0:0|0:0,0:0:0:0:
336,64,188422,1,8,0:3:0:0:
440,256,188549,6,0,L|216:248,1,190,8|8,0:0|0:0,0:0:0:0:
344,208,188930,2,0,L|456:200,1,95,8|8,0:3|0:0,0:0:0:0:
216,336,189185,2,0,L|200:232,1,95,8|0,0:0|0:0,0:0:0:0:
344,215,189439,2,0,L|448:199,1,95,8|0,0:3|0:0,0:0:0:0:
240,128,189693,6,0,L|432:104,1,190,8|8,0:0|0:3,0:0:0:0:
320,200,190074,1,0,0:0:0:0:
72,320,190202,2,0,P|48:216|128:176,1,190,8|8,0:0|0:3,0:0:0:0:
248,160,190583,6,0,L|256:32,1,95,8|0,0:0|0:0,0:0:0:0:
376,56,190837,1,8,0:0:0:0:
248,264,190964,2,0,L|128:256,1,95,8|8,0:3|0:0,0:0:0:0:
280,336,191218,2,0,L|392:336,1,95,8|0,0:0|0:0,0:0:0:0:
144,256,191473,6,0,L|128:136,1,95,8|0,0:3|0:0,0:0:0:0:
256,168,191727,2,0,L|272:40,1,95,8|0,0:0|0:0,0:0:0:0:
480,128,191981,2,0,L|360:120,1,95,8|0,0:3|0:0,0:0:0:0:
288,256,192235,2,0,L|280:120,1,95,8|0,0:0|0:0,0:0:0:0:
64,224,192490,6,0,L|184:216,1,95,8|8,0:3|0:0,0:0:0:0:
272,200,192744,2,0,L|288:96,1,95,0|8,0:0|0:0,0:0:0:0:
496,288,192998,2,0,L|360:272,1,95,8|8,0:3|0:0,0:0:0:0:
296,304,193252,2,0,L|288:184,1,95,8|0,0:0|0:0,0:0:0:0:
48,208,193507,2,0,L|32:80,1,95,8|0,0:3|0:0,0:0:0:0:
288,200,193761,6,0,L|504:176,1,190,2|8,0:1|0:3,0:0:0:0:
232,72,194269,2,0,L|432:48,1,190,8|8,0:0|0:3,0:0:0:0:
512,40,194651,1,0,0:0:0:0:
272,312,194778,5,2,0:1:0:0:
184,240,194905,1,8,0:0:0:0:
272,160,195032,1,8,0:1:0:0:
496,128,195159,1,0,0:0:0:0:
272,128,195286,1,8,0:0:0:0:
360,80,195413,1,0,0:0:0:0:
272,32,195540,1,8,0:0:0:0:
80,32,195668,1,0,0:0:0:0:
272,312,195795,6,0,P|288:208|224:200,1,190,8|0,0:1|0:0,0:0:0:0:
464,136,196176,2,8,P|416:64|288:48,1,190,0|0,0:0|0:0,0:0:0:0:
440,64,196557,1,8,0:1:0:0:
112,344,196812,6,0,P|64:208|176:168,1,285,4|0,0:1|0:0,0:0:0:0:
296,232,197320,1,0,0:0:0:0:
480,248,197447,2,0,P|504:160|472:48,1,190,0|0,0:0|0:0,0:0:0:0:
240,48,197829,6,0,P|400:152|112:152,1,760,4|8,0:1|0:0,0:0:0:0:
400,192,199227,1,8,0:0:0:0:
304,192,199354,2,0,L|112:192,1,190,8|8,0:0|0:0,0:0:0:0:
464,192,200117,5,4,0:1:0:0:
48,192,200625,5,4,0:1:0:0:
464,88,201134,5,4,0:1:0:0:
352,96,201261,1,0,0:0:0:0:
240,104,201388,1,8,0:0:0:0:
336,160,201515,2,0,L|224:176,2,95,0|8|0,0:0|0:0|0:0,0:0:0:0:
144,136,201896,6,0,P|96:216|152:288,1,190,8|8,0:0|0:0,0:0:0:0:
248,288,202278,1,8,0:0:0:0:
144,136,202405,2,0,P|95:217|152:288,1,190,8|0,0:1|0:0,0:0:0:0:
280,288,202786,1,8,0:0:0:0:
184,72,202913,6,0,P|88:72|24:144,1,190,8|8,0:0|0:0,0:0:0:0:
128,144,203295,1,8,0:0:0:0:
224,200,203422,2,0,P|144:240|56:200,1,190,8|8,0:0|0:0,0:0:0:0:
448,184,203930,6,0,P|448:272|360:272,1,190,4|8,0:1|0:0,0:0:0:0:
120,104,204312,2,0,P|56:160|128:208,1,190,4|0,0:1|0:0,0:0:0:0:
336,96,204693,6,0,P|424:96|424:184,1,190,8|8,0:1|0:0,0:0:0:0:
328,192,205074,1,0,0:0:0:0:
256,245,205201,1,8,0:0:0:0:
281,331,205328,1,0,0:0:0:0:
370,339,205455,1,8,0:0:0:0:
264,48,205583,2,0,L|376:40,1,95,0|8,0:0|0:0,0:0:0:0:
456,40,205837,1,0,0:0:0:0:
136,192,205964,6,0,P|48:224|80:296,1,190,8|8,0:1|0:0,0:0:0:0:
192,280,206346,1,8,0:0:0:0:
312,256,206473,1,8,0:1:0:0:
464,344,206727,2,0,L|488:248,1,95,8|0,0:0|0:0,0:0:0:0:
352,112,206981,6,0,L|256:120,1,95,8|0,0:0|0:0,0:0:0:0:
376,192,207235,2,0,L|344:296,1,95,0|0,0:0|0:0,0:0:0:0:
208,192,207490,2,0,L|176:288,1,95,8|0,0:1|0:0,0:0:0:0:
40,192,207744,2,0,L|88:296,1,95,8|0,0:0|0:0,0:0:0:0:
272,64,207998,6,0,P|368:64|432:136,1,190,4|8,0:1|0:0,0:0:0:0:
320,128,208379,1,0,0:0:0:0:
429,128,208507,2,0,P|432:216|344:216,1,190,8|0,0:1|0:0,0:0:0:0:
192,288,208888,6,0,P|256:344|328:280,1,190,8|8,0:0|0:0,0:0:0:0:
232,208,209269,2,0,L|120:200,2,95,8|0|8,0:0|0:0|0:1,0:0:0:0:
104,288,209778,1,8,0:0:0:0:
216,296,209905,1,0,0:0:0:0:
16,72,210032,6,0,P|96:120|176:64,1,190,4|8,0:1|0:0,0:0:0:0:
264,112,210413,2,0,L|168:136,1,95,8|8,0:0|0:1,0:0:0:0:
408,112,210795,2,0,L|448:216,1,95,8|0,0:0|0:0,0:0:0:0:
336,248,211049,6,0,P|290:197|192:240,1,190,8|8,0:0|0:0,0:0:0:0:
280,280,211430,1,8,0:0:0:0:
360,296,211557,2,0,P|376:336|344:384,1,95,8|0,0:1|0:0,0:0:0:0:
224,192,211812,1,8,0:1:0:0:
360,168,211939,1,8,0:1:0:0:
104,24,212066,6,0,P|48:96|128:144,1,190,4|8,0:1|0:1,0:0:0:0:
464,56,212574,2,0,P|312:64|288:112,1,190,4|8,0:1|0:1,0:0:0:0:
384,112,212956,1,8,0:0:0:0:
168,152,213083,6,0,P|112:176|184:240,1,190,4|8,0:1|0:1,0:0:0:0:
264,248,213464,1,0,0:0:0:0:
176,244,213591,1,8,0:0:0:0:
456,192,213718,2,0,P|480:272|384:312,1,190
112,320,214100,6,0,B|104:272|104:272|88:248|88:248|80:160,1,113.999996520996,4|0,0:1|0:0,0:0:0:0:
296,160,214354,2,0,B|248:144|248:144|232:120|232:120|168:96,1,113.999996520996,8|0,0:3|0:0,0:0:0:0:
392,320,214608,2,0,P|464:272|472:224,2,113.999996520996,8|0|8,0:0|0:0|0:3,0:0:0:0:
184,216,214990,6,0,P|304:112|376:112,1,227.999993041992,8|8,0:0|0:0,0:0:0:0:
256,320,215371,2,0,L|248:200,1,113.999996520996,8|8,0:3|0:0,0:0:0:0:
128,200,215625,2,0,P|64:152|56:104,1,113.999996520996,8|0,0:0|0:0,0:0:0:0:
336,192,215879,2,0,P|408:152|416:104,1,113.999996520996,8|0,0:3|0:0,0:0:0:0:
120,336,216134,6,0,B|176:336|208:280|208:280|264:248|320:280,2,227.999993041992,8|8|8,0:0|0:3|0:0,0:0:0:0:
344,352,216896,1,8,0:3:0:0:
64,256,217024,6,0,P|56:184|192:136,1,227.999993041992,8|8,0:0|0:0,0:0:0:0:
264,192,217405,1,8,0:3:0:0:
180,129,217532,1,8,0:0:0:0:
392,64,217659,2,0,P|464:80|480:120,1,113.999996520996,8|0,0:0|0:0,0:0:0:0:
281,287,217913,2,0,P|297:175|313:175,1,113.999996520996,8|0,0:3|0:0,0:0:0:0:
480,256,218168,6,0,B|494:252|503:292|503:292|467:351,1,113.999996520996,8|0,0:0|0:0,0:0:0:0:
339,144,218422,2,0,B|349:76|349:76|381:51|410:72,1,113.999996520996,8|0,0:3|0:0,0:0:0:0:
179,335,218676,2,0,P|121:327|88:267,2,113.999996520996,8|0|8,0:0|0:0|0:3,0:0:0:0:
390,63,219057,6,0,B|330:47|277:77|277:77|236:145|145:129,1,227.999993041992,8|8,0:0|0:0,0:0:0:0:
393,325,219439,2,0,P|386:271|305:234,1,113.999996520996,8|8,0:3|0:0,0:0:0:0:
157,223,219693,2,0,P|153:157|209:127,1,113.999996520996,8|0,0:0|0:0,0:0:0:0:
0,117,219947,6,0,P|41:163|195:115,1,227.999993041992,8|8,0:3|0:0,0:0:0:0:
509,314,220456,2,0,B|511:265|454:223|454:223|397:258|315:226,1,227.999993041992,8|8,0:3|0:0,0:0:0:0:
223,285,220837,1,0,0:0:0:0:
342,235,220964,1,8,0:3:0:0:
403,115,221091,1,8,0:0:0:0:
154,32,221218,6,0,P|153:96|211:136,1,113.999996520996,8|0,0:0|0:0,0:0:0:0:
56,182,221473,2,0,P|108:218|174:192,1,113.999996520996,8|8,0:3|0:0,0:0:0:0:
294,358,221727,2,0,P|273:305|222:284,1,113.999996520996,8|0,0:0|0:0,0:0:0:0:
413,254,221981,2,0,P|459:224|471:170,1,113.999996520996,8|0,0:3|0:0,0:0:0:0:
176,80,222235,6,0,P|272:80|336:152,2,190,4|8|8,0:1|0:3|0:0,0:0:0:0:
368,192,222997,2,0,L|424:280,1,95,8|8,0:3|0:0,0:0:0:0:
208,192,223252,6,0,L|168:288,1,95,0|8,0:0|0:0,0:0:0:0:
304,216,223507,2,0,L|368:304,1,95,8|8,0:3|0:0,0:0:0:0:
224,192,223761,2,0,L|184:304,1,95,8|0,0:0|0:0,0:0:0:0:
328,112,224014,1,8,0:3:0:0:
464,144,224141,1,8,0:0:0:0:
112,32,224269,6,0,P|48:88|120:144,1,190,4|8,0:1|0:3,0:0:0:0:
464,192,224778,6,0,P|464:280|368:280,1,190,4|8,0:1|0:3,0:0:0:0:
16,256,225286,6,0,P|96:216|192:272,1,190,4|8,0:1|0:3,0:0:0:0:
432,96,225794,5,0,0:0:0:0:
304,144,225921,1,0,0:0:0:0:
432,96,226048,2,0,L|411:213,1,95,0|0,0:0|0:0,0:0:0:0:
144,320,226302,6,0,P|56:320|56:232,1,190,4|8,0:1|0:3,0:0:0:0:
240,128,226685,1,0,0:0:0:0:
335,173,226812,1,8,0:0:0:0:
304,273,226939,1,0,0:0:0:0:
200,258,227066,1,8,0:3:0:0:
336,56,227193,1,8,0:0:0:0:
104,168,227319,6,0,L|72:280,1,95,0|8,0:0|0:0,0:0:0:0:
224,136,227574,2,0,L|200:240,1,95,8|8,0:3|0:0,0:0:0:0:
72,328,227829,2,0,P|152:368|240:320,1,190,8|8,0:0|0:3,0:0:0:0:
144,288,228209,1,8,0:0:0:0:
400,96,228337,6,0,L|441:201,1,95,8|0,0:0|0:0,0:0:0:0:
339,177,228591,2,0,L|440:184,1,95,8|0,0:3|0:0,0:0:0:0:
339,177,228846,2,0,L|262:104,2,95,8|0|8,0:0|0:0|0:3,0:0:0:0:
128,192,229227,1,8,0:0:0:0:
48,192,229354,6,0,P|48:280|136:280,1,190,0|8,0:0|0:3,0:0:0:0:
232,240,229735,1,8,0:0:0:0:
432,48,229863,2,0,L|480:144,1,95,8|0,0:1|0:0,0:0:0:0:
216,96,230117,2,0,L|120:112,1,95,0|0,0:0|0:0,0:0:0:0:
368,192,230371,5,4,0:1:0:0:
160,304,230625,1,8,0:0:0:0:
272,312,230752,2,0,B|408:328|480:176|464:24|368:-8|128:-16|80:64|104:192|104:192|240:192,1,855,8|8,0:0|0:0,0:0:0:0:
32,272,232151,1,0,0:0:0:0:
416,328,232405,6,0,L|432:120,1,190,4|0,0:1|0:0,0:0:0:0:
192,288,232913,2,0,L|176:72,1,190,8|0,0:0|0:0,0:0:0:0:
448,80,233422,5,4,0:1:0:0:
224,168,233803,1,0,0:0:0:0:
328,144,233930,1,8,0:0:0:0:
136,88,234185,1,0,0:0:0:0:
464,288,234439,6,0,L|256:216,2,190,4|8|8,0:0|0:3|0:0,0:0:0:0:
256,344,235202,1,8,0:3:0:0:
136,304,235329,6,0,P|248:240|256:184,1,190,8|8,0:0|0:0,0:0:0:0:
136,184,235710,2,0,L|8:184,2,95,8|8|8,0:3|0:0|0:0,0:0:0:0:
384,184,236218,2,0,L|392:72,1,95,8|0,0:3|0:0,0:0:0:0:
136,112,236473,6,0,L|328:56,2,190,2|8|8,0:1|0:3|0:0,0:0:0:0:
360,344,237235,1,8,0:3:0:0:
480,304,237362,6,0,P|368:240|360:184,1,190,8|8,0:0|0:0,0:0:0:0:
464,160,237744,2,0,L|360:160,1,95,8|8,0:3|0:0,0:0:0:0:
488,112,237998,2,0,L|496:16,1,95,8|0,0:0|0:0,0:0:0:0:
256,192,238252,2,0,L|152:184,1,95,8|8,0:3|0:0,0:0:0:0:
368,312,238507,6,0,P|432:248|344:176,1,190,4|0,0:1|0:0,0:0:0:0:
280,176,238888,2,0,P|224:112|320:64,1,190,8|0,0:0|0:0,0:0:0:0:
192,320,239269,2,0,L|64:320,1,95,8|0,0:0|0:0,0:0:0:0:
344,336,239524,5,8,0:1:0:0:
440,288,239651,1,0,0:0:0:0:
344,256,239778,1,8,0:0:0:0:
216,240,239905,1,0,0:0:0:0:
344,208,240032,1,8,0:0:0:0:
256,176,240159,1,0,0:0:0:0:
352,144,240286,2,0,L|360:32,1,95,8|0,0:0|0:0,0:0:0:0:
112,288,240540,6,0,P|56:208|136:160,1,190,4|0,0:1|0:0,0:0:0:0:
392,264,240922,2,0,P|448:192|376:136,1,190,8|0,0:0|0:0,0:0:0:0:
112,120,241303,1,4,0:1:0:0:
256,192,241557,12,0,244608,0:0:0:0:
