osu file format v14

[General]
AudioFilename: audio.mp3
AudioLeadIn: 0
PreviewTime: 52714
Countdown: 0
SampleSet: Soft
StackLeniency: 0.7
Mode: 3
LetterboxInBreaks: 0
SpecialStyle: 0
WidescreenStoryboard: 0

[Editor]
DistanceSpacing: 1
BeatDivisor: 4
GridSize: 16
TimelineZoom: 1.8

[Metadata]
Title:Girls' Carnival
TitleUnicode:Girls' Carnival
Artist:Yuuka
ArtistUnicode:ユウカ
Creator:Damaree
Version:Happy Ending
Source:Making*Lovers
Tags:joof12 making*lovers making * lovers op smee eroge visual novel Japanese Video Game pop j-pop jpop
BeatmapID:3880318
BeatmapSetID:1884632

[Difficulty]
HPDrainRate:8
CircleSize:4
OverallDifficulty:8
ApproachRate:5
SliderMultiplier:1.4
SliderTickRate:1

[Events]
//Background and Video events
0,0,"insane-bg.jpg",0,0
Video,-66,"makinglovers.mp4"
//Break Periods
//Storyboard Layer 0 (Background)
//Storyboard Layer 1 (Fail)
//Storyboard Layer 2 (Pass)
//Storyboard Layer 3 (Foreground)
//Storyboard Layer 4 (Overlay)
//Storyboard Sound Samples

[TimingPoints]
532,254.237288135593,4,2,1,70,1,0
53413,-100,4,2,1,70,0,1
85955,-100,4,2,1,70,0,0

[HitObjects]
192,192,532,5,0,0:0:0:0:
448,192,532,1,0,0:0:0:0:
192,192,786,1,0,0:0:0:0:
448,192,786,1,0,0:0:0:0:
320,192,1040,1,0,0:0:0:0:
192,192,1167,1,0,0:0:0:0:
320,192,1294,1,0,0:0:0:0:
448,192,1294,1,0,0:0:0:0:
320,192,1421,1,0,0:0:0:0:
64,192,1548,1,0,0:0:0:0:
320,192,1676,1,0,0:0:0:0:
64,192,1803,1,0,0:0:0:0:
448,192,1803,1,0,0:0:0:0:
192,192,1930,1,0,0:0:0:0:
192,192,2057,1,0,0:0:0:0:
448,192,2057,1,0,0:0:0:0:
64,192,2184,1,0,0:0:0:0:
320,192,2311,1,0,0:0:0:0:
320,192,2438,1,0,0:0:0:0:
64,192,2565,1,0,0:0:0:0:
448,192,2565,1,0,0:0:0:0:
64,192,2820,1,0,0:0:0:0:
448,192,2820,1,0,0:0:0:0:
192,192,3074,1,0,0:0:0:0:
320,192,3201,1,0,0:0:0:0:
64,192,3328,1,0,0:0:0:0:
448,192,3328,1,0,0:0:0:0:
448,192,3455,1,0,0:0:0:0:
192,192,3582,1,0,0:0:0:0:
64,192,3709,1,0,0:0:0:0:
320,192,3837,1,0,0:0:0:0:
448,192,3837,1,0,0:0:0:0:
192,192,3964,1,0,0:0:0:0:
192,192,4091,1,0,0:0:0:0:
448,192,4091,1,0,0:0:0:0:
64,192,4218,1,0,0:0:0:0:
320,192,4345,1,0,0:0:0:0:
448,192,4345,1,0,0:0:0:0:
448,192,4472,1,0,0:0:0:0:
192,192,4536,1,0,0:0:0:0:
64,192,4599,1,0,0:0:0:0:
320,192,4599,1,0,0:0:0:0:
64,192,4854,1,0,0:0:0:70:clap.wav
320,192,4854,1,0,0:0:0:0:
448,192,5108,1,0,0:0:0:0:
192,192,5235,1,0,0:0:0:0:
64,192,5362,1,0,0:0:0:70:clap.wav
448,192,5362,1,0,0:0:0:0:
64,192,5489,1,0,0:0:0:0:
192,192,5553,1,0,0:0:0:0:
320,192,5616,1,0,0:0:0:0:
448,192,5743,1,0,0:0:0:0:
64,192,5870,1,0,0:0:0:70:clap.wav
192,192,5870,1,0,0:0:0:0:
320,192,5998,1,0,0:0:0:0:
64,192,6125,1,0,0:0:0:0:
320,192,6125,1,0,0:0:0:0:
192,192,6252,1,0,0:0:0:0:
64,192,6379,1,0,0:0:0:70:clap.wav
448,192,6379,1,0,0:0:0:0:
448,192,6506,1,0,0:0:0:0:
64,192,6633,128,2,6887:0:0:0:0:
192,192,6633,128,0,6887:0:0:0:0:
320,192,6887,1,0,0:0:0:70:clap.wav
448,192,6887,1,0,0:0:0:0:
320,192,7142,128,2,7396:0:0:0:0:
448,192,7142,128,0,7396:0:0:0:0:
64,192,7269,1,0,0:0:0:0:
64,192,7396,1,0,0:0:0:70:clap.wav
192,192,7396,1,0,0:0:0:0:
448,192,7523,1,0,0:0:0:0:
64,192,7650,1,2,0:0:0:0:
192,192,7650,1,0,0:0:0:0:
320,192,7777,1,2,0:0:0:0:
448,192,7777,1,0,0:0:0:0:
64,192,7904,1,0,0:0:0:70:clap.wav
192,192,7904,1,0,0:0:0:0:
448,192,7904,1,0,0:0:0:0:
64,192,8031,1,2,0:0:0:0:
320,192,8031,1,0,0:0:0:0:
192,192,8159,1,0,0:0:0:0:
448,192,8159,1,0,0:0:0:0:
320,192,8222,1,0,0:0:0:0:
64,192,8286,1,0,0:0:0:0:
192,192,8349,1,0,0:0:0:0:
320,192,8413,1,2,0:0:0:0:
448,192,8413,1,0,0:0:0:0:
64,192,8476,1,0,0:0:0:0:
192,192,8540,1,0,0:0:0:0:
320,192,8604,1,0,0:0:0:0:
64,192,8667,128,4,8921:0:0:0:0:
192,192,8667,1,2,0:0:0:0:
448,192,8667,1,0,0:0:0:0:
192,192,8921,1,8,0:0:0:0:
320,192,8921,1,0,0:0:0:0:
448,192,8921,1,0,0:0:0:0:
64,192,9176,1,2,0:0:0:0:
448,192,9176,128,0,9430:0:0:0:0:
64,192,9430,1,8,0:0:0:0:
192,192,9430,1,0,0:0:0:0:
320,192,9430,1,0,0:0:0:0:
192,192,9557,1,2,0:0:0:0:
448,192,9557,128,0,9938:0:0:0:0:
64,192,9811,1,2,0:0:0:0:
320,192,9811,1,0,0:0:0:0:
64,192,9938,1,8,0:0:0:0:
192,192,9938,1,0,0:0:0:0:
320,192,9938,1,0,0:0:0:0:
64,192,10193,128,2,10574:0:0:0:0:
448,192,10193,1,0,0:0:0:0:
192,192,10447,128,8,10828:0:0:0:0:
320,192,10447,1,0,0:0:0:0:
448,192,10447,1,0,0:0:0:0:
64,192,10701,1,2,0:0:0:0:
320,192,10701,128,0,11082:0:0:0:0:
64,192,10955,1,8,0:0:0:0:
192,192,10955,1,0,0:0:0:0:
448,192,10955,128,0,11209:0:0:0:0:
64,192,11209,128,2,11464:0:0:0:0:
320,192,11209,1,0,0:0:0:0:
448,192,11337,128,0,11464:0:0:0:0:
192,192,11464,1,8,0:0:0:0:
320,192,11464,1,0,0:0:0:0:
64,192,11591,1,2,0:0:0:0:
448,192,11591,128,0,11972:0:0:0:0:
64,192,11845,1,2,0:0:0:0:
192,192,11845,1,0,0:0:0:0:
64,192,11972,1,8,0:0:0:0:
192,192,11972,1,0,0:0:0:0:
320,192,11972,1,0,0:0:0:0:
64,192,12226,128,2,12481:0:0:0:0:
192,192,12226,1,0,0:0:0:0:
192,192,12481,1,8,0:0:0:0:
320,192,12481,1,0,0:0:0:0:
448,192,12481,1,0,0:0:0:0:
64,192,12735,1,2,0:0:0:0:
320,192,12735,128,0,12989:0:0:0:0:
64,192,12989,1,8,0:0:0:0:
192,192,12989,1,0,0:0:0:0:
448,192,12989,1,0,0:0:0:0:
320,192,13243,1,2,0:0:0:0:
448,192,13243,128,0,13498:0:0:0:0:
64,192,13498,1,8,0:0:0:0:
192,192,13498,1,0,0:0:0:0:
320,192,13498,1,0,0:0:0:0:
64,192,13625,1,2,0:0:0:0:
448,192,13625,128,0,14006:0:0:0:0:
320,192,13752,1,0,0:0:0:0:
64,192,13879,1,2,0:0:0:0:
192,192,13879,1,0,0:0:0:0:
64,192,14006,128,8,14387:0:0:0:0:
192,192,14006,1,0,0:0:0:0:
320,192,14006,1,0,0:0:0:0:
192,192,14260,128,2,14642:0:0:0:0:
448,192,14260,1,0,0:0:0:0:
64,192,14515,1,8,0:0:0:0:
320,192,14515,128,0,14769:0:0:0:0:
448,192,14515,1,0,0:0:0:0:
64,192,14769,1,4,0:0:0:0:
192,192,14769,1,2,0:0:0:0:
448,192,14769,128,0,15277:0:0:0:0:
64,192,15023,1,8,0:0:0:0:
192,192,15023,1,0,0:0:0:0:
320,192,15023,1,0,0:0:0:0:
192,192,15277,1,2,0:0:0:0:
320,192,15277,128,0,15786:0:0:0:0:
64,192,15531,1,8,0:0:0:0:
192,192,15531,1,0,0:0:0:0:
64,192,15659,1,2,0:0:0:0:
448,192,15659,1,0,0:0:0:0:
192,192,15786,128,0,16294:0:0:0:0:
64,192,15913,1,2,0:0:0:0:
320,192,15913,1,0,0:0:0:0:
320,192,16040,1,8,0:0:0:0:
448,192,16040,1,0,0:0:0:0:
64,192,16167,1,0,0:0:0:0:
320,192,16294,1,8,0:0:0:0:
448,192,16294,1,0,0:0:0:0:
320,192,16421,1,8,0:0:0:0:
448,192,16421,1,0,0:0:0:0:
64,192,16548,1,2,0:0:0:0:
192,192,16548,1,0,0:0:0:0:
320,192,16676,1,2,0:0:0:0:
448,192,16676,1,0,0:0:0:0:
64,192,16803,128,4,17184:0:0:0:0:
192,192,16803,128,2,17184:0:0:0:0:
448,192,16803,1,0,0:0:0:0:
320,192,17184,1,2,0:0:0:0:
448,192,17184,1,0,0:0:0:0:
192,192,17311,1,2,0:0:0:0:
320,192,17311,1,0,0:0:0:0:
64,192,17565,128,2,18837:0:0:0:0:
448,192,17565,1,0,0:0:0:0:
320,192,17947,1,8,0:0:0:0:
448,192,17947,1,0,0:0:0:0:
320,192,18074,1,8,0:0:0:0:
448,192,18074,1,0,0:0:0:0:
192,192,18201,1,0,0:0:0:0:
448,192,18328,1,2,0:0:0:0:
320,192,18455,1,0,0:0:0:70:toms.wav
192,192,18582,1,2,0:0:0:0:
448,192,18709,1,0,0:0:0:70:toms.wav
192,192,18837,1,2,0:0:0:0:
320,192,18837,1,4,0:0:0:0:
448,192,18837,1,0,0:0:0:0:
64,192,19091,1,8,0:0:0:0:
192,192,19091,1,0,0:0:0:0:
448,192,19091,1,0,0:0:0:0:
320,192,19345,1,2,0:0:0:0:
448,192,19345,1,0,0:0:0:0:
64,192,19599,1,8,0:0:0:0:
192,192,19599,1,0,0:0:0:0:
448,192,19599,1,0,0:0:0:0:
192,192,19726,1,2,0:0:0:0:
320,192,19726,1,0,0:0:0:0:
64,192,19854,1,0,0:0:0:0:
320,192,19981,1,2,0:0:0:0:
448,192,19981,1,0,0:0:0:0:
64,192,20108,1,8,0:0:0:0:
192,192,20108,1,0,0:0:0:0:
448,192,20108,1,0,0:0:0:0:
320,192,20235,1,0,0:0:0:0:
64,192,20362,1,2,0:0:0:0:
192,192,20362,1,0,0:0:0:0:
448,192,20489,1,0,0:0:0:0:
64,192,20616,1,8,0:0:0:0:
192,192,20616,1,0,0:0:0:0:
320,192,20616,1,0,0:0:0:0:
320,192,20870,1,2,0:0:0:0:
448,192,20870,1,0,0:0:0:0:
64,192,21125,1,8,0:0:0:0:
192,192,21125,1,0,0:0:0:0:
448,192,21125,1,0,0:0:0:0:
192,192,21379,1,2,0:0:0:0:
320,192,21379,1,0,0:0:0:0:
64,192,21633,1,8,0:0:0:0:
320,192,21633,1,0,0:0:0:0:
448,192,21633,1,0,0:0:0:0:
192,192,21760,1,2,0:0:0:0:
320,192,21760,1,0,0:0:0:0:
448,192,21887,1,0,0:0:0:0:
64,192,22015,1,2,0:0:0:0:
192,192,22015,1,0,0:0:0:0:
64,192,22142,1,8,0:0:0:0:
320,192,22142,1,0,0:0:0:0:
448,192,22142,1,0,0:0:0:0:
192,192,22269,1,0,0:0:0:0:
64,192,22396,1,2,0:0:0:0:
448,192,22396,1,0,0:0:0:0:
64,192,22650,1,8,0:0:0:0:
192,192,22650,1,0,0:0:0:0:
448,192,22777,1,0,0:0:0:0:
192,192,22904,1,2,0:0:0:0:
320,192,22904,1,0,0:0:0:0:
64,192,23159,1,8,0:0:0:0:
192,192,23159,1,0,0:0:0:0:
448,192,23159,1,0,0:0:0:0:
64,192,23413,1,2,0:0:0:0:
320,192,23413,1,0,0:0:0:0:
192,192,23667,1,8,0:0:0:0:
320,192,23667,1,0,0:0:0:0:
448,192,23667,1,0,0:0:0:0:
64,192,23794,1,2,0:0:0:0:
448,192,23794,1,0,0:0:0:0:
320,192,23921,1,0,0:0:0:0:
64,192,24048,1,2,0:0:0:0:
192,192,24048,1,0,0:0:0:0:
192,192,24176,1,8,0:0:0:0:
320,192,24176,1,0,0:0:0:0:
448,192,24176,1,0,0:0:0:0:
64,192,24303,1,0,0:0:0:0:
192,192,24430,1,2,0:0:0:0:
448,192,24430,1,0,0:0:0:0:
320,192,24557,1,0,0:0:0:0:
64,192,24684,1,8,0:0:0:0:
192,192,24684,1,0,0:0:0:0:
448,192,24684,1,0,0:0:0:0:
192,192,24938,1,2,0:0:0:0:
320,192,24938,1,0,0:0:0:0:
64,192,25193,1,8,0:0:0:0:
320,192,25193,1,0,0:0:0:0:
448,192,25193,1,0,0:0:0:0:
192,192,25447,1,2,0:0:0:0:
320,192,25447,1,0,0:0:0:0:
64,192,25701,1,8,0:0:0:0:
192,192,25701,1,0,0:0:0:0:
448,192,25701,1,0,0:0:0:0:
192,192,25828,1,2,0:0:0:0:
320,192,25828,1,0,0:0:0:0:
448,192,25955,1,0,0:0:0:0:
64,192,26082,1,2,0:0:0:0:
192,192,26082,1,0,0:0:0:0:
64,192,26209,1,8,0:0:0:0:
320,192,26209,1,0,0:0:0:0:
448,192,26209,1,0,0:0:0:0:
192,192,26337,1,0,0:0:0:0:
64,192,26464,1,2,0:0:0:0:
448,192,26464,1,0,0:0:0:0:
320,192,26591,1,0,0:0:0:0:
64,192,26718,1,8,0:0:0:0:
192,192,26718,1,0,0:0:0:0:
448,192,26718,1,0,0:0:0:0:
192,192,26845,1,2,0:0:0:0:
320,192,26845,1,0,0:0:0:0:
64,192,26972,1,4,0:0:0:0:
320,192,26972,1,2,0:0:0:0:
448,192,26972,1,0,0:0:0:0:
192,192,27226,1,8,0:0:0:0:
320,192,27226,1,0,0:0:0:0:
448,192,27226,1,0,0:0:0:0:
64,192,27481,1,2,0:0:0:0:
320,192,27481,1,0,0:0:0:0:
192,192,27608,1,0,0:0:0:0:
64,192,27735,1,8,0:0:0:0:
320,192,27735,1,0,0:0:0:0:
448,192,27735,1,0,0:0:0:0:
64,192,27862,1,2,0:0:0:0:
192,192,27862,1,0,0:0:0:0:
448,192,27989,1,0,0:0:0:0:
192,192,28116,1,2,0:0:0:0:
320,192,28116,1,0,0:0:0:0:
64,192,28243,1,8,0:0:0:0:
320,192,28243,1,0,0:0:0:0:
448,192,28243,1,0,0:0:0:0:
192,192,28370,1,0,0:0:0:0:
320,192,28498,1,2,0:0:0:0:
448,192,28498,1,0,0:0:0:0:
64,192,28625,1,0,0:0:0:0:
192,192,28752,1,8,0:0:0:0:
320,192,28752,1,0,0:0:0:0:
448,192,28752,1,0,0:0:0:0:
64,192,29006,1,2,0:0:0:0:
448,192,29006,1,0,0:0:0:0:
192,192,29260,1,8,0:0:0:0:
320,192,29260,1,0,0:0:0:0:
448,192,29260,1,0,0:0:0:0:
64,192,29515,1,2,0:0:0:0:
192,192,29515,1,0,0:0:0:0:
320,192,29642,1,0,0:0:0:0:
64,192,29769,1,8,0:0:0:0:
192,192,29769,1,0,0:0:0:0:
448,192,29769,1,0,0:0:0:0:
192,192,29896,1,2,0:0:0:0:
320,192,29896,1,0,0:0:0:0:
64,192,30023,1,0,0:0:0:0:
192,192,30150,1,2,0:0:0:0:
448,192,30150,1,0,0:0:0:0:
64,192,30277,1,8,0:0:0:0:
320,192,30277,1,0,0:0:0:0:
448,192,30277,1,0,0:0:0:0:
192,192,30404,1,0,0:0:0:0:
64,192,30531,1,2,0:0:0:0:
448,192,30531,1,0,0:0:0:0:
320,192,30659,1,0,0:0:0:0:
64,192,30786,1,8,0:0:0:0:
192,192,30786,1,0,0:0:0:0:
448,192,30786,1,0,0:0:0:0:
64,192,31040,1,2,0:0:0:0:
320,192,31040,1,0,0:0:0:0:
64,192,31294,1,8,0:0:0:0:
192,192,31294,1,0,0:0:0:0:
448,192,31294,1,0,0:0:0:0:
320,192,31548,1,2,0:0:0:0:
448,192,31548,1,0,0:0:0:0:
192,192,31676,1,0,0:0:0:0:
64,192,31803,1,8,0:0:0:0:
320,192,31803,1,0,0:0:0:0:
448,192,31803,1,0,0:0:0:0:
192,192,31930,1,2,0:0:0:0:
320,192,31930,1,0,0:0:0:0:
448,192,32057,1,0,0:0:0:0:
64,192,32184,1,2,0:0:0:0:
192,192,32184,1,0,0:0:0:0:
64,192,32311,1,8,0:0:0:0:
320,192,32311,1,0,0:0:0:0:
448,192,32311,1,0,0:0:0:0:
192,192,32438,1,0,0:0:0:0:
64,192,32565,1,2,0:0:0:0:
448,192,32565,1,0,0:0:0:0:
320,192,32693,1,0,0:0:0:0:
64,192,32820,1,8,0:0:0:0:
192,192,32820,1,0,0:0:0:0:
448,192,32820,1,0,0:0:0:0:
64,192,33074,1,2,0:0:0:0:
192,192,33074,1,4,0:0:0:0:
448,192,33074,1,0,0:0:0:0:
192,192,33328,1,8,0:0:0:0:
320,192,33328,1,0,0:0:0:0:
448,192,33328,1,0,0:0:0:0:
64,192,33455,1,0,0:0:0:0:
320,192,33582,1,2,0:0:0:0:
448,192,33582,1,0,0:0:0:0:
192,192,33709,1,0,0:0:0:0:
64,192,33837,1,8,0:0:0:0:
320,192,33837,1,0,0:0:0:0:
448,192,33837,1,0,0:0:0:0:
64,192,33964,1,4,0:0:0:0:
192,192,33964,1,2,0:0:0:0:
448,192,33964,1,0,0:0:0:0:
192,192,34218,1,2,0:0:0:0:
320,192,34218,1,0,0:0:0:0:
64,192,34345,1,8,0:0:0:0:
320,192,34345,1,0,0:0:0:0:
448,192,34345,1,0,0:0:0:0:
64,192,34472,1,2,0:0:0:0:
192,192,34472,1,0,0:0:0:0:
320,192,34599,1,2,0:0:0:0:
448,192,34599,1,0,0:0:0:0:
192,192,34726,1,2,0:0:0:0:
320,192,34726,1,0,0:0:0:0:
64,192,34854,1,2,0:0:0:0:
192,192,34854,1,0,0:0:0:0:
64,192,34981,1,2,0:0:0:0:
448,192,34981,1,0,0:0:0:0:
192,192,35108,1,4,0:0:0:0:
320,192,35108,1,2,0:0:0:0:
448,192,35108,1,0,0:0:0:0:
64,192,35362,1,8,0:0:0:0:
192,192,35362,1,0,0:0:0:0:
448,192,35362,1,0,0:0:0:0:
320,192,35616,1,2,0:0:0:0:
448,192,35616,1,0,0:0:0:0:
64,192,35870,1,8,0:0:0:0:
192,192,35870,1,0,0:0:0:0:
448,192,35870,1,0,0:0:0:0:
64,192,35998,1,2,0:0:0:0:
320,192,35998,1,0,0:0:0:0:
192,192,36125,1,0,0:0:0:0:
320,192,36252,1,2,0:0:0:0:
448,192,36252,1,0,0:0:0:0:
64,192,36379,1,8,0:0:0:0:
192,192,36379,1,0,0:0:0:0:
448,192,36379,1,0,0:0:0:0:
320,192,36506,1,0,0:0:0:0:
64,192,36633,1,2,0:0:0:0:
192,192,36633,1,0,0:0:0:0:
192,192,36887,1,8,0:0:0:0:
320,192,36887,1,0,0:0:0:0:
448,192,36887,1,0,0:0:0:0:
64,192,37015,1,0,0:0:0:0:
192,192,37142,1,2,0:0:0:0:
448,192,37142,1,0,0:0:0:0:
64,192,37396,1,8,0:0:0:0:
192,192,37396,1,0,0:0:0:0:
320,192,37396,1,0,0:0:0:0:
64,192,37650,1,2,0:0:0:0:
448,192,37650,1,0,0:0:0:0:
192,192,37904,1,8,0:0:0:0:
320,192,37904,1,0,0:0:0:0:
448,192,37904,1,0,0:0:0:0:
64,192,38031,1,2,0:0:0:0:
320,192,38031,1,0,0:0:0:0:
448,192,38159,1,0,0:0:0:0:
192,192,38286,1,2,0:0:0:0:
320,192,38286,1,0,0:0:0:0:
64,192,38413,1,8,0:0:0:0:
192,192,38413,1,0,0:0:0:0:
448,192,38413,1,0,0:0:0:0:
320,192,38540,1,0,0:0:0:0:
64,192,38667,1,2,0:0:0:0:
448,192,38667,1,0,0:0:0:0:
64,192,38921,1,8,0:0:0:0:
320,192,38921,1,0,0:0:0:0:
448,192,38921,1,0,0:0:0:0:
192,192,39048,1,0,0:0:0:0:
64,192,39176,1,2,0:0:0:0:
448,192,39176,1,0,0:0:0:0:
192,192,39430,1,8,0:0:0:0:
320,192,39430,1,0,0:0:0:0:
448,192,39430,1,0,0:0:0:0:
64,192,39684,1,2,0:0:0:0:
448,192,39684,1,0,0:0:0:0:
320,192,39811,1,0,0:0:0:0:
64,192,39938,1,8,0:0:0:0:
192,192,39938,1,0,0:0:0:0:
448,192,39938,1,0,0:0:0:0:
64,192,40065,1,2,0:0:0:0:
320,192,40065,1,0,0:0:0:0:
192,192,40193,1,0,0:0:0:0:
64,192,40320,1,2,0:0:0:0:
448,192,40320,1,0,0:0:0:0:
192,192,40447,1,8,0:0:0:0:
320,192,40447,1,0,0:0:0:0:
448,192,40447,1,0,0:0:0:0:
64,192,40574,1,0,0:0:0:0:
192,192,40701,1,2,0:0:0:0:
448,192,40701,1,0,0:0:0:0:
320,192,40828,1,0,0:0:0:0:
64,192,40955,1,8,0:0:0:0:
192,192,40955,1,0,0:0:0:0:
448,192,40955,1,0,0:0:0:0:
320,192,41082,1,0,0:0:0:0:
64,192,41209,1,2,0:0:0:0:
192,192,41209,1,0,0:0:0:0:
192,192,41464,1,8,0:0:0:0:
320,192,41464,1,0,0:0:0:0:
448,192,41464,1,0,0:0:0:0:
64,192,41718,1,2,0:0:0:0:
320,192,41718,1,0,0:0:0:0:
192,192,41972,1,8,0:0:0:0:
320,192,41972,1,0,0:0:0:0:
448,192,41972,1,0,0:0:0:0:
64,192,42099,1,2,0:0:0:0:
448,192,42099,1,0,0:0:0:0:
320,192,42226,1,0,0:0:0:0:
64,192,42354,1,2,0:0:0:0:
192,192,42354,1,0,0:0:0:0:
64,192,42481,1,8,0:0:0:0:
320,192,42481,1,0,0:0:0:0:
448,192,42481,1,0,0:0:0:0:
320,192,42735,1,2,0:0:0:0:
448,192,42735,1,0,0:0:0:0:
64,192,42862,1,2,0:0:0:0:
192,192,42862,1,0,0:0:0:0:
320,192,42989,1,0,0:0:0:70:toms.wav
64,192,43116,1,0,0:0:0:0:
192,192,43243,1,2,0:0:0:0:
320,192,43243,128,4,43752:0:0:0:0:
448,192,43243,128,0,43752:0:0:0:0:
64,192,43498,1,0,0:0:0:0:
64,192,43625,1,2,0:0:0:0:
192,192,43625,1,0,0:0:0:0:
64,192,43752,1,8,0:0:0:0:
192,192,43752,1,0,0:0:0:0:
64,192,44006,1,2,0:0:0:0:
448,192,44006,1,0,0:0:0:0:
320,192,44133,1,0,0:0:0:0:
192,192,44260,1,0,0:0:0:0:
64,192,44515,1,2,0:0:0:0:
448,192,44515,1,0,0:0:0:0:
320,192,44769,1,8,0:0:0:0:
448,192,44769,1,0,0:0:0:0:
64,192,44896,1,2,0:0:0:0:
192,192,44896,1,0,0:0:0:0:
448,192,45023,1,0,0:0:0:0:
320,192,45150,1,0,0:0:0:0:
64,192,45277,128,0,45786:0:0:0:70:open hat.wav
192,192,45277,128,0,45786:0:0:0:0:
448,192,45277,1,0,0:0:0:0:
448,192,45531,1,0,0:0:0:0:
320,192,45659,1,2,0:0:0:0:
448,192,45659,1,0,0:0:0:0:
320,192,45786,1,8,0:0:0:0:
448,192,45786,1,0,0:0:0:0:
64,192,46040,1,2,0:0:0:0:
192,192,46040,1,0,0:0:0:0:
448,192,46167,1,0,0:0:0:0:
320,192,46294,1,0,0:0:0:0:
64,192,46548,1,2,0:0:0:0:
192,192,46548,1,0,0:0:0:0:
320,192,46803,1,8,0:0:0:0:
448,192,46803,1,0,0:0:0:0:
64,192,46930,1,2,0:0:0:0:
192,192,46930,1,0,0:0:0:0:
192,192,47057,1,2,0:0:0:0:
320,192,47057,1,0,0:0:0:0:
448,192,47184,1,0,0:0:0:0:
64,192,47311,1,2,0:0:0:0:
192,192,47311,128,4,47820:0:0:0:0:
320,192,47311,128,0,47820:0:0:0:0:
448,192,47693,1,0,0:0:0:0:
64,192,47820,1,8,0:0:0:0:
448,192,47820,1,0,0:0:0:0:
320,192,48074,1,0,0:0:0:0:
192,192,48201,1,0,0:0:0:0:
64,192,48328,128,2,48837:0:0:0:0:
320,192,48328,1,4,0:0:0:0:
448,192,48328,128,0,48837:0:0:0:0:
192,192,48582,1,0,0:0:0:0:
192,192,48837,1,8,0:0:0:0:
320,192,48837,1,0,0:0:0:0:
64,192,49091,1,8,0:0:0:0:
192,192,49091,1,0,0:0:0:0:
320,192,49218,1,8,0:0:0:0:
448,192,49218,1,0,0:0:0:0:
64,192,49345,1,2,0:0:0:0:
192,192,49345,1,4,0:0:0:0:
448,192,49345,1,0,0:0:0:0:
64,192,49599,1,8,0:0:0:0:
320,192,49599,1,0,0:0:0:0:
448,192,49599,1,0,0:0:0:0:
192,192,49854,1,2,0:0:0:0:
320,192,49854,1,0,0:0:0:0:
64,192,50108,1,8,0:0:0:0:
192,192,50108,1,0,0:0:0:0:
320,192,50108,1,0,0:0:0:0:
192,192,50235,1,2,0:0:0:0:
448,192,50235,1,0,0:0:0:0:
320,192,50362,1,0,0:0:0:0:
64,192,50489,1,2,0:0:0:0:
192,192,50489,1,0,0:0:0:0:
320,192,50616,1,8,0:0:0:0:
448,192,50616,1,0,0:0:0:0:
64,192,50680,1,0,0:0:0:0:
192,192,50743,1,0,0:0:0:0:
320,192,50807,1,0,0:0:0:0:
64,192,50870,1,2,0:0:0:0:
448,192,50870,1,0,0:0:0:0:
192,192,50934,1,0,0:0:0:0:
320,192,50998,1,2,0:0:0:0:
192,192,51061,1,0,0:0:0:0:
64,192,51125,1,2,0:0:0:0:
448,192,51125,1,0,0:0:0:0:
320,192,51188,1,0,0:0:0:0:
192,192,51252,1,2,0:0:0:0:
64,192,51315,1,0,0:0:0:0:
192,192,51379,1,2,0:0:0:0:
320,192,51379,128,8,51633:0:0:0:0:
448,192,51379,128,0,52269:0:0:0:0:
64,192,51760,1,2,0:0:0:0:
192,192,51760,128,8,52015:0:0:0:0:
320,192,51760,128,0,52269:0:0:0:0:
64,192,52142,128,2,52269:0:0:0:0:
192,192,52142,128,8,52269:0:0:0:0:
64,192,52396,128,4,52904:0:0:0:0:
192,192,52396,128,2,52904:0:0:0:0:
448,192,52396,128,0,52777:0:0:0:0:
320,192,52777,1,0,0:0:0:70:toms.wav
448,192,52904,1,2,0:0:0:0:
320,192,52968,1,0,0:0:0:0:
192,192,53031,1,0,0:0:0:0:
64,192,53095,1,0,0:0:0:0:
320,192,53159,1,0,0:0:0:0:
448,192,53222,1,0,0:0:0:0:
192,192,53286,1,0,0:0:0:0:
320,192,53349,1,0,0:0:0:0:
64,192,53413,128,2,54112:0:0:0:0:
192,192,53413,1,4,0:0:0:0:
448,192,53413,1,0,0:0:0:0:
192,192,53667,128,8,54112:0:0:0:0:
320,192,53667,1,0,0:0:0:0:
448,192,53667,1,0,0:0:0:0:
320,192,53921,128,2,54176:0:0:0:0:
448,192,53921,1,0,0:0:0:70:open hat.wav
64,192,54176,1,8,0:0:0:0:
192,192,54176,1,0,0:0:0:0:
448,192,54176,1,0,0:0:0:0:
64,192,54303,128,2,54684:0:0:0:0:
448,192,54303,128,0,54684:0:0:0:0:
192,192,54557,1,2,0:0:0:0:
320,192,54557,1,0,0:0:0:0:
192,192,54684,1,8,0:0:0:0:
320,192,54684,128,0,55383:0:0:0:0:
64,192,54938,1,2,0:0:0:0:
192,192,54938,128,0,55447:0:0:0:70:open hat.wav
64,192,55193,128,8,55447:0:0:0:0:
448,192,55193,1,0,0:0:0:0:
320,192,55447,1,2,0:0:0:0:
448,192,55447,128,0,56209:0:0:0:70:open hat.wav
64,192,55701,1,8,0:0:0:0:
192,192,55701,1,0,0:0:0:0:
320,192,55701,1,0,0:0:0:0:
64,192,55955,1,2,0:0:0:0:
192,192,55955,1,0,0:0:0:70:open hat.wav
64,192,56209,1,8,0:0:0:0:
192,192,56209,1,0,0:0:0:0:
320,192,56209,1,0,0:0:0:0:
320,192,56337,128,2,56718:0:0:0:0:
448,192,56337,1,0,0:0:0:0:
64,192,56591,1,2,0:0:0:0:
192,192,56591,1,0,0:0:0:0:
64,192,56718,1,8,0:0:0:0:
192,192,56718,1,0,0:0:0:0:
448,192,56718,1,0,0:0:0:0:
64,192,56972,128,2,57417:0:0:0:0:
320,192,56972,1,0,0:0:0:70:open hat.wav
192,192,57226,128,8,57481:0:0:0:0:
320,192,57226,1,0,0:0:0:0:
448,192,57226,1,0,0:0:0:0:
64,192,57481,1,0,0:0:0:70:open hat.wav
320,192,57481,1,0,0:0:0:0:
448,192,57481,128,0,58180:0:0:0:0:
64,192,57735,1,8,0:0:0:0:
192,192,57735,1,0,0:0:0:0:
320,192,57735,128,0,58180:0:0:0:0:
64,192,57989,1,2,0:0:0:0:
192,192,57989,128,0,58243:0:0:0:70:open hat.wav
64,192,58243,1,8,0:0:0:0:
320,192,58243,1,0,0:0:0:0:
448,192,58243,1,0,0:0:0:0:
64,192,58370,128,2,58752:0:0:0:0:
448,192,58370,128,0,58752:0:0:0:0:
192,192,58625,1,2,0:0:0:0:
320,192,58625,1,0,0:0:0:0:
192,192,58752,1,8,0:0:0:0:
320,192,58752,1,0,0:0:0:0:
448,192,58879,1,0,0:0:0:0:
64,192,59006,128,2,59515:0:0:0:0:
192,192,59006,1,0,0:0:0:70:open hat.wav
192,192,59260,1,8,0:0:0:0:
320,192,59260,1,0,0:0:0:0:
448,192,59260,1,0,0:0:0:0:
192,192,59515,1,2,0:0:0:0:
448,192,59515,128,0,60023:0:0:0:70:open hat.wav
64,192,59769,1,8,0:0:0:0:
192,192,59769,1,0,0:0:0:0:
320,192,59769,1,0,0:0:0:0:
64,192,60023,1,2,0:0:0:0:
320,192,60023,1,0,0:0:0:70:open hat.wav
192,192,60150,1,0,0:0:0:0:
64,192,60277,128,8,60531:0:0:0:0:
320,192,60277,1,0,0:0:0:0:
448,192,60277,1,0,0:0:0:0:
192,192,60404,1,0,0:0:0:70:toms.wav
448,192,60531,128,0,60659:0:0:0:70:open hat.wav
64,192,60659,1,2,0:0:0:0:
320,192,60659,1,0,0:0:0:0:
64,192,60786,1,8,0:0:0:0:
192,192,60786,1,0,0:0:0:0:
448,192,60786,128,0,61040:0:0:0:0:
320,192,60913,1,0,0:0:0:0:
64,192,61040,1,2,0:0:0:0:
192,192,61040,128,0,61294:0:0:0:70:open hat.wav
320,192,61294,128,8,61548:0:0:0:0:
448,192,61294,1,0,0:0:0:0:
64,192,61548,128,4,62057:0:0:0:0:
192,192,61548,1,2,0:0:0:0:
448,192,61548,1,0,0:0:0:0:
192,192,61803,1,8,0:0:0:0:
320,192,61803,1,0,0:0:0:0:
448,192,61803,1,0,0:0:0:0:
320,192,62057,1,2,0:0:0:0:
448,192,62057,1,0,0:0:0:70:open hat.wav
64,192,62184,1,0,0:0:0:0:
192,192,62311,128,8,62565:0:0:0:0:
320,192,62311,1,0,0:0:0:0:
448,192,62311,1,0,0:0:0:0:
64,192,62438,1,2,0:0:0:0:
448,192,62438,1,0,0:0:0:0:
320,192,62565,128,0,62820:0:0:0:70:open hat.wav
64,192,62693,1,2,0:0:0:0:
448,192,62693,1,0,0:0:0:0:
64,192,62820,128,8,62947:0:0:0:0:
192,192,62820,1,0,0:0:0:0:
448,192,62820,1,0,0:0:0:0:
320,192,62947,1,0,0:0:0:0:
64,192,63074,128,2,63328:0:0:0:0:
448,192,63074,1,0,0:0:0:70:open hat.wav
192,192,63201,1,0,0:0:0:0:
192,192,63328,1,8,0:0:0:0:
320,192,63328,128,0,63582:0:0:0:0:
448,192,63328,1,0,0:0:0:0:
64,192,63582,1,2,0:0:0:0:
448,192,63582,128,0,64345:0:0:0:70:open hat.wav
64,192,63837,1,8,0:0:0:0:
192,192,63837,1,0,0:0:0:0:
320,192,63837,1,0,0:0:0:0:
192,192,64091,1,2,0:0:0:0:
320,192,64091,1,0,0:0:0:70:open hat.wav
64,192,64345,1,8,0:0:0:0:
192,192,64345,1,0,0:0:0:0:
320,192,64345,1,0,0:0:0:0:
64,192,64472,128,2,65108:0:0:0:0:
448,192,64472,1,0,0:0:0:0:
192,192,64599,1,0,0:0:0:70:open hat.wav
320,192,64726,1,2,0:0:0:0:
448,192,64726,1,0,0:0:0:0:
192,192,64854,1,8,0:0:0:0:
320,192,64854,1,0,0:0:0:0:
192,192,65108,1,2,0:0:0:0:
448,192,65108,1,0,0:0:0:70:open hat.wav
320,192,65235,1,0,0:0:0:0:
64,192,65362,1,8,0:0:0:0:
192,192,65362,128,0,65616:0:0:0:0:
448,192,65362,1,0,0:0:0:0:
320,192,65489,128,0,65743:0:0:0:0:
64,192,65616,1,2,0:0:0:0:
448,192,65616,128,0,65870:0:0:0:70:open hat.wav
64,192,65870,1,8,0:0:0:0:
192,192,65870,128,0,66125:0:0:0:0:
320,192,65870,1,0,0:0:0:0:
320,192,65998,128,0,66252:0:0:0:0:
64,192,66125,1,2,0:0:0:0:
448,192,66125,1,0,0:0:0:70:open hat.wav
64,192,66379,128,8,66760:0:0:0:0:
192,192,66379,1,0,0:0:0:0:
448,192,66379,1,0,0:0:0:0:
192,192,66506,1,2,0:0:0:0:
320,192,66506,1,0,0:0:0:0:
448,192,66633,128,0,67015:0:0:0:70:open hat.wav
192,192,66760,1,2,0:0:0:0:
320,192,66760,128,0,67015:0:0:0:0:
64,192,66887,1,8,0:0:0:0:
192,192,66887,1,0,0:0:0:0:
64,192,67015,128,0,67269:0:0:0:0:
320,192,67142,1,2,0:0:0:0:
448,192,67142,1,0,0:0:0:70:open hat.wav
192,192,67269,1,0,0:0:0:0:
64,192,67396,1,8,0:0:0:0:
320,192,67396,128,0,67904:0:0:0:0:
448,192,67396,1,0,0:0:0:0:
64,192,67650,128,2,68159:0:0:0:0:
192,192,67650,1,0,0:0:0:70:open hat.wav
448,192,67650,1,0,0:0:0:0:
192,192,67904,1,8,0:0:0:0:
448,192,67904,128,0,68667:0:0:0:0:
192,192,68159,128,2,68667:0:0:0:0:
320,192,68159,1,0,0:0:0:70:open hat.wav
64,192,68413,1,8,0:0:0:0:
320,192,68413,1,0,0:0:0:0:
64,192,68667,128,0,68921:0:0:0:0:
192,192,68794,1,2,0:0:0:0:
320,192,68794,1,0,0:0:0:0:
320,192,68921,1,8,0:0:0:0:
448,192,68921,1,0,0:0:0:0:
192,192,68985,1,0,0:0:0:0:
320,192,69048,1,0,0:0:0:0:
448,192,69112,1,0,0:0:0:0:
64,192,69176,1,2,0:0:0:0:
192,192,69176,1,0,0:0:0:0:
320,192,69239,1,0,0:0:0:0:
64,192,69303,1,0,0:0:0:70:clap.wav
448,192,69303,1,0,0:0:0:0:
192,192,69366,1,0,0:0:0:0:
320,192,69430,1,0,0:0:0:70:clap.wav
448,192,69430,1,0,0:0:0:0:
64,192,69493,1,0,0:0:0:0:
192,192,69557,1,0,0:0:0:0:
320,192,69620,1,0,0:0:0:0:
64,192,69684,1,4,0:0:0:0:
192,192,69684,1,2,0:0:0:0:
448,192,69684,128,0,70383:0:0:0:0:
64,192,69938,1,8,0:0:0:0:
192,192,69938,1,0,0:0:0:0:
320,192,69938,128,0,70383:0:0:0:0:
64,192,70193,1,2,0:0:0:0:
192,192,70193,128,0,70447:0:0:0:70:open hat.wav
64,192,70447,1,8,0:0:0:0:
320,192,70447,1,0,0:0:0:0:
448,192,70447,1,0,0:0:0:0:
64,192,70574,128,2,70955:0:0:0:0:
448,192,70574,128,0,70955:0:0:0:0:
192,192,70828,1,2,0:0:0:0:
320,192,70828,1,0,0:0:0:0:
192,192,70955,128,8,71654:0:0:0:0:
320,192,70955,1,0,0:0:0:0:
320,192,71209,128,2,71718:0:0:0:0:
448,192,71209,1,0,0:0:0:70:open hat.wav
64,192,71464,1,8,0:0:0:0:
448,192,71464,128,0,71718:0:0:0:0:
64,192,71718,128,2,72481:0:0:0:0:
192,192,71718,1,0,0:0:0:70:open hat.wav
192,192,71972,1,8,0:0:0:0:
320,192,71972,1,0,0:0:0:0:
448,192,71972,1,0,0:0:0:0:
320,192,72226,1,2,0:0:0:0:
448,192,72226,1,0,0:0:0:70:open hat.wav
192,192,72481,1,8,0:0:0:0:
320,192,72481,1,0,0:0:0:0:
448,192,72481,1,0,0:0:0:0:
192,192,72608,128,2,72989:0:0:0:0:
448,192,72608,1,0,0:0:0:0:
64,192,72735,1,0,0:0:0:70:open hat.wav
320,192,72862,1,2,0:0:0:0:
448,192,72862,1,0,0:0:0:0:
64,192,72989,1,8,0:0:0:0:
320,192,72989,1,0,0:0:0:0:
448,192,72989,1,0,0:0:0:0:
192,192,73243,1,2,0:0:0:0:
448,192,73243,128,0,73688:0:0:0:70:open hat.wav
64,192,73498,1,8,0:0:0:0:
192,192,73498,1,0,0:0:0:0:
320,192,73498,128,0,73752:0:0:0:0:
64,192,73752,128,0,74515:0:0:0:70:open hat.wav
192,192,73752,1,0,0:0:0:0:
448,192,73752,1,0,0:0:0:0:
192,192,74006,128,8,74451:0:0:0:0:
320,192,74006,1,0,0:0:0:0:
448,192,74006,1,0,0:0:0:0:
320,192,74260,128,2,74451:0:0:0:0:
448,192,74260,1,0,0:0:0:70:open hat.wav
192,192,74515,1,8,0:0:0:0:
320,192,74515,1,0,0:0:0:0:
448,192,74515,1,0,0:0:0:0:
64,192,74642,128,2,75023:0:0:0:0:
448,192,74642,128,0,75023:0:0:0:0:
192,192,74896,1,2,0:0:0:0:
320,192,74896,1,0,0:0:0:0:
192,192,75023,128,8,75277:0:0:0:0:
320,192,75023,1,0,0:0:0:0:
64,192,75277,1,2,0:0:0:0:
320,192,75277,128,0,75531:0:0:0:70:open hat.wav
64,192,75531,1,8,0:0:0:0:
192,192,75531,1,0,0:0:0:0:
448,192,75531,128,0,76040:0:0:0:0:
64,192,75786,1,2,0:0:0:0:
320,192,75786,1,0,0:0:0:70:open hat.wav
64,192,76040,128,8,76294:0:0:0:0:
192,192,76040,1,0,0:0:0:0:
320,192,76040,1,0,0:0:0:0:
320,192,76294,1,2,0:0:0:0:
448,192,76294,1,0,0:0:0:70:open hat.wav
64,192,76421,1,0,0:0:0:0:
192,192,76548,1,8,0:0:0:0:
320,192,76548,128,0,76930:0:0:0:0:
448,192,76548,1,0,0:0:0:0:
64,192,76676,1,2,0:0:0:0:
448,192,76676,1,4,0:0:0:0:
192,192,76803,128,0,77184:0:0:0:0:
64,192,76930,1,2,0:0:0:0:
448,192,76930,1,0,0:0:0:0:
64,192,77057,128,8,77438:0:0:0:0:
320,192,77057,1,0,0:0:0:0:
448,192,77057,1,0,0:0:0:0:
192,192,77311,128,2,77693:0:0:0:0:
320,192,77311,1,0,0:0:0:70:open hat.wav
64,192,77565,1,8,0:0:0:0:
320,192,77565,128,0,77947:0:0:0:0:
448,192,77565,1,0,0:0:0:0:
64,192,77820,1,4,0:0:0:0:
192,192,77820,1,2,0:0:0:0:
448,192,77820,128,0,78328:0:0:0:0:
64,192,78074,1,8,0:0:0:0:
192,192,78074,1,0,0:0:0:0:
320,192,78074,1,0,0:0:0:0:
64,192,78328,1,2,0:0:0:0:
192,192,78328,1,0,0:0:0:70:open hat.wav
320,192,78455,1,0,0:0:0:0:
64,192,78582,128,8,78964:0:0:0:0:
192,192,78582,1,0,0:0:0:0:
448,192,78582,1,0,0:0:0:0:
320,192,78709,1,2,0:0:0:0:
448,192,78709,1,0,0:0:0:0:
192,192,78837,128,0,79218:0:0:0:70:open hat.wav
320,192,78964,1,2,0:0:0:0:
448,192,78964,1,0,0:0:0:0:
64,192,79091,1,8,0:0:0:0:
320,192,79091,128,0,79472:0:0:0:0:
448,192,79091,1,0,0:0:0:0:
64,192,79345,1,2,0:0:0:0:
448,192,79345,128,0,79726:0:0:0:70:open hat.wav
64,192,79599,1,8,0:0:0:0:
192,192,79599,1,0,0:0:0:0:
320,192,79599,128,0,79981:0:0:0:0:
64,192,79726,1,8,0:0:0:0:
192,192,79726,1,0,0:0:0:0:
64,192,79854,128,2,80235:0:0:0:0:
192,192,79854,128,4,80235:0:0:0:0:
448,192,79854,1,0,0:0:0:0:
320,192,80108,1,8,0:0:0:0:
448,192,80108,1,0,0:0:0:0:
192,192,80362,128,2,80743:0:0:0:0:
320,192,80362,128,4,80743:0:0:0:0:
448,192,80362,1,0,0:0:0:0:
64,192,80616,1,8,0:0:0:0:
448,192,80616,1,0,0:0:0:0:
64,192,80870,1,2,0:0:0:0:
320,192,80870,128,4,81252:0:0:0:0:
448,192,80870,128,0,81252:0:0:0:0:
64,192,81125,1,8,0:0:0:0:
192,192,81125,1,0,0:0:0:0:
64,192,81379,1,2,0:0:0:0:
192,192,81379,1,4,0:0:0:0:
448,192,81379,1,0,0:0:0:0:
448,192,81506,1,0,0:0:0:0:
64,192,81633,1,8,0:0:0:0:
192,192,81633,1,0,0:0:0:0:
320,192,81633,1,0,0:0:0:0:
64,192,81760,1,8,0:0:0:0:
192,192,81760,1,0,0:0:0:0:
320,192,81760,1,0,0:0:0:0:
64,192,81887,1,2,0:0:0:0:
320,192,81887,1,4,0:0:0:0:
448,192,81887,128,0,82396:0:0:0:0:
64,192,82142,1,8,0:0:0:0:
192,192,82142,1,0,0:0:0:0:
320,192,82142,1,0,0:0:0:0:
64,192,82396,1,2,0:0:0:0:
192,192,82396,1,0,0:0:0:70:open hat.wav
64,192,82650,1,8,0:0:0:0:
320,192,82650,1,0,0:0:0:0:
448,192,82650,1,0,0:0:0:0:
64,192,82777,1,2,0:0:0:0:
192,192,82777,1,0,0:0:0:0:
320,192,82904,1,0,0:0:0:70:open hat.wav
448,192,82904,128,0,83159:0:0:0:0:
64,192,83031,1,2,0:0:0:0:
192,192,83031,1,0,0:0:0:0:
64,192,83159,1,8,0:0:0:0:
192,192,83159,1,0,0:0:0:0:
320,192,83159,1,0,0:0:0:0:
192,192,83413,128,2,83667:0:0:0:0:
320,192,83413,1,0,0:0:0:70:open hat.wav
64,192,83667,1,8,0:0:0:0:
320,192,83667,1,0,0:0:0:0:
448,192,83667,1,0,0:0:0:0:
64,192,83794,128,0,84557:0:0:0:0:
320,192,83921,1,2,0:0:0:0:
448,192,83921,1,0,0:0:0:70:open hat.wav
192,192,84176,1,8,0:0:0:0:
448,192,84176,1,0,0:0:0:0:
448,192,84303,1,0,0:0:0:0:
192,192,84430,1,8,0:0:0:0:
320,192,84430,1,0,0:0:0:70:open hat.wav
192,192,84557,1,0,0:0:0:0:
64,192,84684,1,8,0:0:0:0:
320,192,84684,1,0,0:0:0:0:
448,192,84684,1,0,0:0:0:0:
192,192,84811,1,2,0:0:0:0:
320,192,84811,1,0,0:0:0:0:
64,192,84938,1,0,0:0:0:70:open hat.wav
320,192,85065,1,2,0:0:0:0:
448,192,85065,1,0,0:0:0:0:
64,192,85193,1,8,0:0:0:0:
192,192,85193,1,0,0:0:0:0:
448,192,85193,1,0,0:0:0:0:
64,192,85447,1,2,0:0:0:0:
448,192,85447,128,4,85701:0:0:0:0:
192,192,85574,1,0,0:0:0:0:
64,192,85701,1,8,0:0:0:0:
320,192,85701,1,0,0:0:0:0:
192,192,85828,1,0,0:0:0:0:
64,192,85955,128,4,86209:0:0:0:0:
320,192,85955,1,2,0:0:0:0:
448,192,85955,1,0,0:0:0:0:
192,192,86209,1,0,0:0:0:0:
320,192,86337,128,0,86972:0:0:0:0:
64,192,86972,128,0,87481:0:0:0:0:
320,192,87481,128,0,87735:0:0:0:0:
192,192,87735,128,2,87989:0:0:0:0:
448,192,87735,1,0,0:0:0:0:
64,192,87989,1,4,0:0:0:0:
320,192,87989,1,2,0:0:0:0:
448,192,87989,128,0,88498:0:0:0:0:
64,192,88498,1,2,0:0:0:0:
320,192,88498,128,4,89006:0:0:0:0:
192,192,89006,128,2,89515:0:0:0:0:
448,192,89006,1,4,0:0:0:0:
64,192,89515,128,0,90023:0:0:0:70:toms.wav
320,192,89769,1,2,0:0:0:0:
448,192,89769,1,0,0:0:0:0:
192,192,90023,1,2,0:0:0:0:
320,192,90023,1,4,0:0:0:0:
448,192,90023,1,0,0:0:0:0:
64,192,90277,1,8,0:0:0:0:
192,192,90277,1,0,0:0:0:0:
320,192,90277,1,0,0:0:0:0:
64,192,90531,1,2,0:0:0:0:
448,192,90531,1,0,0:0:0:70:open hat.wav
64,192,90786,1,8,0:0:0:0:
192,192,90786,1,0,0:0:0:0:
448,192,90786,1,0,0:0:0:0:
192,192,90913,1,2,0:0:0:0:
320,192,90913,1,0,0:0:0:0:
448,192,91040,1,0,0:0:0:70:open hat.wav
64,192,91167,1,2,0:0:0:0:
192,192,91167,1,0,0:0:0:0:
64,192,91294,1,8,0:0:0:0:
320,192,91294,1,0,0:0:0:0:
448,192,91294,1,0,0:0:0:0:
192,192,91548,1,2,0:0:0:0:
320,192,91548,1,0,0:0:0:70:open hat.wav
64,192,91803,1,8,0:0:0:0:
192,192,91803,1,0,0:0:0:0:
448,192,91803,1,0,0:0:0:0:
320,192,91930,1,0,0:0:0:0:
64,192,92057,1,2,0:0:0:0:
192,192,92057,1,0,0:0:0:70:open hat.wav
64,192,92311,1,8,0:0:0:0:
320,192,92311,1,0,0:0:0:0:
448,192,92311,1,0,0:0:0:0:
320,192,92565,128,2,92820:0:0:0:0:
448,192,92565,128,0,92820:0:0:0:70:open hat.wav
64,192,92820,1,8,0:0:0:0:
192,192,92820,1,0,0:0:0:0:
64,192,92947,1,2,0:0:0:0:
448,192,92947,1,0,0:0:0:0:
192,192,93074,128,0,93328:0:0:0:70:open hat.wav
320,192,93074,128,0,93328:0:0:0:0:
64,192,93201,1,2,0:0:0:0:
448,192,93201,1,0,0:0:0:0:
64,192,93328,1,8,0:0:0:0:
448,192,93328,1,0,0:0:0:0:
320,192,93455,1,0,0:0:0:0:
64,192,93582,128,2,93837:0:0:0:0:
192,192,93582,128,0,93837:0:0:0:70:open hat.wav
320,192,93837,1,8,0:0:0:0:
448,192,93837,1,0,0:0:0:0:
64,192,94091,128,4,96125:0:0:0:0:
192,192,94091,1,2,0:0:0:0:
448,192,94091,1,0,0:0:0:0:
448,192,94345,1,0,0:0:0:0:
192,192,94472,1,2,0:0:0:0:
320,192,94472,1,0,0:0:0:0:
448,192,94599,1,0,0:0:0:0:
192,192,94726,1,0,0:0:0:0:
320,192,94854,1,2,0:0:0:0:
448,192,94854,1,0,0:0:0:0:
192,192,94981,1,0,0:0:0:0:
320,192,95108,1,8,0:0:0:0:
448,192,95108,1,0,0:0:0:0:
192,192,95235,1,0,0:0:0:0:
448,192,95362,1,0,0:0:0:70:toms.wav
192,192,95489,1,0,0:0:0:70:toms.wav
320,192,95489,1,0,0:0:0:0:
448,192,95616,1,0,0:0:0:0:
192,192,95743,1,0,0:0:0:70:toms.wav
320,192,95870,1,0,0:0:0:70:toms.wav
448,192,95870,1,0,0:0:0:0:
192,192,95998,1,0,0:0:0:0:
320,192,96125,128,2,96760:0:0:0:0:
448,192,96125,128,4,96760:0:0:0:0:
192,192,96506,128,0,96760:0:0:0:0:
64,192,96887,128,2,100193:0:0:0:0:
192,192,96887,128,4,100193:0:0:0:0:
320,192,96887,128,0,100193:0:0:0:0:
448,192,96887,128,0,100193:0:0:0:0:
