osu file format v14

[General]
AudioFilename: fullcut.mp3
AudioLeadIn: 0
PreviewTime: 52804
Countdown: 0
SampleSet: Soft
StackLeniency: 0.7
Mode: 2
LetterboxInBreaks: 0
WidescreenStoryboard: 1

[Editor]
DistanceSpacing: 0.9
BeatDivisor: 8
GridSize: 8
TimelineZoom: 2.2

[Metadata]
Title:Girls' Carnival
TitleUnicode:Girls' Carnival
Artist:Yuuka
ArtistUnicode:ユウカ
Creator:-Luminate
Version:Salad
Source:Making*Lovers
Tags:eroge visual novel opening op video game japanese making lovers making*lovers SMEE メイキング ラバーズ jpop entergram
BeatmapID:2347410
BeatmapSetID:1121498

[Difficulty]
HPDrainRate:4
CircleSize:3
OverallDifficulty:7
ApproachRate:7
SliderMultiplier:2.2
SliderTickRate:1

[Events]
//Background and Video events
Video,0,"vid.mp4"
0,0,"boomer.jpg",0,0
//Break Periods
//Storyboard Layer 0 (Background)
//Storyboard Layer 1 (Fail)
//Storyboard Layer 2 (Pass)
//Storyboard Layer 3 (Foreground)
//Storyboard Layer 4 (Overlay)
//Storyboard Sound Samples

[TimingPoints]
614,508.474576271186,4,2,4,45,1,0
868,-100,4,2,2,45,0,0
1376,-100,4,2,4,45,0,0
1503,-100,4,2,3,45,0,0
1885,-100,4,2,2,45,0,0
2393,-100,4,2,4,45,0,0
2647,-100,4,2,4,50,0,0
2902,-100,4,2,2,50,0,0
3410,-100,4,2,4,50,0,0
3537,-100,4,2,3,50,0,0
3919,-100,4,2,2,50,0,0
4427,-100,4,2,4,50,0,0
4936,-100,4,2,2,55,0,0
5444,-100,4,2,4,55,0,0
5571,-100,4,2,3,55,0,0
5953,-100,4,2,2,55,0,0
6461,-100,4,2,4,55,0,0
6715,-100,4,2,1,60,0,0
6969,-100,4,2,2,60,0,0
7224,-100,4,2,1,60,0,0
7478,-100,4,2,4,60,0,0
7732,-100,4,2,1,70,0,0
8758,508.474576271186,4,2,1,80,1,0
14859,-100,4,2,1,70,0,0
18037,-100,4,2,1,65,0,0
18927,-100,4,2,1,75,0,0
43333,-100,4,2,1,65,0,0
49562,-100,4,2,1,70,0,0
51469,-100,4,2,1,80,0,0
52868,-100,4,2,1,55,0,0
53503,-100,4,2,1,90,0,1
81460,508.474576271186,4,2,1,90,1,1
81985,508.474576271186,4,2,1,90,1,1
86052,-100,4,2,1,70,0,0
90120,-100,4,2,1,80,0,0
94188,-100,4,2,1,65,0,0
97112,-100,4,2,1,30,0,0
98256,-100,4,2,1,20,0,0
99273,-100,4,2,1,10,0,0
100290,-100,4,2,1,5,0,0

[Colours]
Combo1 : 255,83,255
Combo2 : 189,231,133
Combo3 : 64,214,225
Combo4 : 236,119,227

[HitObjects]
96,200,614,6,0,L|208:200,2,110,2|2|2,3:0|0:3|0:0,0:0:0:0:
280,280,1503,2,0,P|312:184|272:120,1,165,2|2,0:3|0:3,0:0:0:0:
176,112,2139,2,0,L|160:48,2,55,2|2|2,0:0|0:3|0:3,0:0:0:0:
432,200,2647,6,0,L|320:200,2,110,2|2|2,3:0|0:3|0:0,0:0:0:0:
248,280,3537,2,0,P|216:184|256:120,1,165,2|2,0:3|0:3,0:0:0:0:
352,112,4173,2,0,L|368:48,2,55,2|2|2,0:0|0:3|0:3,0:0:0:0:
144,48,4681,6,0,L|8:48,1,110,2|10,3:0|0:3,0:0:0:0:
176,136,5190,2,0,L|192:208,2,55,2|2|10,0:0|0:3|0:3,0:0:0:0:
112,128,5571,1,2,0:3:0:0:
248,304,5825,2,0,L|248:232,1,55,2|10,0:3|0:3,0:0:0:0:
112,232,6207,2,0,L|32:232,2,55,2|2|10,0:0|0:3|0:3,0:0:0:0:
352,232,6715,6,0,L|464:168,1,110,8|8,0:0|0:3,0:0:0:0:
320,120,7224,2,0,L|216:176,1,110,8|10,0:0|0:3,0:0:0:0:
360,352,7732,1,8,0:0:0:0:
376,272,7859,1,8,0:0:0:0:
360,176,7986,2,0,L|232:176,1,110,8|8,0:1|0:0,0:0:0:0:
376,80,8495,1,8,0:3:0:0:
120,88,8758,6,0,L|112:200,1,110,12|8,0:0|0:1,0:0:0:0:
199,264,9266,2,0,L|109:196,1,110,8|8,0:0|0:1,0:0:0:0:
168,344,9647,2,0,P|272:312|288:256,1,165,10|8,0:0|0:1,0:0:0:0:
168,168,10283,1,8,0:0:0:0:
288,96,10537,1,8,0:1:0:0:
32,104,10791,6,0,L|40:-8,1,110,2|8,0:0|0:1,0:0:0:0:
160,160,11300,2,0,L|168:224,1,55,8|8,0:0|0:0,0:0:0:0:
40,272,11681,2,0,L|152:272,1,110,10|8,0:0|0:0,0:0:0:0:
232,232,12063,2,0,P|240:160|216:128,1,110,8|8,0:1|0:0,0:0:0:0:
104,128,12571,1,8,0:1:0:0:
336,320,12825,6,0,L|464:320,1,110,10|8,0:0|0:1,0:0:0:0:
216,184,13334,2,0,L|96:184,1,110,10|8,0:0|0:1,0:0:0:0:
192,152,13715,2,0,P|216:88|136:32,1,165,10|8,0:0|0:1,0:0:0:0:
40,64,14351,1,10,0:0:0:0:
160,136,14605,1,8,0:1:0:0:
416,272,14859,6,0,L|424:160,1,110,14|8,0:0|0:1,0:0:0:0:
304,200,15368,2,0,L|296:80,1,110,8|8,0:0|0:1,0:0:0:0:
168,160,15876,2,0,L|176:40,1,110,8|8,0:0|0:1,0:0:0:0:
304,48,16385,2,0,L|352:88,2,55,8|8|8,0:1|0:1|0:3,0:0:0:0:
56,256,16893,6,0,P|72:184|160:152,1,165,14|8,0:0|0:3,0:0:0:0:
232,152,17402,1,8,0:0:0:0:
480,208,17656,2,0,P|456:152|360:112,1,165,14|8,0:0|0:1,0:0:0:0:
296,168,18164,2,0,L|288:232,2,55,8|8|8,0:0|0:0|0:3,0:0:0:0:
416,256,18673,1,8,0:0:0:0:
168,256,18927,6,0,L|32:208,2,110,4|8|2,0:1|0:1|0:0,0:0:0:0:
288,256,19690,1,8,0:1:0:0:
344,256,19817,2,0,P|384:168|320:120,1,165,10|8,0:0|0:1,0:0:0:0:
240,104,20452,1,10,0:0:0:0:
344,72,20707,1,8,0:1:0:0:
136,288,20961,6,0,L|32:248,2,110,10|8|8,0:0|0:1|0:0,0:0:0:0:
288,288,21724,1,8,0:1:0:0:
328,240,21851,2,0,P|320:176|208:104,1,165,2|8,0:0|0:1,0:0:0:0:
136,64,22486,1,10,0:0:0:0:
248,112,22741,1,8,0:1:0:0:
464,320,22995,6,0,L|472:176,1,110,10|8,0:0|0:1,0:0:0:0:
344,200,23503,2,0,L|336:64,1,110,10|8,0:0|0:1,0:0:0:0:
424,64,23885,2,0,L|232:64,1,165,10|10,0:0|0:1,0:0:0:0:
144,136,24520,1,8,0:0:0:0:
256,232,24774,1,10,0:1:0:0:
32,304,25029,6,0,L|160:264,2,110,10|8|8,0:0|0:1|0:0,0:0:0:0:
160,336,25791,1,10,0:1:0:0:
224,320,25919,2,0,P|256:272|192:176,1,165,2|8,0:0|0:1,0:0:0:0:
160,184,26427,1,8,0:0:0:0:
160,184,26554,1,10,0:0:0:0:
32,192,26808,1,8,0:0:0:0:
256,352,27063,6,0,L|368:352,1,110,4|8,0:1|0:1,0:0:0:0:
232,256,27571,2,0,P|224:184|256:144,1,110,10|8,0:0|0:1,0:0:0:0:
320,152,27952,2,0,P|408:112|424:24,1,165,10|8,0:0|0:1,0:0:0:0:
320,48,28588,1,8,0:0:0:0:
216,40,28842,1,8,0:1:0:0:
424,288,29096,6,0,L|328:200,2,110,10|8|8,0:0|0:1|0:0,0:0:0:0:
288,336,29859,1,8,0:1:0:0:
232,336,29986,2,0,P|144:272|136:200,1,165,10|8,0:0|0:1,0:0:0:0:
240,160,30622,1,10,0:0:0:0:
136,112,30876,1,10,0:1:0:0:
368,288,31130,6,0,L|512:264,2,110,10|8|8,0:0|0:1|0:0,0:0:0:0:
240,288,31893,1,8,0:1:0:0:
24,224,32147,2,0,P|56:128|72:112,1,110,10|8,0:0|0:1,0:0:0:0:
144,128,32529,2,0,P|72:104|24:0,1,165,10|8,0:0|0:1,0:0:0:0:
264,32,33164,6,0,L|392:32,1,110,14|8,0:0|0:1,0:0:0:0:
248,144,33673,1,8,0:0:0:0:
472,152,33927,1,8,0:1:0:0:
496,200,34054,2,0,P|464:280|376:304,1,165,4|8,0:0|0:1,0:0:0:0:
344,304,34563,1,8,0:0:0:0:
344,304,34690,1,8,0:3:0:0:
464,320,34944,1,8,0:0:0:0:
216,320,35198,6,0,L|72:288,2,110,4|8|8,0:1|0:1|0:0,0:0:0:0:
344,312,35961,2,0,P|392:208|296:136,1,220,8|8,0:1|0:1,0:0:0:0:
208,144,36724,2,0,L|208:24,1,110,10|8,0:0|0:1,0:0:0:0:
320,320,37232,6,0,L|448:288,2,110,10|8|8,0:0|0:1|0:0,0:0:0:0:
192,312,37995,2,0,P|136:208|216:160,1,220,8|8,0:1|0:1,0:0:0:0:
424,160,38757,2,0,L|424:32,1,110,10|8,0:0|0:1,0:0:0:0:
304,48,39266,6,0,L|192:136,2,110,10|8|8,0:0|0:1|0:0,0:0:0:0:
416,48,40029,1,8,0:1:0:0:
312,96,40283,1,10,0:0:0:0:
272,184,40537,1,8,0:1:0:0:
304,288,40791,1,8,0:0:0:0:
384,352,41046,1,8,0:1:0:0:
136,352,41300,6,0,L|0:352,2,110,10|8|8,0:0|0:1|0:0,0:0:0:0:
256,336,42063,1,8,0:1:0:0:
488,312,42317,2,0,P|472:216|424:192,1,110,10|8,0:0|0:1,0:0:0:0:
336,176,42825,2,0,L|344:112,1,55,10|8,0:1|0:1,0:0:0:0:
392,104,43080,1,8,0:3:0:0:
168,96,43334,6,0,L|48:56,2,110,14|0|8,0:0|0:0|0:1,0:0:0:0:
296,152,44096,1,0,0:0:0:0:
352,168,44224,2,0,P|368:224|280:312,1,165,2|8,0:0|0:0,0:0:0:0:
200,328,44859,1,8,0:1:0:0:
96,296,45113,1,0,0:0:0:0:
344,296,45368,6,0,L|456:264,2,110,12|0|8,0:0|0:0|0:1,0:0:0:0:
208,296,46130,1,8,0:0:0:0:
144,288,46257,2,0,P|48:224|40:144,1,165,2|2,0:0|0:0,0:0:0:0:
136,112,46893,1,8,0:1:0:0:
32,72,47147,1,8,0:0:0:0:
264,320,47402,6,0,P|368:264|360:144,1,220,14|8,0:0|0:1,0:0:0:0:
248,152,48164,1,0,0:0:0:0:
480,48,48419,2,0,L|336:104,2,110,12|0|8,0:0|0:0|0:1,0:0:0:0:
376,176,49181,1,10,0:0:0:0:
136,280,49435,6,0,L|16:256,1,110,14|8,0:0|0:1,0:0:0:0:
152,192,49944,2,0,L|160:80,1,110,8|8,0:0|0:1,0:0:0:0:
24,48,50452,2,0,L|160:8,1,110,8|8,0:0|0:1,0:0:0:0:
248,88,50961,1,8,0:1:0:0:
240,152,51088,1,10,0:1:0:0:
192,192,51215,1,8,0:3:0:0:
424,320,51469,5,10,0:1:0:0:
272,240,51851,1,8,0:1:0:0:
424,320,52232,1,8,0:1:0:0:
200,344,52486,2,0,P|240:232|304:216,1,165,14|2,0:0|0:0,0:0:0:0:
336,208,52995,1,2,0:0:0:0:
392,200,53122,1,2,0:0:0:0:
104,72,53503,6,0,L|-16:160,2,110,4|10|10,0:0|0:1|0:0,0:0:0:0:
328,56,54266,1,8,0:1:0:0:
392,64,54393,2,0,P|480:112|504:200,1,165,10|8,0:0|0:1,0:0:0:0:
400,240,55029,1,8,0:0:0:0:
504,320,55283,1,8,0:1:0:0:
272,344,55537,6,0,L|144:312,2,110,10|8|8,0:0|0:1|0:0,0:0:0:0:
64,288,56300,1,8,0:1:0:0:
24,232,56427,2,0,P|64:168|120:152,1,110,10|8,0:0|0:0,0:0:0:0:
152,128,56808,2,0,L|32:72,1,110,8|8,0:1|0:0,0:0:0:0:
144,216,57317,1,8,0:1:0:0:
376,328,57571,6,0,L|496:312,1,110,10|10,0:0|0:1,0:0:0:0:
280,248,58080,2,0,L|272:128,1,110,10|8,0:0|0:1,0:0:0:0:
352,152,58461,2,0,P|424:112|440:24,1,165,10|10,0:0|0:1,0:0:0:0:
328,80,59096,1,10,0:0:0:0:
432,160,59351,1,8,0:1:0:0:
200,264,59605,6,0,L|72:232,2,110,10|8|8,0:0|0:1|0:0,0:0:0:0:
320,272,60368,1,8,0:1:0:0:
96,352,60622,2,0,L|88:232,1,110,10|8,0:0|0:1,0:0:0:0:
224,232,61130,2,0,L|336:192,1,110,10|8,0:0|0:1,0:0:0:0:
88,136,61639,6,0,L|192:80,2,110,14|8|8,0:0|0:1|0:0,0:0:0:0:
168,240,62402,1,8,0:1:0:0:
400,240,62656,2,0,L|408:120,1,110,10|8,0:0|0:1,0:0:0:0:
288,72,63164,1,10,0:0:0:0:
408,40,63419,1,8,0:1:0:0:
192,296,63673,6,0,L|64:208,2,110,10|8|8,0:0|0:1|0:0,0:0:0:0:
416,304,64435,1,8,0:1:0:0:
480,256,64563,2,0,P|472:192|368:128,1,165,10|8,0:0|0:1,0:0:0:0:
296,80,65198,1,8,0:0:0:0:
400,32,65452,1,8,0:1:0:0:
168,304,65707,6,0,L|24:288,1,110,10|8,0:0|0:1,0:0:0:0:
120,264,66088,2,0,P|128:184|40:152,1,165,8|8,0:0|0:1,0:0:0:0:
296,336,66724,2,0,L|424:272,1,110,10|8,0:0|0:1,0:0:0:0:
456,264,67105,1,2,0:0:0:0:
112,208,67486,6,0,P|104:136|136:96,1,110,10|8,0:1|0:0,0:0:0:0:
256,144,67995,2,0,P|264:72|240:16,1,110,10|8,0:1|0:0,0:0:0:0:
120,40,68503,1,8,0:1:0:0:
352,336,68757,6,0,L|456:280,1,110,14|8,0:0|0:1,0:0:0:0:
480,240,69139,1,2,0:0:0:0:
472,168,69266,1,10,0:0:0:0:
416,136,69393,1,2,0:0:0:0:
72,136,69774,6,0,L|216:96,2,110,14|10|8,0:0|0:0|0:0,0:0:0:0:
272,192,70537,1,8,0:1:0:0:
320,200,70664,2,0,P|344:240|312:352,1,165,10|8,0:0|0:1,0:0:0:0:
200,328,71300,1,8,0:0:0:0:
88,304,71554,1,8,0:1:0:0:
320,200,71808,6,0,L|448:160,2,110,10|8|8,0:0|0:1|0:0,0:0:0:0:
104,160,72571,1,8,0:1:0:0:
48,128,72698,2,0,P|90:59|168:43,1,165,10|8,0:0|0:1,0:0:0:0:
296,80,73334,1,8,0:0:0:0:
400,152,73588,1,8,0:1:0:0:
152,272,73842,6,0,L|8:232,2,110,10|8|8,0:0|0:1|0:0,0:0:0:0:
376,280,74605,1,8,0:1:0:0:
440,256,74732,2,0,P|448:200|352:128,1,165,10|8,0:0|0:1,0:0:0:0:
272,112,75368,1,10,0:0:0:0:
496,336,75622,6,0,L|504:200,1,110,10|8,0:1|0:0,0:0:0:0:
280,208,76130,2,0,L|272:80,1,110,10|8,0:1|0:0,0:0:0:0:
304,48,76512,1,8,0:0:0:0:
352,24,76639,1,10,0:1:0:0:
120,272,76893,2,0,L|224:200,2,110,14|8|8,0:0|0:1|0:0,0:0:0:0:
264,336,77656,1,10,0:1:0:0:
35,334,77910,6,0,P|67:294|139:270,1,110,6|8,0:0|0:1,0:0:0:0:
240,224,78419,2,0,P|248:160|232:96,1,110,8|8,0:0|0:1,0:0:0:0:
376,80,78927,2,0,L|264:32,2,110,10|8|10,0:0|0:1|0:0,0:0:0:0:
256,160,79690,1,8,0:1:0:0:
480,288,79944,6,0,P|496:240|480:176,1,110,14|8,0:0|0:1,0:0:0:0:
264,328,80452,2,0,P|328:304|376:256,1,110,10|8,0:0|0:1,0:0:0:0:
144,232,80961,2,0,P|136:128|144:112,1,110,14|8,0:0|0:1,0:0:0:0:
264,80,81460,1,8,0:0:0:0:
224,56,81587,1,10,0:1:0:0:
176,40,81714,1,10,0:1:0:0:
416,320,81985,6,0,P|432:256|384:192,1,110,14|8,0:0|0:1,0:0:0:0:
344,208,82366,2,0,P|336:128|424:88,1,165,10|8,0:0|0:1,0:0:0:0:
464,80,82874,1,8,0:0:0:0:
392,192,83001,2,0,L|256:104,2,110,8|10|8,0:0|0:1|0:0,0:0:0:0:
160,328,83764,1,8,0:1:0:0:
96,304,83891,6,0,P|88:232|184:176,1,165,8|8,0:0|0:1,0:0:0:0:
272,152,84527,1,10,0:0:0:0:
272,152,84654,1,8,0:0:0:0:
144,152,84908,2,0,P|104:72|176:24,1,165,10|8,0:0|0:1,0:0:0:0:
272,48,85544,1,10,0:0:0:0:
384,88,85798,1,8,0:3:0:0:
136,296,86052,5,12,0:0:0:0:
264,336,86307,1,8,0:0:0:0:
328,336,86434,2,0,P|448:272|280:40,1,495,2|2,0:0|0:0,0:0:0:0:
192,32,87832,1,8,0:0:0:0:
424,48,88086,5,4,0:0:0:0:
208,120,88595,1,10,0:0:0:0:
424,208,89103,1,6,0:0:0:0:
304,320,89485,2,0,L|240:304,1,55,8|8,0:0|0:0,0:0:0:0:
128,280,89866,1,4,0:3:0:0:
352,240,90120,6,0,L|472:208,2,110,14|8|8,0:1|0:1|0:0,0:0:0:0:
224,240,90883,1,8,0:1:0:0:
224,240,91010,1,8,0:0:0:0:
376,184,91391,2,0,L|496:152,2,110,8|8|8,0:1|0:0|0:1,0:0:0:0:
144,240,92154,6,0,L|24:208,2,110,8|8|8,0:0|0:1|0:0,0:0:0:0:
272,240,92917,1,8,0:1:0:0:
272,240,93044,1,8,0:0:0:0:
120,184,93425,2,0,L|0:152,2,110,8|8|8,0:1|0:0|0:1,0:0:0:0:
352,248,94188,6,0,L|488:144,2,165,12|8|8,0:0|0:0|0:0,0:0:0:0:
128,248,95205,1,10,0:1:0:0:
240,200,95459,1,8,0:3:0:0:
288,184,95586,1,8,0:0:0:0:
424,152,95968,1,4,0:3:0:0:
184,288,96222,6,0,P|144:216|192:144,1,165,4|8,0:0|0:0,0:0:0:0:
480,152,96984,1,4,0:0:0:0:
256,192,97239,12,2,100290,0:0:0:0:
