osu file format v14

[General]
AudioFilename: fullcut.mp3
AudioLeadIn: 0
PreviewTime: 52804
Countdown: 0
SampleSet: Soft
StackLeniency: 0.7
Mode: 2
LetterboxInBreaks: 0
WidescreenStoryboard: 1

[Editor]
DistanceSpacing: 0.7
BeatDivisor: 4
GridSize: 8
TimelineZoom: 2.2

[Metadata]
Title:Girls' Carnival
TitleUnicode:Girls' Carnival
Artist:Yuuka
ArtistUnicode:ユウカ
Creator:-Luminate
Version:Rain
Source:Making*Lovers
Tags:eroge visual novel opening op video game japanese making lovers making*lovers SMEE メイキング ラバーズ jpop entergram
BeatmapID:2343722
BeatmapSetID:1121498

[Difficulty]
HPDrainRate:6
CircleSize:3.9
OverallDifficulty:9
ApproachRate:9
SliderMultiplier:2.8
SliderTickRate:4

[Events]
//Background and Video events
Video,0,"vid.mp4"
0,0,"okok.jpg",0,0
//Break Periods
//Storyboard Layer 0 (Background)
//Storyboard Layer 1 (Fail)
//Storyboard Layer 2 (Pass)
//Storyboard Layer 3 (Foreground)
//Storyboard Layer 4 (Overlay)
//Storyboard Sound Samples

[TimingPoints]
614,508.474576271186,4,2,4,45,1,0
868,-100,4,2,2,45,0,0
1376,-100,4,2,4,45,0,0
1503,-100,4,2,3,45,0,0
1885,-100,4,2,2,45,0,0
2393,-100,4,2,4,45,0,0
2647,-100,4,2,4,50,0,0
2902,-100,4,2,2,50,0,0
3410,-100,4,2,4,50,0,0
3537,-100,4,2,3,50,0,0
3919,-100,4,2,2,50,0,0
4427,-100,4,2,4,50,0,0
4936,-100,4,2,2,55,0,0
5444,-100,4,2,4,55,0,0
5571,-100,4,2,3,55,0,0
5953,-100,4,2,2,55,0,0
6461,-100,4,2,4,55,0,0
6715,-100,4,2,1,60,0,0
6969,-100,4,2,2,60,0,0
7224,-100,4,2,1,60,0,0
7478,-100,4,2,4,60,0,0
7732,-100,4,2,1,70,0,0
8758,508.474576271186,4,2,1,80,1,0
14859,-100,4,2,1,70,0,0
18037,-100,4,2,1,65,0,0
18927,-100,4,2,1,75,0,0
43333,-100,4,2,1,65,0,0
49562,-100,4,2,1,70,0,0
51469,-100,4,2,1,80,0,0
52868,-100,4,2,1,55,0,0
53503,-100,4,2,1,90,0,1
81460,508.474576271186,4,2,1,90,1,1
81985,508.474576271186,4,2,1,90,1,1
86052,-100,4,2,1,70,0,0
90120,-100,4,2,1,80,0,0
94188,-100,4,2,1,65,0,0
97112,-100,4,2,1,30,0,0
98256,-100,4,2,1,20,0,0
99273,-100,4,2,1,10,0,0
100290,-100,4,2,1,5,0,0

[Colours]
Combo1 : 255,128,192
Combo2 : 255,255,119
Combo3 : 251,227,98
Combo4 : 255,128,128

[HitObjects]
88,224,614,6,0,L|248:224,2,140,2|2|2,3:0|0:3|0:0,0:0:0:0:
200,304,1249,1,2,0:3:0:0:
288,272,1376,1,2,0:3:0:0:
144,216,1503,2,0,P|112:144|168:112,1,140,2|2,0:3|0:3,0:0:0:0:
240,112,1885,1,2,0:3:0:0:
392,224,2139,2,0,L|312:224,2,70,2|2|2,0:0|0:3|0:3,0:0:0:0:
152,304,2647,6,0,L|320:304,2,140,2|2|2,3:0|0:3|0:0,0:0:0:0:
72,248,3283,1,2,0:3:0:0:
152,208,3410,1,2,0:3:0:0:
304,208,3537,2,0,P|344:152|280:104,1,140,2|2,0:3|0:3,0:0:0:0:
216,104,3919,1,2,0:3:0:0:
400,312,4173,2,0,L|472:312,2,70,2|2|2,0:0|0:3|0:3,0:0:0:0:
136,304,4681,5,2,3:0:0:0:
280,256,4936,2,0,P|312:192|264:144,1,140,10|2,0:3|0:0,0:0:0:0:
176,136,5317,2,0,L|168:40,1,70,2|10,0:3|0:3,0:0:0:0:
272,64,5571,2,0,L|424:64,1,140,2|2,0:3|0:3,0:0:0:0:
320,128,5952,1,10,0:3:0:0:
80,208,6207,2,0,L|168:208,2,70,2|2|10,0:0|0:3|0:3,0:0:0:0:
392,336,6715,6,0,P|432:288|376:224,1,140,8|8,0:0|0:3,0:0:0:0:
160,232,7224,2,0,P|136:152|184:136,1,140,8|10,0:0|0:3,0:0:0:0:
264,136,7605,1,2,0:3:0:0:
64,328,7732,2,0,L|56:240,1,70,8|8,0:0|0:0,0:0:0:0:
192,256,7986,1,8,0:1:0:0:
245,214,8113,1,0,0:0:0:0:
251,146,8241,1,8,0:0:0:0:
204,97,8368,1,8,0:0:0:0:
88,56,8495,2,0,L|168:56,1,70,8|4,0:3|0:3,0:0:0:0:
408,280,8758,6,0,P|440:208|392:168,1,140,12|8,0:0|0:1,0:0:0:0:
208,168,9266,2,0,P|112:144|72:96,1,140,8|8,0:0|0:1,0:0:0:0:
352,336,9647,2,0,P|456:288|472:240,1,140,10|8,0:0|0:0,0:0:0:0:
368,240,10029,2,0,L|216:240,2,140,8|8|8,0:1|0:0|0:1,0:0:0:0:
48,192,10791,5,2,0:0:0:0:
192,192,11046,2,0,P|224:128|160:80,1,140,8|8,0:1|0:0,0:0:0:0:
96,48,11427,2,0,L|184:48,1,70,8|8,0:0|0:1,0:0:0:0:
288,112,11681,2,0,L|120:112,1,140,10|8,0:0|0:0,0:0:0:0:
48,112,12063,1,8,0:1:0:0:
256,192,12317,2,0,L|408:192,1,140,8|8,0:0|0:1,0:0:0:0:
64,160,12825,6,0,P|48:88|128:64,1,140,10|8,0:0|0:1,0:0:0:0:
272,64,13334,2,0,L|112:64,1,140,10|8,0:0|0:1,0:0:0:0:
376,288,13715,2,0,P|416:240|368:184,1,140,10|8,0:0|0:0,0:0:0:0:
280,184,14096,2,0,L|272:96,1,70,8|0,0:1|0:0,0:0:0:0:
416,96,14351,2,0,L|336:96,2,70,10|8|8,0:0|0:0|0:1,0:0:0:0:
56,208,14859,6,0,L|224:208,2,140,14|8|8,0:0|0:1|0:0,0:0:0:0:
224,304,15622,1,8,0:1:0:0:
136,296,15749,2,0,P|112:208|168:192,1,140,8|8,0:0|0:0,0:0:0:0:
248,184,16130,2,0,L|344:184,1,70,8|0,0:1|0:0,0:0:0:0:
208,96,16385,2,0,L|120:96,1,70,8|8,0:1|0:1,0:0:0:0:
376,296,16639,2,0,L|280:296,1,70,8|4,0:3|0:3,0:0:0:0:
64,264,16893,6,0,P|56:192|120:160,1,140,14|0,0:0|0:0,0:0:0:0:
312,160,17274,2,0,P|320:96|248:48,1,140,8|0,0:3|0:0,0:0:0:0:
72,152,17656,2,0,L|288:152,1,210,14|8,0:0|0:1,0:0:0:0:
368,336,18164,1,8,0:0:0:0:
448,280,18291,1,8,0:0:0:0:
456,176,18419,1,8,0:3:0:0:
360,160,18546,1,8,0:0:0:0:
352,80,18673,1,8,0:0:0:0:
448,48,18800,1,4,0:3:0:0:
192,272,18927,6,0,L|32:272,2,140,4|8|2,0:1|0:1|0:0,0:0:0:0:
384,272,19690,1,8,0:1:0:0:
288,272,19817,2,0,P|192:232|168:184,1,140,10|8,0:0|0:0,0:0:0:0:
176,128,20198,1,8,0:1:0:0:
344,96,20452,1,10,0:0:0:0:
256,184,20580,2,0,L|240:88,2,70,0|8|2,0:0|0:1|0:0,0:0:0:0:
384,264,20961,6,0,L|544:264,2,140,10|8|8,0:0|0:1|0:0,0:0:0:0:
224,344,21724,1,8,0:1:0:0:
128,328,21851,2,0,P|184:288|264:272,1,140,2|8,0:0|0:0,0:0:0:0:
344,264,22232,1,8,0:1:0:0:
200,200,22486,1,10,0:0:0:0:
352,136,22741,1,8,0:1:0:0:
112,264,22995,6,0,L|264:264,2,140,10|8|10,0:0|0:1|0:0,0:0:0:0:
288,176,23757,1,8,0:1:0:0:
376,168,23885,2,0,P|408:112|368:56,1,140,10|8,0:0|0:0,0:0:0:0:
280,56,24266,2,0,L|192:56,1,70,10|0,0:1|0:0,0:0:0:0:
312,128,24520,2,0,L|472:128,1,140,8|10,0:0|0:1,0:0:0:0:
128,312,25029,6,0,L|-24:312,2,140,10|8|8,0:0|0:1|0:0,0:0:0:0:
304,312,25791,1,10,0:1:0:0:
216,272,25919,2,0,P|192:200|248:160,1,140,2|8,0:0|0:0,0:0:0:0:
320,160,26300,1,8,0:1:0:0:
384,88,26427,1,8,0:0:0:0:
320,32,26554,1,10,0:0:0:0:
184,32,26681,2,0,L|104:32,2,70,8|8|4,0:3|0:0|0:3,0:0:0:0:
400,336,27063,6,0,P|440:272|384:224,1,140,4|8,0:1|0:1,0:0:0:0:
216,184,27571,2,0,L|368:184,1,140,10|8,0:0|0:1,0:0:0:0:
256,120,27952,2,0,L|104:120,1,140,10|8,0:0|0:0,0:0:0:0:
24,120,28334,1,8,0:1:0:0:
176,296,28588,1,8,0:0:0:0:
80,272,28715,2,0,L|72:176,2,70,2|8|2,0:0|0:1|0:0,0:0:0:0:
216,336,29096,6,0,L|384:336,2,140,10|8|8,0:0|0:1|0:0,0:0:0:0:
368,240,29859,1,8,0:1:0:0:
280,232,29986,2,0,P|248:160|304:128,1,140,10|8,0:0|0:0,0:0:0:0:
376,128,30368,1,8,0:1:0:0:
264,64,30622,1,10,0:0:0:0:
480,48,30876,1,10,0:1:0:0:
168,248,31130,6,0,L|16:248,2,140,10|8|8,0:0|0:1|0:0,0:0:0:0:
400,232,31893,2,0,L|408:136,1,70,8|0,0:1|0:0,0:0:0:0:
280,176,32147,2,0,L|272:80,1,70,10|0,0:0|0:0,0:0:0:0:
360,88,32402,1,8,0:1:0:0:
224,320,32529,2,0,P|264:224|309:206,1,140,10|8,0:0|0:0,0:0:0:0:
384,200,32910,2,0,L|392:120,1,70,8|0,0:1|0:0,0:0:0:0:
144,80,33164,6,0,L|-8:80,2,140,14|8|8,0:0|0:1|0:0,0:0:0:0:
384,88,33927,1,8,0:1:0:0:
192,288,34054,2,0,P|168:200|216:176,1,140,4|8,0:0|0:0,0:0:0:0:
336,304,34435,1,8,0:1:0:0:
408,240,34563,1,8,0:0:0:0:
408,152,34690,1,8,0:3:0:0:
272,160,34817,1,8,0:3:0:0:
176,128,34944,1,8,0:0:0:0:
96,72,35071,1,4,0:3:0:0:
352,296,35198,6,0,L|512:296,2,140,4|8|8,0:1|0:1|0:0,0:0:0:0:
160,288,35961,2,0,P|144:176|176:160,1,140,8|8,0:1|0:0,0:0:0:0:
248,176,36342,1,8,0:0:0:0:
352,176,36469,2,0,P|384:104|336:56,1,140,8|10,0:1|0:0,0:0:0:0:
168,88,36978,2,0,L|160:0,1,70,8|8,0:1|0:0,0:0:0:0:
312,248,37232,6,0,L|456:248,2,140,10|8|8,0:0|0:1|0:0,0:0:0:0:
104,232,37995,1,8,0:1:0:0:
208,208,38122,2,0,P|240:136|176:96,1,140,10|8,0:0|0:0,0:0:0:0:
96,104,38503,2,0,L|88:16,1,70,8|0,0:1|0:0,0:0:0:0:
312,352,38757,2,0,L|144:352,1,140,10|8,0:0|0:1,0:0:0:0:
272,304,39139,1,8,0:0:0:0:
368,240,39266,6,0,L|208:240,2,140,10|8|8,0:0|0:1|0:0,0:0:0:0:
208,176,40029,2,0,L|200:80,1,70,8|0,0:1|0:0,0:0:0:0:
304,136,40283,2,0,L|312:40,1,70,10|0,0:0|0:0,0:0:0:0:
184,104,40537,2,0,L|174:30,1,70,8|0,0:1|0:0,0:0:0:0:
304,256,40791,2,0,L|144:256,1,140,8|8,0:0|0:1,0:0:0:0:
480,296,41300,6,0,L|320:296,2,140,10|8|8,0:0|0:1|0:0,0:0:0:0:
240,328,42063,2,0,L|248:232,1,70,8|0,0:1|0:0,0:0:0:0:
384,208,42317,2,0,L|480:208,2,70,10|0|8,0:0|0:0|0:1,0:0:0:0:
152,216,42825,1,10,0:1:0:0:
128,120,42952,1,8,0:1:0:0:
192,40,43080,1,8,0:3:0:0:
288,32,43207,1,4,0:3:0:0:
64,320,43334,6,0,L|56:160,1,140,14|0,0:0|0:0,0:0:0:0:
288,272,43842,2,0,P|320:216|272:168,1,140,8|0,0:1|0:0,0:0:0:0:
168,120,44224,2,0,L|408:112,1,210,2|8,0:0|0:0,0:0:0:0:
232,216,44859,1,8,0:1:0:0:
416,328,45113,2,0,L|424:240,1,70,0|8,0:0|0:0,0:0:0:0:
280,240,45368,6,0,L|128:240,1,140,12|0,0:0|0:0,0:0:0:0:
368,176,45876,2,0,P|400:120|352:64,1,140,8|8,0:1|0:0,0:0:0:0:
216,112,46257,2,0,L|208:32,1,70,2|2,0:0|0:0,0:0:0:0:
360,64,46639,1,2,0:0:0:0:
152,312,46893,1,8,0:1:0:0:
120,240,47020,1,8,0:0:0:0:
144,160,47147,1,8,0:0:0:0:
224,144,47274,1,2,0:0:0:0:
472,304,47402,6,0,P|424:216|312:176,1,210,14|8,0:0|0:0,0:0:0:0:
232,120,47910,2,0,L|392:120,1,140,8|0,0:1|0:0,0:0:0:0:
40,272,48419,2,0,L|48:104,1,140,12|0,0:0|0:0,0:0:0:0:
264,112,48927,1,8,0:1:0:0:
48,64,49181,2,0,L|136:64,1,70,10|8,0:0|0:0,0:0:0:0:
352,232,49435,6,0,L|208:232,1,140,14|8,0:0|0:1,0:0:0:0:
392,320,49944,2,0,P|424:240|384:192,1,140,8|8,0:0|0:1,0:0:0:0:
288,200,50325,1,8,0:0:0:0:
192,184,50452,2,0,L|200:96,1,70,0|8,0:0|0:0,0:0:0:0:
304,112,50707,2,0,L|296:16,1,70,8|8,0:1|0:0,0:0:0:0:
112,48,50961,2,0,L|208:48,1,70,8|10,0:0|0:1,0:0:0:0:
424,272,51215,2,0,L|336:272,1,70,8|4,0:3|0:3,0:0:0:0:
112,232,51469,6,0,L|280:232,1,140,10|0,0:1|0:0,0:0:0:0:
360,184,51851,2,0,L|192:184,1,140,8|0,0:1|0:0,0:0:0:0:
408,88,52232,2,0,L|496:88,1,70,8|0,0:1|0:0,0:0:0:0:
208,288,52486,6,0,P|176:216|232:184,1,140,14|0,0:0|0:0,0:0:0:0:
304,152,52868,1,2,0:0:0:0:
216,120,52995,1,2,0:0:0:0:
320,320,53122,2,0,L|480:320,1,140,2|0,0:0|0:0,0:0:0:0:
136,232,53503,6,0,L|48:232,1,70,4|0,0:0|0:0,0:0:0:0:
168,152,53757,2,0,L|256:152,1,70,10|0,0:1|0:0,0:0:0:0:
96,104,54012,2,0,L|104:32,1,70,10|8,0:0|0:0,0:0:0:0:
184,32,54266,1,8,0:1:0:0:
392,240,54393,2,0,L|224:240,1,140,10|8,0:0|0:0,0:0:0:0:
152,208,54774,2,0,L|144:128,1,70,8|0,0:1|0:0,0:0:0:0:
248,144,55029,2,0,L|256:56,1,70,8|8,0:0|0:0,0:0:0:0:
144,64,55283,2,0,L|64:64,1,70,8|0,0:1|0:0,0:0:0:0:
296,272,55537,6,0,L|448:272,2,140,10|8|8,0:0|0:1|0:0,0:0:0:0:
80,272,56300,1,8,0:1:0:0:
184,264,56427,2,0,P|224:208|160:160,1,140,10|8,0:0|0:0,0:0:0:0:
88,128,56808,2,0,L|176:128,1,70,8|0,0:1|0:0,0:0:0:0:
272,128,57063,2,0,L|280:32,1,70,8|8,0:0|0:0,0:0:0:0:
176,88,57317,2,0,L|168:0,1,70,8|0,0:1|0:0,0:0:0:0:
400,208,57571,6,0,L|328:208,1,70,10|0,0:0|0:0,0:0:0:0:
136,280,57825,2,0,L|216:280,1,70,10|0,0:1|0:0,0:0:0:0:
400,328,58080,2,0,L|312:328,1,70,10|8,0:0|0:0,0:0:0:0:
136,328,58334,1,8,0:1:0:0:
240,288,58461,2,0,L|400:288,1,140,10|8,0:0|0:0,0:0:0:0:
280,240,58842,1,10,0:1:0:0:
464,224,59096,2,0,P|496:152|448:112,1,140,10|8,0:0|0:1,0:0:0:0:
80,96,59605,6,0,L|240:96,2,140,10|8|8,0:0|0:1|0:0,0:0:0:0:
232,184,60368,2,0,L|240:272,1,70,8|0,0:1|0:0,0:0:0:0:
112,264,60622,2,0,L|104:360,1,70,10|0,0:0|0:0,0:0:0:0:
224,352,60876,2,0,L|320:352,2,70,8|8|10,0:1|0:0|0:0,0:0:0:0:
32,272,61385,2,0,L|120:272,1,70,8|0,0:1|0:0,0:0:0:0:
328,272,61639,6,0,L|488:272,2,140,14|8|8,0:0|0:1|0:0,0:0:0:0:
176,232,62402,2,0,L|168:144,1,70,8|0,0:1|0:0,0:0:0:0:
288,152,62656,2,0,L|360:152,1,70,10|0,0:0|0:0,0:0:0:0:
256,72,62910,2,0,L|160:72,2,70,8|8|10,0:1|0:0|0:0,0:0:0:0:
456,288,63419,2,0,L|464:192,1,70,8|0,0:1|0:0,0:0:0:0:
248,208,63673,6,0,L|96:208,2,140,10|8|8,0:0|0:1|0:0,0:0:0:0:
432,216,64435,1,8,0:1:0:0:
352,168,64563,2,0,P|384:104|464:88,1,140,10|8,0:0|0:0,0:0:0:0:
344,312,64944,2,0,L|192:312,1,140,8|8,0:1|0:0,0:0:0:0:
400,192,65452,2,0,L|312:192,1,70,8|8,0:1|0:0,0:0:0:0:
128,120,65707,6,0,L|288:120,1,140,10|8,0:0|0:1,0:0:0:0:
176,216,66088,2,0,L|16:216,1,140,8|8,0:0|0:0,0:0:0:0:
136,280,66469,1,8,0:1:0:0:
344,280,66724,2,0,P|376:240|320:168,1,140,10|8,0:0|0:1,0:0:0:0:
208,168,67105,2,0,L|112:168,2,70,2|0|8,0:0|0:0|0:0,0:0:0:0:
416,352,67486,6,0,P|448:272|416:240,1,140,10|8,0:1|0:0,0:0:0:0:
208,232,67995,2,0,P|168:168|224:120,1,140,10|8,0:1|0:0,0:0:0:0:
328,128,68376,2,0,L|344:40,2,70,8|8|8,0:0|0:1|0:0,0:0:0:0:
96,328,68757,6,0,P|144:256|224:248,1,140,14|8,0:0|0:1,0:0:0:0:
288,216,69139,1,2,0:0:0:0:
192,176,69266,1,10,0:0:0:0:
392,176,69393,2,0,P|432:144|368:72,1,140,2|4,0:0|0:3,0:0:0:0:
192,120,69774,6,0,L|184:48,1,70,14|0,0:0|0:0,0:0:0:0:
304,56,70029,2,0,L|312:136,1,70,10|0,0:0|0:0,0:0:0:0:
192,192,70283,2,0,L|112:192,2,70,8|8|8,0:0|0:0|0:1,0:0:0:0:
416,304,70664,2,0,L|264:304,1,140,10|8,0:0|0:0,0:0:0:0:
184,256,71046,2,0,L|272:256,1,70,8|0,0:1|0:0,0:0:0:0:
352,248,71300,2,0,L|360:168,1,70,8|8,0:0|0:0,0:0:0:0:
256,168,71554,2,0,L|248:72,1,70,8|0,0:1|0:0,0:0:0:0:
472,72,71808,6,0,L|352:0,2,140,10|8|8,0:0|0:1|0:0,0:0:0:0:
288,304,72571,1,8,0:1:0:0:
200,272,72698,2,0,P|176:192|216:160,1,140,10|8,0:0|0:0,0:0:0:0:
312,168,73080,2,0,L|400:168,1,70,8|0,0:1|0:0,0:0:0:0:
288,88,73334,2,0,L|208:88,1,70,8|8,0:0|0:0,0:0:0:0:
424,320,73588,2,0,L|432:224,1,70,8|0,0:1|0:0,0:0:0:0:
200,240,73842,6,0,L|120:240,1,70,10|0,0:0|0:0,0:0:0:0:
344,136,74096,2,0,L|416:136,1,70,8|0,0:1|0:0,0:0:0:0:
208,56,74351,2,0,L|128:56,1,70,8|8,0:0|0:0,0:0:0:0:
224,160,74605,1,8,0:1:0:0:
32,296,74732,2,0,L|200:296,1,140,10|8,0:0|0:0,0:0:0:0:
288,280,75113,2,0,L|296:192,1,70,8|0,0:1|0:0,0:0:0:0:
184,208,75368,2,0,L|176:112,1,70,10|8,0:0|0:0,0:0:0:0:
408,200,75622,6,0,P|440:144|384:96,1,140,10|8,0:1|0:0,0:0:0:0:
192,96,76130,2,0,L|352:96,1,140,10|8,0:1|0:0,0:0:0:0:
400,144,76512,1,8,0:0:0:0:
432,232,76639,1,10,0:1:0:0:
392,312,76766,1,8,0:0:0:0:
176,312,76893,2,0,L|104:312,1,70,14|0,0:0|0:0,0:0:0:0:
192,240,77147,2,0,L|200:160,1,70,8|0,0:1|0:0,0:0:0:0:
80,184,77402,2,0,L|72:88,1,70,8|8,0:0|0:0,0:0:0:0:
200,112,77656,2,0,L|296:112,1,70,10|0,0:1|0:3,0:0:0:0:
80,328,77910,6,0,P|48:272|104:224,1,140,6|8,0:0|0:1,0:0:0:0:
280,192,78419,2,0,L|120:192,1,140,8|8,0:0|0:1,0:0:0:0:
224,224,78800,1,8,0:0:0:0:
424,320,78927,2,0,L|432:224,1,70,10|0,0:0|0:0,0:0:0:0:
328,232,79181,2,0,L|248:232,1,70,8|0,0:1|0:0,0:0:0:0:
360,152,79435,2,0,L|448:152,1,70,10|8,0:0|0:0,0:0:0:0:
208,80,79690,2,0,L|120:80,1,70,8|8,0:1|0:1,0:0:0:0:
360,336,79944,6,0,P|392:256|344:216,1,140,14|8,0:0|0:1,0:0:0:0:
152,224,80452,2,0,P|118:152|168:104,1,140,10|8,0:0|0:1,0:0:0:0:
472,176,80961,2,0,P|504:120|464:56,1,140,14|8,0:0|0:1,0:0:0:0:
312,144,81460,1,8,0:0:0:0:
304,232,81587,1,10,0:1:0:0:
376,288,81714,2,0,L|456:288,1,70,10|8,0:1|0:1,0:0:0:0:
224,328,81985,6,0,L|72:328,1,140,14|8,0:0|0:1,0:0:0:0:
176,288,82366,2,0,P|208:216|160:168,1,140,10|8,0:0|0:0,0:0:0:0:
80,136,82748,2,0,L|168:136,1,70,8|8,0:1|0:0,0:0:0:0:
272,104,83002,2,0,L|128:104,2,140,8|10|8,0:0|0:1|0:0,0:0:0:0:
464,208,83764,2,0,L|368:208,1,70,8|8,0:1|0:0,0:0:0:0:
288,160,84019,6,0,L|440:160,1,140,10|8,0:0|0:1,0:0:0:0:
264,280,84527,2,0,L|176:280,2,70,10|8|8,0:0|0:0|0:1,0:0:0:0:
368,280,84909,2,0,P|400:232|352:168,1,140,10|8,0:0|0:0,0:0:0:0:
264,168,85290,2,0,L|256:88,1,70,8|0,0:1|0:0,0:0:0:0:
376,328,85544,1,10,0:0:0:0:
456,288,85671,1,8,0:0:0:0:
496,200,85798,1,8,0:3:0:0:
464,112,85926,1,4,0:3:0:0:
232,104,86053,6,0,L|64:104,1,140,12|8,0:0|0:0,0:0:0:0:
200,352,86434,2,0,P|272:312|112:328,1,630,2|2,0:0|0:0,0:0:0:0:
272,328,87832,1,8,0:0:0:0:
48,232,88087,6,0,L|208:232,1,140,4|0,0:0|0:0,0:0:0:0:
408,184,88595,2,0,L|240:184,1,140,10|0,0:0|0:0,0:0:0:0:
56,168,89103,2,0,P|24:88|72:40,1,140,6|0,0:0|0:0,0:0:0:0:
152,48,89485,1,8,0:0:0:0:
232,40,89612,1,8,0:0:0:0:
48,128,89866,1,4,0:3:0:0:
424,200,90120,6,0,L|256:200,2,140,14|8|8,0:1|0:1|0:0,0:0:0:0:
256,320,90883,1,8,0:1:0:0:
176,296,91010,2,0,P|152:232|216:192,1,140,8|8,0:0|0:0,0:0:0:0:
296,192,91392,2,0,L|392:192,2,70,8|0|8,0:1|0:0|0:0,0:0:0:0:
448,320,91900,2,0,L|456:232,1,70,8|0,0:1|0:0,0:0:0:0:
256,248,92154,6,0,L|96:248,2,140,8|8|8,0:0|0:1|0:0,0:0:0:0:
448,168,92917,1,8,0:1:0:0:
344,168,93044,2,0,L|192:168,1,140,8|8,0:0|0:0,0:0:0:0:
288,112,93426,2,0,L|368:112,2,70,8|0|8,0:1|0:0|0:0,0:0:0:0:
80,160,93934,2,0,L|72:72,1,70,8|0,0:1|0:0,0:0:0:0:
304,320,94188,6,0,P|384:272|408:224,1,140,12|0,0:0|0:0,0:0:0:0:
296,216,94570,2,0,L|152:192,1,140,8|0,0:0|0:0,0:0:0:0:
56,168,94951,1,8,0:0:0:0:
408,160,95205,2,0,L|480:160,2,70,10|0|8,0:1|0:0|0:3,0:0:0:0:
288,152,95587,2,0,P|256:120|312:40,1,140,8|8,0:0|0:0,0:0:0:0:
408,48,95968,2,0,L|416:128,1,70,4|0,0:3|0:0,0:0:0:0:
224,320,96222,6,0,L|80:320,1,140,4|0,0:0|0:0,0:0:0:0:
216,232,96603,2,0,L|368:232,1,140,8|0,0:0|0:0,0:0:0:0:
88,128,96985,1,4,0:0:0:0:
256,192,97112,12,2,100290,0:0:0:0:
