osu file format v14

[General]
AudioFilename: fullcut.mp3
AudioLeadIn: 0
PreviewTime: 52804
Countdown: 0
SampleSet: Soft
StackLeniency: 0.7
Mode: 2
LetterboxInBreaks: 0
WidescreenStoryboard: 1

[Editor]
DistanceSpacing: 0.9
BeatDivisor: 4
GridSize: 8
TimelineZoom: 2.2

[Metadata]
Title:Girls' Carnival
TitleUnicode:Girls' Carnival
Artist:Yuuka
ArtistUnicode:ユウカ
Creator:-Luminate
Version:Platter
Source:Making*Lovers
Tags:eroge visual novel opening op video game japanese making lovers making*lovers SMEE メイキング ラバーズ jpop entergram
BeatmapID:2347073
BeatmapSetID:1121498

[Difficulty]
HPDrainRate:5
CircleSize:3.5
OverallDifficulty:8
ApproachRate:8
SliderMultiplier:2.6
SliderTickRate:2

[Events]
//Background and Video events
Video,0,"vid.mp4"
0,0,"verybad.jpg",0,0
//Break Periods
//Storyboard Layer 0 (Background)
//Storyboard Layer 1 (Fail)
//Storyboard Layer 2 (Pass)
//Storyboard Layer 3 (Foreground)
//Storyboard Layer 4 (Overlay)
//Storyboard Sound Samples

[TimingPoints]
614,508.474576271186,4,2,4,45,1,0
868,-100,4,2,2,45,0,0
1376,-100,4,2,4,45,0,0
1503,-100,4,2,3,45,0,0
1885,-100,4,2,2,45,0,0
2393,-100,4,2,4,45,0,0
2647,-100,4,2,4,50,0,0
2902,-100,4,2,2,50,0,0
3410,-100,4,2,4,50,0,0
3537,-100,4,2,3,50,0,0
3919,-100,4,2,2,50,0,0
4427,-100,4,2,4,50,0,0
4936,-100,4,2,2,55,0,0
5444,-100,4,2,4,55,0,0
5571,-100,4,2,3,55,0,0
5953,-100,4,2,2,55,0,0
6461,-100,4,2,4,55,0,0
6715,-100,4,2,1,60,0,0
6969,-100,4,2,2,60,0,0
7224,-100,4,2,1,60,0,0
7478,-100,4,2,4,60,0,0
7732,-100,4,2,1,70,0,0
8758,508.474576271186,4,2,1,80,1,0
14859,-100,4,2,1,70,0,0
18037,-100,4,2,1,65,0,0
18927,-100,4,2,1,75,0,0
43333,-100,4,2,1,65,0,0
49562,-100,4,2,1,70,0,0
51469,-100,4,2,1,80,0,0
52868,-100,4,2,1,55,0,0
53503,-100,4,2,1,90,0,1
81460,508.474576271186,4,2,1,90,1,1
81985,508.474576271186,4,2,1,90,1,1
86052,-100,4,2,1,70,0,0
90120,-100,4,2,1,80,0,0
94188,-100,4,2,1,65,0,0
97112,-100,4,2,1,30,0,0
98256,-100,4,2,1,20,0,0
99273,-100,4,2,1,10,0,0
100290,-100,4,2,1,5,0,0

[Colours]
Combo1 : 160,158,199
Combo2 : 197,197,211
Combo3 : 64,189,225
Combo4 : 128,128,255

[HitObjects]
88,216,614,6,0,L|216:138,2,130,2|2|2,3:0|0:3|0:0,0:0:0:0:
208,336,1376,1,2,0:3:0:0:
296,336,1503,2,0,P|368:288|384:232,1,130,2|2,0:3|0:3,0:0:0:0:
352,160,1885,1,2,0:3:0:0:
208,144,2139,2,0,L|200:80,2,65,2|2|2,0:0|0:3|0:3,0:0:0:0:
448,248,2647,6,0,L|296:248,2,130,2|2|2,3:0|0:3|0:0,0:0:0:0:
312,336,3410,1,2,0:3:0:0:
232,328,3537,2,0,P|160:280|144:224,1,130,2|2,0:3|0:3,0:0:0:0:
168,160,3919,1,2,0:3:0:0:
312,144,4173,2,0,L|320:80,2,65,2|2|2,0:0|0:3|0:3,0:0:0:0:
40,240,4681,6,0,L|192:240,2,130,2|10|2,3:0|0:3|0:0,0:0:0:0:
176,328,5444,1,10,0:3:0:0:
256,320,5571,2,0,P|256:248|200:208,1,130,2|2,0:3|0:3,0:0:0:0:
136,208,5952,1,10,0:3:0:0:
248,152,6207,2,0,L|256:88,2,65,2|2|10,0:0|0:3|0:3,0:0:0:0:
480,312,6715,6,0,L|368:240,1,130,8|8,0:0|0:3,0:0:0:0:
152,248,7224,2,0,L|280:168,1,130,8|10,0:0|0:3,0:0:0:0:
480,200,7732,1,8,0:0:0:0:
488,112,7859,1,8,0:0:0:0:
448,32,7986,1,8,0:1:0:0:
384,24,8113,1,0,0:0:0:0:
328,120,8241,2,0,L|480:120,1,130,8|8,0:0|0:3,0:0:0:0:
128,272,8758,6,0,L|8:184,2,130,12|8|8,0:0|0:1|0:0,0:0:0:0:
352,272,9520,1,8,0:1:0:0:
272,264,9647,2,0,P|216:240|168:168,1,130,10|8,0:0|0:0,0:0:0:0:
240,152,10029,2,0,L|352:80,2,130,8|8|8,0:1|0:0|0:1,0:0:0:0:
464,336,10791,6,0,L|352:248,2,130,2|8|8,0:0|0:1|0:0,0:0:0:0:
376,336,11427,1,8,0:0:0:0:
176,296,11681,2,0,P|152:224|208:192,1,130,10|8,0:0|0:0,0:0:0:0:
272,192,12063,2,0,L|352:192,2,65,8|8|8,0:1|0:0|0:0,0:0:0:0:
128,192,12571,1,8,0:1:0:0:
392,336,12825,6,0,P|424:272|368:224,1,130,10|8,0:0|0:1,0:0:0:0:
128,192,13334,2,0,P|104:112|160:88,1,130,10|8,0:0|0:1,0:0:0:0:
272,80,13715,2,0,L|432:80,1,130,10|8,0:0|0:0,0:0:0:0:
408,136,14096,1,8,0:1:0:0:
384,200,14224,1,8,0:0:0:0:
336,224,14351,1,10,0:0:0:0:
472,248,14605,1,8,0:1:0:0:
152,240,14859,6,0,L|0:240,2,130,14|8|8,0:0|0:1|0:0,0:0:0:0:
288,240,15622,1,8,0:1:0:0:
352,216,15749,2,0,P|352:160|288:112,1,130,8|8,0:0|0:0,0:0:0:0:
232,112,16130,1,8,0:1:0:0:
472,296,16385,2,0,L|496:216,2,65,8|8|8,0:1|0:1|0:3,0:0:0:0:
144,296,16893,6,0,P|112:224|168:184,1,130,14|0,0:0|0:0,0:0:0:0:
288,184,17274,2,0,P|312:120|272:64,1,130,8|0,0:3|0:0,0:0:0:0:
80,160,17656,2,0,P|40:96|128:40,1,195,14|8,0:0|0:1,0:0:0:0:
184,72,18164,1,8,0:0:0:0:
200,128,18291,1,8,0:0:0:0:
176,184,18419,2,0,L|40:184,1,130,8|8,0:3|0:0,0:0:0:0:
368,272,18927,6,0,L|512:272,2,130,4|8|2,0:1|0:1|0:0,0:0:0:0:
240,264,19690,1,8,0:1:0:0:
192,224,19817,2,0,P|208:136|256:112,1,130,10|8,0:0|0:0,0:0:0:0:
304,120,20198,2,0,L|432:144,1,130,8|10,0:1|0:0,0:0:0:0:
304,288,20707,2,0,L|296:192,1,65,8|2,0:1|0:0,0:0:0:0:
440,160,20961,6,0,P|424:80|360:64,1,130,10|8,0:0|0:1,0:0:0:0:
240,160,21469,2,0,P|232:72|280:48,1,130,8|8,0:0|0:1,0:0:0:0:
400,288,21851,2,0,P|368:224|296:208,1,130,2|8,0:0|0:0,0:0:0:0:
240,192,22232,2,0,L|224:112,2,65,8|0|10,0:1|0:0|0:0,0:0:0:0:
368,256,22741,1,8,0:1:0:0:
40,256,22995,6,0,P|96:184|152:176,1,130,10|8,0:0|0:1,0:0:0:0:
264,176,23503,1,10,0:0:0:0:
136,128,23757,1,8,0:1:0:0:
80,88,23885,2,0,L|224:64,1,130,10|8,0:0|0:0,0:0:0:0:
208,32,24266,2,0,L|72:0,1,130,10|8,0:1|0:0,0:0:0:0:
320,152,24774,1,10,0:1:0:0:
80,280,25029,6,0,L|224:232,2,130,10|8|8,0:0|0:1|0:0,0:0:0:0:
208,344,25791,1,10,0:1:0:0:
272,352,25919,2,0,L|400:304,1,130,2|8,0:0|0:0,0:0:0:0:
336,256,26300,2,0,L|320:176,2,65,8|8|10,0:1|0:0|0:0,0:0:0:0:
472,264,26808,1,8,0:0:0:0:
144,264,27063,6,0,L|24:216,2,130,4|8|10,0:1|0:1|0:0,0:0:0:0:
280,264,27825,1,8,0:1:0:0:
344,264,27952,2,0,P|416:224|448:184,1,130,10|8,0:0|0:0,0:0:0:0:
368,168,28334,2,0,P|288:136|248:80,1,130,8|8,0:1|0:0,0:0:0:0:
128,264,28842,2,0,L|120:184,1,65,8|2,0:1|0:0,0:0:0:0:
272,176,29096,6,0,L|416:152,2,130,10|8|8,0:0|0:1|0:0,0:0:0:0:
128,288,29859,1,8,0:1:0:0:
72,256,29986,2,0,P|72:176|128:136,1,130,10|8,0:0|0:0,0:0:0:0:
160,128,30368,2,0,L|296:80,1,130,8|10,0:1|0:0,0:0:0:0:
48,104,30876,1,10,0:1:0:0:
288,240,31130,6,0,L|440:200,2,130,10|8|8,0:0|0:1|0:0,0:0:0:0:
152,248,31893,1,8,0:1:0:0:
408,336,32147,2,0,L|424:256,2,65,10|0|8,0:0|0:0|0:1,0:0:0:0:
352,336,32529,2,0,L|504:288,1,130,10|8,0:0|0:0,0:0:0:0:
472,240,32910,1,8,0:1:0:0:
144,224,33164,6,0,P|120:144|176:120,1,130,14|8,0:0|0:1,0:0:0:0:
384,280,33673,2,0,L|512:216,1,130,8|8,0:0|0:1,0:0:0:0:
304,152,34054,2,0,L|168:96,1,130,4|8,0:0|0:0,0:0:0:0:
120,144,34435,1,8,0:1:0:0:
120,224,34563,1,8,0:0:0:0:
192,320,34690,2,0,P|216:240|176:192,1,130,8|8,0:3|0:0,0:0:0:0:
112,200,35071,1,4,0:3:0:0:
304,344,35198,6,0,L|448:272,2,130,4|8|8,0:1|0:1|0:0,0:0:0:0:
160,336,35961,1,8,0:1:0:0:
96,336,36088,2,0,P|40:280|40:216,1,130,10|8,0:0|0:0,0:0:0:0:
88,184,36469,1,8,0:1:0:0:
320,176,36724,2,0,L|448:144,1,130,10|8,0:0|0:1,0:0:0:0:
376,128,37105,6,0,L|368:48,1,65,8|10,0:0|0:0,0:0:0:0:
480,32,37486,1,8,0:1:0:0:
368,32,37741,1,8,0:0:0:0:
504,272,37995,2,0,P|472:184|376:128,1,195,8|8,0:1|0:0,0:0:0:0:
320,128,38503,1,8,0:1:0:0:
56,168,38757,2,0,P|40:80|72:48,1,130,10|8,0:0|0:1,0:0:0:0:
200,328,39139,1,8,0:0:0:0:
264,320,39266,6,0,L|376:224,2,130,10|8|8,0:0|0:1|0:0,0:0:0:0:
112,320,40029,1,8,0:1:0:0:
368,328,40283,2,0,P|384:240|344:208,1,130,10|8,0:0|0:1,0:0:0:0:
280,184,40664,1,8,0:0:0:0:
360,144,40791,2,0,L|488:48,1,130,8|8,0:0|0:1,0:0:0:0:
144,48,41300,6,0,L|24:144,2,130,10|8|8,0:0|0:1|0:0,0:0:0:0:
368,64,42063,2,0,L|376:152,1,65,8|0,0:1|0:0,0:0:0:0:
240,248,42317,2,0,P|152:224|112:192,1,130,10|8,0:0|0:1,0:0:0:0:
448,328,42825,1,10,0:1:0:0:
496,264,42952,1,8,0:1:0:0:
480,168,43080,1,8,0:3:0:0:
408,136,43207,1,4,0:3:0:0:
216,192,43334,6,0,P|184:136|240:88,1,130,14|0,0:0|0:0,0:0:0:0:
344,80,43842,1,8,0:1:0:0:
104,288,44096,1,0,0:0:0:0:
176,288,44224,2,0,L|296:216,1,130,2|0,0:0|0:0,0:0:0:0:
368,216,44605,1,8,0:0:0:0:
224,168,44859,2,0,L|208:96,2,65,8|8|0,0:1|0:0|0:0,0:0:0:0:
480,320,45368,6,0,L|344:296,1,130,12|0,0:0|0:0,0:0:0:0:
120,240,45876,2,0,L|256:216,1,130,8|8,0:1|0:0,0:0:0:0:
88,160,46385,2,0,L|72:16,1,130,2|2,0:0|0:0,0:0:0:0:
296,296,46893,2,0,L|432:264,1,130,8|8,0:1|0:0,0:0:0:0:
344,240,47274,1,8,0:0:0:0:
152,216,47402,6,0,P|128:128|160:104,1,130,14|0,0:0|0:0,0:0:0:0:
280,64,47910,1,8,0:1:0:0:
144,40,48164,1,0,0:0:0:0:
464,320,48419,2,0,L|472:176,1,130,12|0,0:0|0:0,0:0:0:0:
240,144,48927,2,0,L|392:120,1,130,8|10,0:1|0:0,0:0:0:0:
440,112,49308,1,8,0:0:0:0:
248,320,49435,6,0,L|120:280,1,130,14|8,0:0|0:1,0:0:0:0:
352,240,49944,2,0,P|360:168|312:120,1,130,8|8,0:0|0:1,0:0:0:0:
240,128,50325,2,0,L|232:40,1,65,2|8,0:0|0:0,0:0:0:0:
392,336,50707,2,0,L|400:240,1,65,8|8,0:1|0:0,0:0:0:0:
344,208,50961,1,8,0:0:0:0:
352,120,51088,1,10,0:1:0:0:
432,96,51215,1,8,0:3:0:0:
104,312,51469,6,0,P|24:240|16:200,1,130,10|0,0:1|0:0,0:0:0:0:
160,216,51851,2,0,P|208:192|248:112,1,130,8|0,0:1|0:0,0:0:0:0:
168,104,52232,1,8,0:1:0:0:
488,320,52486,6,0,P|496:232|400:176,1,195,14|2,0:0|0:0,0:0:0:0:
328,144,52995,1,2,0:0:0:0:
416,128,53122,2,0,P|432:72|376:16,1,130,2|0,0:0|0:0,0:0:0:0:
184,264,53503,6,0,L|32:216,2,130,4|10|10,0:0|0:1|0:0,0:0:0:0:
408,256,54266,1,8,0:1:0:0:
320,232,54393,2,0,P|304:168|360:128,1,130,10|8,0:0|0:0,0:0:0:0:
432,128,54774,1,8,0:1:0:0:
320,48,55029,2,0,L|472:48,1,130,8|8,0:0|0:1,0:0:0:0:
120,336,55537,6,0,L|-16:288,2,130,10|8|8,0:0|0:1|0:0,0:0:0:0:
336,336,56300,1,8,0:1:0:0:
424,320,56427,2,0,P|464:256|456:192,1,130,10|8,0:0|0:0,0:0:0:0:
432,112,56808,1,8,0:1:0:0:
376,48,56935,1,8,0:0:0:0:
304,32,57063,1,8,0:0:0:0:
64,176,57317,1,8,0:1:0:0:
384,328,57571,6,0,L|520:280,2,130,10|10|10,0:0|0:1|0:0,0:0:0:0:
128,328,58334,1,8,0:1:0:0:
48,288,58461,2,0,P|64:200|112:184,1,130,10|8,0:0|0:0,0:0:0:0:
184,168,58842,2,0,L|192:72,1,65,10|0,0:1|0:0,0:0:0:0:
104,88,59096,2,0,P|40:64|0:0,1,130,10|8,0:0|0:1,0:0:0:0:
328,328,59605,6,0,L|464:304,2,130,10|8|8,0:0|0:1|0:0,0:0:0:0:
184,304,60368,2,0,L|176:224,1,65,8|0,0:1|0:0,0:0:0:0:
320,232,60622,2,0,L|408:224,1,65,10|0,0:0|0:0,0:0:0:0:
304,176,60876,2,0,L|296:96,1,65,8|8,0:1|0:0,0:0:0:0:
376,80,61130,1,10,0:0:0:0:
160,64,61385,1,8,0:1:0:0:
480,320,61639,6,0,L|360:232,2,130,14|8|8,0:0|0:1|0:0,0:0:0:0:
280,344,62402,2,0,L|184:320,1,65,8|0,0:1|0:0,0:0:0:0:
360,248,62656,2,0,L|368:144,1,65,10|0,0:0|0:0,0:0:0:0:
288,184,62910,2,0,L|280:88,1,65,8|0,0:1|0:0,0:0:0:0:
376,104,63164,1,10,0:0:0:0:
152,192,63419,1,8,0:1:0:0:
384,352,63673,6,0,L|520:312,2,130,10|8|8,0:0|0:1|0:0,0:0:0:0:
128,288,64435,1,8,0:1:0:0:
208,280,64563,2,0,P|266:237|264:175,1,130,10|8,0:0|0:0,0:0:0:0:
192,176,64944,2,0,P|189:79|219:41,1,130,8|8,0:1|0:0,0:0:0:0:
352,56,65452,2,0,L|248:32,1,65,8|8,0:1|0:0,0:0:0:0:
136,272,65707,6,0,P|112:200|160:128,1,130,10|8,0:0|0:1,0:0:0:0:
288,144,66088,2,0,P|312:72|280:24,1,130,8|8,0:0|0:0,0:0:0:0:
200,32,66469,1,8,0:1:0:0:
392,304,66724,2,0,P|352:256|288:232,1,130,10|8,0:0|0:1,0:0:0:0:
208,224,67105,2,0,P|176:160|240:96,1,130,2|8,0:0|0:0,0:0:0:0:
368,288,67486,6,0,P|392:216|352:160,1,130,10|8,0:1|0:0,0:0:0:0:
136,288,67995,2,0,P|112:232|152:160,1,130,10|8,0:1|0:0,0:0:0:0:
264,168,68503,2,0,L|248:72,1,65,8|8,0:1|0:0,0:0:0:0:
48,80,68757,6,0,L|192:8,1,130,14|8,0:0|0:1,0:0:0:0:
248,40,69139,1,2,0:0:0:0:
256,144,69266,1,10,0:0:0:0:
184,192,69393,2,0,P|120:144|112:80,1,130,2|4,0:0|0:3,0:0:0:0:
312,352,69774,6,0,L|464:320,2,130,14|10|8,0:0|0:0|0:0,0:0:0:0:
80,312,70537,1,8,0:1:0:0:
168,288,70664,2,0,P|184:224|128:184,1,130,10|8,0:0|0:0,0:0:0:0:
56,184,71046,1,8,0:1:0:0:
168,104,71300,2,0,L|16:104,1,130,8|8,0:0|0:1,0:0:0:0:
376,336,71808,6,0,L|512:304,2,130,10|8|8,0:0|0:1|0:0,0:0:0:0:
136,336,72571,1,8,0:1:0:0:
216,320,72698,2,0,P|264:280|264:192,1,130,10|8,0:0|0:0,0:0:0:0:
208,168,73080,1,8,0:1:0:0:
208,80,73207,1,8,0:0:0:0:
280,48,73334,1,8,0:0:0:0:
488,48,73588,1,8,0:1:0:0:
168,328,73842,6,0,L|40:280,2,130,10|8|8,0:0|0:1|0:0,0:0:0:0:
400,336,74605,1,8,0:1:0:0:
472,296,74732,2,0,P|416:224|344:208,1,130,10|8,0:0|0:0,0:0:0:0:
288,192,75113,2,0,P|320:136|400:112,1,130,8|10,0:1|0:0,0:0:0:0:
136,168,75622,6,0,P|112:88|152:40,1,130,10|8,0:1|0:0,0:0:0:0:
352,64,76130,2,0,P|376:104|344:184,1,130,10|8,0:1|0:0,0:0:0:0:
272,208,76512,1,8,0:0:0:0:
208,264,76639,1,10,0:1:0:0:
176,336,76766,1,8,0:0:0:0:
376,352,76893,2,0,L|504:320,2,130,14|8|8,0:0|0:1|0:0,0:0:0:0:
136,312,77656,1,10,0:1:0:0:
456,256,77910,6,0,L|328:160,2,130,6|8|8,0:0|0:1|0:0,0:0:0:0:
336,344,78673,1,8,0:1:0:0:
112,288,78927,2,0,L|120:208,1,65,10|0,0:0|0:0,0:0:0:0:
208,224,79181,2,0,L|216:144,1,65,8|0,0:1|0:0,0:0:0:0:
128,136,79435,1,10,0:0:0:0:
352,136,79690,1,8,0:1:0:0:
32,336,79944,6,0,L|168:280,1,130,14|8,0:0|0:1,0:0:0:0:
416,240,80452,2,0,P|432:160|416:104,1,130,10|8,0:0|0:1,0:0:0:0:
104,168,80961,2,0,P|64:104|88:48,1,130,14|8,0:0|0:1,0:0:0:0:
184,48,81460,1,8,0:0:0:0:
96,168,81587,2,0,L|24:120,2,65,10|10|8,0:1|0:1|0:1,0:0:0:0:
304,328,81985,6,0,L|456:296,1,130,14|8,0:0|0:1,0:0:0:0:
472,232,82366,2,0,P|456:160|384:120,1,130,10|8,0:0|0:0,0:0:0:0:
336,128,82747,1,8,0:1:0:0:
72,104,83001,2,0,L|216:48,2,130,8|10|8,0:0|0:1|0:0,0:0:0:0:
288,240,83764,2,0,L|296:168,1,65,8|8,0:1|0:0,0:0:0:0:
152,168,84018,6,0,L|24:120,1,130,10|8,0:0|0:1,0:0:0:0:
160,336,84527,1,10,0:0:0:0:
160,336,84654,1,8,0:0:0:0:
24,264,84908,2,0,P|72:216|160:208,1,130,10|8,0:0|0:0,0:0:0:0:
208,208,85290,1,8,0:1:0:0:
456,200,85544,2,0,L|464:56,1,130,10|8,0:0|0:3,0:0:0:0:
144,304,86052,6,0,P|80:280|64:216,1,130,12|8,0:0|0:0,0:0:0:0:
144,192,86434,2,0,P|152:-8|64:192,1,585,2|2,0:0|0:0,0:0:0:0:
168,232,87832,1,8,0:0:0:0:
408,304,88086,6,0,L|416:160,1,130,4|0,0:0|0:0,0:0:0:0:
168,168,88595,2,0,L|160:24,1,130,10|0,0:0|0:0,0:0:0:0:
416,40,89103,1,6,0:0:0:0:
264,152,89485,2,0,L|264:64,1,65,8|8,0:0|0:0,0:0:0:0:
416,80,89866,1,4,0:3:0:0:
80,256,90120,6,0,L|224:192,2,130,14|8|8,0:1|0:1|0:0,0:0:0:0:
232,328,90883,2,0,L|240:232,1,65,8|8,0:1|0:0,0:0:0:0:
96,232,91264,1,8,0:0:0:0:
40,192,91391,2,0,P|24:120|72:80,1,130,8|8,0:1|0:0,0:0:0:0:
176,80,91900,1,8,0:1:0:0:
496,256,92154,6,0,L|368:168,2,130,8|8|8,0:0|0:1|0:0,0:0:0:0:
344,344,92917,2,0,L|336:248,1,65,8|8,0:1|0:0,0:0:0:0:
496,248,93298,1,8,0:0:0:0:
480,176,93425,1,8,0:1:0:0:
416,136,93552,1,8,0:0:0:0:
344,104,93679,2,0,L|472:64,1,130,8|8,0:0|0:1,0:0:0:0:
144,288,94188,6,0,L|0:224,1,130,12|0,0:0|0:0,0:0:0:0:
104,216,94569,2,0,P|128:144|80:96,1,130,8|0,0:0|0:0,0:0:0:0:
24,96,94951,1,8,0:0:0:0:
280,328,95205,2,0,P|360:304|400:256,1,130,10|8,0:1|0:3,0:0:0:0:
368,200,95586,1,8,0:0:0:0:
120,152,95840,1,8,0:0:0:0:
48,112,95968,2,0,L|40:32,1,65,4|0,0:3|0:0,0:0:0:0:
240,240,96222,6,0,L|400:240,1,130,4|0,0:0|0:0,0:0:0:0:
448,208,96603,2,0,P|448:136|392:96,1,130,8|0,0:0|0:0,0:0:0:0:
200,104,96984,1,4,0:0:0:0:
256,192,97112,12,2,100290,0:0:0:0:
