osu file format v14

[General]
AudioFilename: nokosareta.mp3
AudioLeadIn: 0
PreviewTime: 63494
Countdown: 0
SampleSet: Soft
StackLeniency: 0.7
Mode: 0
LetterboxInBreaks: 0
WidescreenStoryboard: 1

[Editor]
DistanceSpacing: 0.7
BeatDivisor: 4
GridSize: 16
TimelineZoom: 2.7

[Metadata]
Title:Torinokosareta Bijutsu(Arranged: HiZuMi)
TitleUnicode:取り残された美術(Arranged:HiZuMi)
Artist:Yuuhei Satellite feat. senya
ArtistUnicode:幽閉サテライト feat. senya
Creator:Sellenite
Version:Normal
Source:東方Project
Tags:Touhou The Fantastic Legend of Tohno Perfect Cherry Blossom Chen -Yuzuriha
BeatmapID:773892
BeatmapSetID:324290

[Difficulty]
HPDrainRate:4
CircleSize:3.5
OverallDifficulty:4
ApproachRate:5
SliderMultiplier:1.4
SliderTickRate:2

[Events]
//Background and Video events
0,0,"bg.jpg",0,0
//Break Periods
//Storyboard Layer 0 (Background)
//Storyboard Layer 1 (Fail)
//Storyboard Layer 2 (Pass)
//Storyboard Layer 3 (Foreground)
//Storyboard Sound Samples

[TimingPoints]
588,375,4,2,1,50,1,0
6588,-100,4,2,1,60,0,0
12588,-100,4,2,1,80,0,0
26088,-100,4,2,1,70,0,0
63588,-100,4,2,1,80,0,1
87588,-100,4,2,1,70,0,0
99681,-100,4,2,1,5,0,0

[Colours]
Combo1 : 255,255,128
Combo2 : 255,128,64
Combo3 : 170,170,255
Combo4 : 255,98,98
Combo5 : 255,172,214

[HitObjects]
47,70,588,6,0,B|66:126|66:126|51:175|61:209,1,140,2|0,0:0|0:0,0:0:0:0:
79,250,1150,1,2,0:0:0:0:
79,250,1338,2,0,P|147:238|212:260,1,140,2|0,0:0|0:0,0:0:0:0:
287,322,2088,5,2,0:0:0:0:
376,286,2463,1,2,0:0:0:0:
399,193,2838,1,2,0:0:0:0:
335,121,3213,1,2,0:0:0:0:
248,166,3588,6,0,P|239:97|277:40,1,140,2|2,0:0|0:0,0:0:0:0:
335,121,4338,2,0,B|396:134|396:134|472:120,1,140,2|2,0:0|0:0,0:0:0:0:
507,154,4900,1,2,0:0:0:0:
507,154,5088,2,0,L|498:293,1,140,2|2,0:0|0:0,0:0:0:0:
435,369,5838,1,2,0:0:0:0:
389,282,6213,1,2,0:0:0:0:
291,277,6588,6,0,P|84:325|221:163,2,560,4|4|4,1:0|1:0|1:0,0:0:0:0:
339,192,9963,2,0,P|383:244|381:313,2,140,0|4|0,0:0|1:0|0:0,0:0:0:0:
246,226,11088,5,4,1:0:0:0:
182,151,11463,1,4,1:2:0:0:
88,180,11838,1,4,1:2:0:0:
24,105,12213,1,4,1:2:0:0:
88,180,12588,6,0,P|100:248|77:313,1,140,4|8,0:0|0:0,0:0:0:0:
46,351,13150,1,0,0:0:0:0:
46,351,13338,2,0,B|91:344|91:344|137:353|137:353|184:346,1,140,2|8,0:0|0:0,0:0:0:0:
278,375,14088,1,2,0:0:0:0:
368,337,14463,1,8,0:0:0:0:
368,337,14650,1,2,0:0:0:0:
368,337,14838,2,0,L|383:198,1,140,4|4,0:0|0:0,0:0:0:0:
458,135,15588,5,2,0:0:0:0:
409,49,15963,2,0,L|339:58,2,70,8|0|2,0:0|0:0|0:0,0:0:0:0:
458,135,16713,1,8,0:0:0:0:
502,222,17088,2,0,P|501:256|493:290,1,70,2|2,0:0|0:0,0:0:0:0:
466,332,17463,2,0,P|431:332|397:340,1,70,8|2,0:0|0:0,0:0:0:0:
355,314,17838,2,0,L|215:308,1,140,8|8,0:0|0:0,0:0:0:0:
124,344,18588,5,4,0:0:0:0:
89,252,18963,1,8,0:0:0:0:
134,164,19338,2,0,P|65:155|8:192,2,140,2|8|2,0:0|0:0|0:0,0:0:0:0:
215,218,20463,1,8,0:0:0:0:
215,218,20650,1,2,0:0:0:0:
215,218,20838,2,0,B|262:203|262:203|301:219|351:215,1,140,4|4,0:0|0:0,0:0:0:0:
307,303,21588,6,0,P|376:305|433:266,1,140,2|8,0:0|0:0,0:0:0:0:
493,189,22338,2,0,B|482:141|493:94|493:94|454:115,1,140,2|8,0:0|0:0,0:0:0:0:
362,82,23088,5,0,1:0:0:0:
275,124,23463,1,0,1:0:0:0:
180,108,23838,1,0,1:0:0:0:
112,39,24213,1,0,1:0:0:0:
42,108,24588,6,0,L|26:247,1,140,4|4,0:0|0:0,0:0:0:0:
78,330,25338,2,0,B|127:330|127:330|167:315|167:315|215:315,1,140,4|4,0:0|0:0,0:0:0:0:
291,375,26088,6,0,P|344:331|412:338,2,140,4|0|2,0:0|1:0|0:0,0:0:0:0:
215,315,27213,1,0,1:0:0:0:
137,255,27588,2,0,L|151:115,1,140,4|0,0:0|1:0,0:0:0:0:
185,81,28150,1,2,0:0:0:0:
185,81,28338,1,0,1:0:0:0:
268,132,28713,1,0,1:0:0:0:
351,80,29088,6,0,B|388:73|440:89|440:89|487:73,2,140,4|0|2,0:0|1:0|0:0,0:0:0:0:
320,173,30213,2,0,P|390:172|455:197,1,140,0|4,1:0|0:0,0:0:0:0:
500,284,30963,2,0,L|490:353,1,70,0|0,1:0|0:0,0:0:0:0:
445,375,31338,2,0,B|394:366|394:366|354:379|306:374,1,140,0|0,1:0|1:0,0:0:0:0:
264,349,31900,1,0,1:0:0:0:
216,333,32088,6,0,P|201:266|223:201,1,140,4|0,0:0|1:0,0:0:0:0:
299,138,32838,1,2,0:0:0:0:
221,77,33213,2,0,B|171:81|171:81|121:57|83:65,1,140,0|4,1:0|0:0,0:0:0:0:
24,143,33963,2,0,B|11:200|11:200|24:280,2,140,0|0|0,1:0|1:0|1:0,0:0:0:0:
121,153,35088,5,4,0:0:0:0:
177,233,35463,2,0,L|154:371,1,140,0|2,1:0|0:0,0:0:0:0:
250,356,36213,1,0,1:0:0:0:
250,356,36400,1,0,1:0:0:0:
250,356,36588,2,0,B|303:343|303:343|336:364|385:365,1,140,4|0,0:0|1:0,0:0:0:0:
466,310,37338,2,0,L|477:380,2,70,0|2|0,1:0|1:0|1:0,0:0:0:0:
429,276,37900,2,0,L|450:137,1,140,0|4,1:0|0:0,1:0:0:0:
434,91,38463,6,0,P|369:116|301:105,1,140,4|2,0:0|0:0,0:0:0:0:
230,37,39213,1,0,1:0:0:0:
158,106,39588,2,0,L|166:245,1,140,4|0,0:0|1:0,0:0:0:0:
199,282,40150,1,0,0:0:0:0:
199,282,40338,1,0,1:0:0:0:
270,214,40713,1,0,1:0:0:0:
363,244,41088,6,0,P|382:310|360:375,1,140,4|0,0:0|1:0,0:0:0:0:
264,353,41838,2,0,P|194:348|124:351,1,140,2|0,0:0|1:0,0:0:0:0:
36,308,42588,1,4,0:0:0:0:
15,212,42963,2,0,L|25:143,1,70,0|0,1:0|0:0,0:0:0:0:
67,118,43338,2,0,B|116:115|116:115|154:130|154:130|203:127,1,140,0|0,1:0|1:0,0:0:0:0:
251,140,43900,1,0,1:0:0:0:
300,136,44088,6,0,P|315:203|293:268,2,140,4|0|2,0:0|1:0|0:0,0:0:0:0:
217,82,45213,1,0,1:0:0:0:
135,136,45588,2,0,P|120:203|142:268,1,140,4|0,0:0|1:0,0:0:0:0:
186,289,46150,1,0,0:0:0:0:
186,289,46338,2,0,B|232:280|232:280|280:298|323:294,1,140,0|0,1:0|1:0,0:0:0:0:
404,349,47088,5,4,0:0:0:0:
486,296,47463,2,0,L|475:156,1,140,0|4,1:0|0:0,0:0:0:0:
424,72,48213,1,0,1:0:0:0:
424,72,48400,1,0,1:0:0:0:
424,72,48588,2,0,P|363:106|295:101,1,140,4|0,0:0|1:0,0:0:0:0:
207,145,49338,2,0,L|218:215,1,70,0|2,1:0|1:0,0:0:0:0:
169,221,49713,2,0,L|159:291,1,70,0|0,1:0|1:0,0:0:0:0:
181,333,50088,5,4,0:0:0:0:
268,376,50463,2,0,P|333:353|401:366,1,140,8|2,0:0|0:0,0:0:0:0:
478,306,51213,1,0,1:0:0:0:
397,249,51588,2,0,B|390:204|390:204|402:146,2,105,4|4|4,0:0|0:0|0:0,0:0:0:0:
299,242,52525,2,0,P|205:276|135:206,1,210,4|0,0:0|0:0,0:0:0:0:
161,111,53463,5,8,0:0:0:0:
226,185,53838,2,0,L|218:324,1,140,0|0,0:0|1:0,0:0:0:0:
304,371,54588,2,0,B|349:364|349:364|407:376,2,105,4|4|4,0:0|0:0|0:0,0:0:0:0:
292,272,55525,2,0,P|198:237|127:308,1,210,4|4,0:0|0:0,0:0:0:0:
41,258,56463,6,0,L|33:119,2,140,2|4|2,0:3|0:0|0:3,0:0:0:0:
127,306,57588,1,4,0:0:0:0:
194,234,57963,1,8,0:0:0:0:
268,297,58338,2,0,P|334:312|394:279,1,140,2|8,0:0|0:0,0:0:0:0:
416,234,58900,1,0,1:0:0:0:
416,234,59088,6,0,L|424:95,1,140,4|0,0:0|1:0,0:0:0:0:
343,38,59838,2,0,L|204:46,1,140,4|0,0:0|1:0,0:0:0:0:
125,105,60588,5,0,1:0:0:0:
192,176,60963,1,0,1:0:0:0:
125,247,61338,1,0,1:0:0:0:
192,318,61713,1,0,1:0:0:0:
259,246,62088,6,0,P|325:229|391:251,2,140,4|4|4,0:0|0:0|0:0,0:0:0:0:
192,318,63213,1,4,0:0:0:0:
125,247,63588,6,0,L|138:107,1,140,4|8,0:0|0:0,0:0:0:0:
214,45,64338,2,0,B|265:36|265:36|305:49|353:44,1,140,2|8,0:0|0:0,0:0:0:0:
396,65,64900,1,0,0:0:0:0:
396,65,65088,2,0,P|411:132|389:197,1,140,2|8,0:0|0:0,0:0:0:0:
292,218,65838,1,2,0:0:0:0:
216,155,66213,1,8,0:0:0:0:
216,155,66400,1,0,0:0:0:0:
216,155,66588,6,0,B|173:149|129:166|129:166|80:148,1,140,2|8,0:0|0:0,0:0:0:0:
20,226,67338,2,0,P|9:295|44:368,1,140,2|8,0:0|0:0,0:0:0:0:
81,376,67900,1,0,0:0:0:0:
81,376,68088,2,0,L|225:366,1,140,2|8,0:0|0:0,0:0:0:0:
295,303,68838,1,2,0:0:0:0:
384,342,69213,1,8,0:0:0:0:
454,273,69588,6,0,L|444:133,1,140,4|8,0:0|0:0,0:0:0:0:
400,45,70338,1,4,0:0:0:0:
313,90,70713,1,8,0:0:0:0:
225,133,71088,2,0,L|120:125,2,105,4|4|4,0:0|0:0|0:0,0:0:0:0:
264,162,71838,2,0,P|276:230|255:296,1,140,4|8,0:0|0:0,0:0:0:0:
178,357,72588,5,4,0:0:0:0:
134,269,72963,1,8,0:0:0:0:
50,321,73338,2,0,P|37:270|49:220,2,105,4|4|4,0:0|0:0|0:0,0:0:0:0:
81,359,74088,2,0,B|126:348|126:348|176:362|218:356,1,140,0|0,1:0|1:0,0:0:0:0:
262,334,74650,1,0,1:0:0:0:
291,294,74838,2,0,P|356:276|415:311,1,140,4|0,1:2|1:0,0:0:0:0:
458,288,75400,1,0,1:0:0:0:
458,288,75588,6,0,L|471:148,1,140,2|8,3:0|0:0,0:0:0:0:
427,60,76338,2,0,L|287:44,1,140,2|8,0:0|0:0,0:0:0:0:
244,66,76900,2,0,L|174:73,1,70,0|2,0:0|0:0,0:0:0:0:
82,40,77463,1,8,0:0:0:0:
94,137,77838,1,2,0:0:0:0:
105,234,78213,1,8,0:0:0:0:
105,234,78400,1,0,0:0:0:0:
105,234,78588,6,0,P|171:255|234:228,1,140,2|8,0:0|0:0,0:0:0:0:
304,295,79338,2,0,P|331:232|311:167,1,140,2|8,0:0|0:0,0:0:0:0:
219,130,80088,1,2,0:0:0:0:
170,215,80463,1,8,0:0:0:0:
77,182,80838,2,0,L|64:42,2,140,2|8|4,0:0|0:0|0:0,0:0:0:0:
34,270,81963,6,0,L|173:285,1,140,8|2,0:0|0:0,0:0:0:0:
217,264,82525,1,0,0:0:0:0:
217,264,82713,2,0,L|286:256,1,70,8|8,0:0|0:0,0:0:0:0:
331,275,83088,6,0,B|371:283|371:283|404:267|433:269,2,105,4|4|4,0:0|0:0|0:0,0:0:0:0:
286,255,83838,1,4,0:0:0:0:
248,164,84213,2,0,L|257:94,1,70,8|2,0:0|0:0,0:0:0:0:
224,58,84588,6,0,L|84:68,1,140,2|4,0:0|0:0,0:0:0:0:
12,134,85338,2,0,L|22:273,1,140,2|4,0:0|0:0,0:0:0:0:
118,257,86088,5,0,1:0:0:0:
187,326,86463,1,4,1:2:0:0:
268,271,86838,1,0,1:0:0:0:
337,340,87213,1,4,1:2:0:0:
417,283,87588,6,0,P|430:216|404:152,1,140,4|8,0:0|0:0,0:0:0:0:
358,133,88150,1,0,0:0:0:0:
310,121,88338,2,0,B|268:132|268:132|206:128,2,105,2|2|2,0:0|0:0|0:0,0:0:0:0:
358,133,89088,1,4,0:0:0:0:
417,54,89463,1,8,0:0:0:0:
450,145,89838,2,0,P|418:205|354:228,1,140,8|8,0:0|0:0,0:0:0:0:
358,133,90588,6,0,L|346:28,2,105,4|2|2,0:0|0:0|0:0,0:0:0:0:
315,156,91338,2,0,L|175:140,1,140,2|8,0:0|0:0,0:0:0:0:
132,162,91900,2,0,L|62:169,1,70,0|4,1:0|0:0,0:0:0:0:
12,84,92463,1,8,0:0:0:0:
90,24,92838,1,2,0:0:0:0:
176,70,93213,2,0,L|175:140,1,70,8|0,0:0|1:0,0:0:0:0:
132,162,93588,6,0,L|137:301,1,140,4|8,0:0|0:0,0:0:0:0:
184,311,94150,1,2,0:0:0:0:
223,340,94338,2,0,P|273:327|327:334,2,105,0|4|6,1:0|0:0|0:0,0:0:0:0:
184,311,95088,1,4,0:0:0:0:
197,213,95463,2,0,L|200:143,1,70,8|0,0:0|0:0,0:0:0:0:
228,102,95838,2,0,B|272:93|319:112|319:112|363:96,1,140,4|0,0:0|1:0,0:0:0:0:
459,112,96588,6,0,L|451:252,1,140,4|0,0:0|1:0,0:0:0:0:
396,333,97338,2,0,B|345:324|345:324|306:329|306:329|257:320,1,140,4|0,0:0|1:0,0:0:0:0:
211,335,97900,1,0,1:0:0:0:
170,362,98088,2,0,P|115:320|47:323,2,140,4|0|4,1:2|1:0|1:2,0:0:0:0:
258,321,99213,1,0,1:0:0:0:
238,224,99588,5,4,0:1:0:0:
256,192,99681,12,0,101088,0:0:0:0:
