osu file format v14

[General]
AudioFilename: nokosareta.mp3
AudioLeadIn: 0
PreviewTime: 63494
Countdown: 0
SampleSet: Soft
StackLeniency: 0.7
Mode: 0
LetterboxInBreaks: 0
WidescreenStoryboard: 1

[Editor]
DistanceSpacing: 1.1
BeatDivisor: 4
GridSize: 16
TimelineZoom: 2.7

[Metadata]
Title:Torinokosareta Bijutsu(Arranged: HiZuMi)
TitleUnicode:取り残された美術(Arranged:HiZuMi)
Artist:Yuuhei Satellite feat. senya
ArtistUnicode:幽閉サテライト feat. senya
Creator:Sellenite
Version:Hard
Source:東方Project
Tags:Touhou The Fantastic Legend of Tohno Perfect Cherry Blossom Chen -Yuzuriha
BeatmapID:750450
BeatmapSetID:324290

[Difficulty]
HPDrainRate:5
CircleSize:4
OverallDifficulty:6
ApproachRate:8
SliderMultiplier:1.6
SliderTickRate:1

[Events]
//Background and Video events
0,0,"bg.jpg",0,0
//Break Periods
//Storyboard Layer 0 (Background)
//Storyboard Layer 1 (Fail)
//Storyboard Layer 2 (Pass)
//Storyboard Layer 3 (Foreground)
//Storyboard Sound Samples

[TimingPoints]
588,375,4,2,1,50,1,0
6588,-100,4,2,1,60,0,0
12588,-100,4,2,1,80,0,0
26088,-100,4,2,1,70,0,0
63588,-100,4,2,1,80,0,1
87588,-100,4,2,1,70,0,0
99681,-100,4,2,1,5,0,0

[Colours]
Combo1 : 255,255,128
Combo2 : 255,128,64
Combo3 : 170,170,255
Combo4 : 255,98,98
Combo5 : 255,172,214

[HitObjects]
319,33,588,6,0,P|327:108|397:136,1,160,2|0,0:0|0:0,0:0:0:0:
454,204,1150,1,0,0:0:0:0:
382,255,1338,2,0,P|305:252|222:254,1,160,2|2,0:0|0:0,0:0:0:0:
152,307,1900,1,0,0:0:0:0:
101,179,2088,6,0,L|181:176,1,80,2|0,0:0|0:0,0:0:0:0:
229,38,2463,2,0,L|246:117,1,80,2|2,0:0|0:0,0:0:0:0:
319,166,2838,1,2,0:0:0:0:
396,124,3025,1,0,0:0:0:0:
418,209,3213,2,0,L|401:287,1,80,2|2,0:0|0:0,0:0:0:0:
340,351,3588,6,0,P|265:348|180:350,1,160,2|2,0:0|0:0,0:0:0:0:
98,318,4150,1,0,0:0:0:0:
122,232,4338,2,0,P|119:193|103:156,2,80,2|0|2,0:0|0:0|0:0,0:0:0:0:
36,254,4900,1,2,0:0:0:0:
6,129,5088,6,0,L|166:120,1,160,2|2,0:0|0:0,0:0:0:0:
243,78,5650,1,2,0:0:0:0:
256,165,5838,2,0,L|247:204,3,40,2|0|0|0,0:0|0:0|0:0|0:0,0:0:0:0:
289,217,6213,2,0,L|297:256,3,40,2|0|2|0,0:0|0:0|0:0|0:0,0:0:0:0:
277,295,6588,5,4,1:0:0:0:
277,294,8088,2,0,P|276:235|285:175,2,120,4|0|0,1:0|0:0|0:0,0:0:0:0:
336,359,8838,1,0,0:0:0:0:
336,359,9213,2,0,L|415:356,1,80,0|0,0:0|0:0,0:0:0:0:
247,353,9588,6,0,B|186:337|186:337|90:349,1,160,4|0,1:0|0:0,0:0:0:0:
194,206,10338,2,0,B|255:222|255:222|351:210,1,160,4|0,1:0|0:0,0:0:0:0:
236,74,11088,6,0,P|196:67|157:73,1,80,4|0,1:0|0:0,0:0:0:0:
33,132,11463,2,0,L|112:148,1,80,4|0,1:2|0:0,0:0:0:0:
101,235,11838,2,0,L|140:243,3,40,4|0|0|0,1:2|0:0|0:0|0:0,0:0:0:0:
153,285,12213,2,0,L|192:276,3,40,4|0|0|0,1:2|0:0|0:0|0:0,0:0:0:0:
229,299,12588,6,0,L|240:378,1,80,4|0,0:0|0:0,0:0:0:0:
279,226,12963,2,0,P|304:256|315:294,1,80,8|0,0:0|0:0,0:0:0:0:
371,362,13338,1,2,0:0:0:0:
411,283,13525,2,0,L|412:257,3,26.6666666666667,2|2|2|8,0:0|0:0|0:0|0:0,0:0:0:0:
497,301,13900,5,2,0:0:0:0:
497,301,13994,1,0,0:0:0:0:
497,301,14088,2,0,L|490:219,1,80,2|2,0:0|0:0,0:0:0:0:
425,126,14463,2,0,P|407:162|403:202,1,80,8|2,0:0|0:0,0:0:0:0:
329,250,14838,6,0,P|249:248|169:251,2,160,4|4|2,0:0|0:0|0:0,0:0:0:0:
373,174,15775,1,0,0:0:0:0:
298,126,15963,2,0,P|256:121|218:115,1,80,8|0,0:0|0:0,0:0:0:0:
88,65,16338,1,2,0:0:0:0:
134,141,16525,2,0,L|135:167,3,26.6666666666667,2|2|2|8,0:0|0:0|0:0|0:0,0:0:0:0:
88,65,16900,1,2,0:0:0:0:
31,169,17088,6,0,L|42:251,1,80,2|2,0:0|0:0,0:0:0:0:
129,251,17463,2,0,L|118:333,1,80,8|2,0:0|0:0,0:0:0:0:
214,377,17838,2,0,L|206:338,3,40,8|0|2|0,0:0|0:0|0:0|0:0,0:0:0:0:
249,334,18213,2,0,L|258:295,3,40,8|0|2|0,0:0|0:0|0:0|0:0,0:0:0:0:
258,250,18588,6,0,L|247:170,1,80,4|0,0:0|0:0,0:0:0:0:
325,128,18963,2,0,P|334:89|330:50,1,80,8|0,0:0|0:0,0:0:0:0:
248,85,19338,1,2,0:0:0:0:
311,150,19525,2,0,B|364:145|364:145|421:159|469:150,1,160,2|2,0:0|0:0,0:0:0:0:
370,49,20088,2,0,P|370:89|383:127,1,80,2|2,0:0|0:0,0:0:0:0:
438,259,20463,2,0,P|450:221|451:182,1,80,8|2,0:0|0:0,0:0:0:0:
350,286,20838,6,0,P|430:284|510:287,2,160,4|4|2,0:0|0:0|0:0,0:0:0:0:
283,227,21775,1,0,0:0:0:0:
283,227,21963,2,0,L|288:148,1,80,8|2,0:0|0:0,0:0:0:0:
236,75,22338,1,2,0:0:0:0:
236,75,22525,1,2,0:0:0:0:
164,126,22713,2,0,L|85:121,1,80,8|2,0:0|0:0,0:0:0:0:
8,221,23088,6,0,L|87:216,1,80,0|0,1:0|1:0,0:0:0:0:
179,331,23463,2,0,P|178:292|167:254,1,80,0|0,1:0|1:0,0:0:0:0:
240,205,23838,2,0,L|248:165,3,40,0|0|2|0,1:0|0:0|1:0|0:0,0:0:0:0:
288,147,24213,2,0,L|280:107,3,40,0|0|0|0,1:0|0:0|1:0|0:0,0:0:0:0:
253,72,24588,6,0,L|412:79,1,160,4|4,0:0|0:0,0:0:0:0:
290,207,25338,2,0,L|130:199,1,160,4|4,0:0|0:0,0:0:0:0:
32,345,26088,6,0,L|111:340,1,80,4|0,0:0|0:0,0:0:0:0:
171,276,26463,2,0,P|168:236|152:199,1,80,0|0,1:0|0:0,0:0:0:0:
86,140,26838,1,2,0:0:0:0:
86,140,27025,1,0,0:0:0:0:
151,81,27213,6,0,B|205:93|205:93|248:75|308:79,2,160,0|4|0,1:0|0:0|1:0,0:0:0:0:
67,52,28150,1,2,0:0:0:0:
168,176,28338,2,0,P|168:215|160:254,1,80,0|2,1:0|1:2,0:0:0:0:
78,335,28713,2,0,P|70:296|71:257,1,80,0|2,1:0|1:2,0:0:0:0:
162,363,29088,6,0,P|239:346|317:364,1,160,4|0,0:0|1:0,0:0:0:0:
402,343,29650,1,0,0:0:0:0:
365,262,29838,2,0,L|374:182,1,80,2|0,0:0|0:0,0:0:0:0:
435,89,30213,2,0,P|441:128|459:163,1,80,0|0,1:0|0:0,0:0:0:0:
287,166,30588,6,0,L|127:152,1,160,4|0,0:0|1:0,0:0:0:0:
42,174,31150,1,0,0:0:0:0:
17,258,31338,2,0,L|22:298,3,40,0|0|0|0,1:0|0:0|0:0|0:0,0:0:0:0:
53,328,31713,2,0,L|132:321,1,80,0|0,1:0|1:0,0:0:0:0:
165,351,31994,5,0,0:0:0:0:
165,351,32088,2,0,L|244:357,1,80,4|0,0:0|0:0,0:0:0:0:
246,191,32463,2,0,P|244:230|256:269,1,80,0|0,1:0|0:0,0:0:0:0:
371,303,32838,2,0,P|382:264|380:225,1,80,2|0,0:0|0:0,0:0:0:0:
420,380,33213,1,0,1:0:0:0:
420,380,33400,1,0,0:0:0:0:
371,304,33588,6,0,P|429:292|483:315,1,120,4|0,0:0|0:0,0:0:0:0:
505,277,33963,2,0,L|495:197,1,80,0|0,1:0|0:0,0:0:0:0:
484,110,34338,1,0,1:0:0:0:
404,72,34525,2,0,L|408:32,2,40,0|0|0,0:0|0:0|1:0,0:0:0:0:
328,116,34900,5,0,0:0:0:0:
328,116,34994,1,0,0:0:0:0:
328,116,35088,2,0,L|338:196,1,80,4|0,0:0|0:0,0:0:0:0:
240,285,35463,2,0,L|250:205,1,80,0|0,1:0|0:0,0:0:0:0:
315,330,35838,2,0,P|235:321|156:330,1,160,2|0,0:0|1:0,0:0:0:0:
73,300,36400,1,0,1:0:0:0:
52,214,36588,6,0,L|67:135,1,80,4|0,0:0|1:0,0:0:0:0:
138,46,36963,2,0,L|154:125,1,80,0|0,1:0|1:0,0:0:0:0:
214,185,37337,5,0,1:0:0:0:
300,186,37525,1,2,1:0:0:0:
362,127,37712,1,0,1:0:0:0:
365,41,37900,1,0,1:0:0:0:
365,41,38275,5,0,1:0:0:0:
300,186,38463,1,4,0:0:0:0:
375,231,38650,1,0,0:0:0:0:
375,231,38744,1,0,0:0:0:0:
375,231,38838,2,0,P|387:193|381:154,1,80,2|0,0:0|0:0,0:0:0:0:
460,243,39213,2,0,P|445:280|417:308,1,80,0|0,1:0|0:0,0:0:0:0:
331,327,39588,6,0,B|280:313|280:313|232:334|175:330,1,160,4|0,0:0|1:0,0:0:0:0:
251,226,40150,2,0,P|213:239|174:242,1,80,0|0,0:0|1:0,0:0:0:0:
98,288,40525,1,2,1:2:0:0:
54,214,40713,1,0,1:0:0:0:
75,130,40900,1,2,1:2:0:0:
148,84,41088,6,0,P|185:97|225:100,1,80,4|0,0:0|0:0,0:0:0:0:
318,171,41463,2,0,P|280:184|241:187,1,80,0|0,1:0|0:0,0:0:0:0:
366,97,41838,2,0,L|351:256,2,160,2|0|4,0:0|1:0|0:0,0:0:0:0:
309,30,42775,1,0,0:0:0:0:
244,91,42963,2,0,P|205:92|166:84,1,80,0|0,1:0|0:0,0:0:0:0:
80,104,43338,6,0,L|84:144,3,40,0|0|0|0,1:0|0:0|0:0|0:0,0:0:0:0:
47,168,43713,2,0,L|54:247,1,80,0|0,1:0|1:0,0:0:0:0:
60,291,43994,5,0,0:0:0:0:
60,291,44088,1,4,0:0:0:0:
119,355,44275,1,0,0:0:0:0:
189,302,44463,2,0,P|228:293|267:298,1,80,0|0,1:0|0:0,0:0:0:0:
298,214,44838,2,0,P|376:207|447:242,2,160,2|0|4,0:0|1:0|0:0,0:0:0:0:
267,298,45775,1,0,0:0:0:0:
237,149,45963,6,0,P|238:110|250:72,1,80,0|0,1:0|0:0,0:0:0:0:
322,22,46338,1,0,1:0:0:0:
396,68,46525,2,0,L|392:107,2,40,0|0|0,0:0|0:0|1:0,0:0:0:0:
483,53,46900,5,0,0:0:0:0:
483,53,46994,1,0,0:0:0:0:
483,53,47088,2,0,L|476:132,1,80,4|0,0:0|0:0,0:0:0:0:
395,225,47463,2,0,L|389:146,1,80,0|0,1:0|0:0,0:0:0:0:
305,116,47838,1,4,0:0:0:0:
305,116,48025,1,0,0:0:0:0:
208,234,48213,2,0,P|206:273|216:312,1,80,0|0,1:0|0:0,0:0:0:0:
297,213,48588,5,4,0:0:0:0:
241,149,48775,1,0,1:0:0:0:
157,158,48963,1,0,1:0:0:0:
116,232,49150,1,0,1:0:0:0:
241,149,49338,6,0,P|229:112|201:84,1,80,0|2,1:0|1:0,0:0:0:0:
116,232,49713,2,0,P|128:269|156:297,1,80,0|0,1:0|1:0,0:0:0:0:
279,344,50088,6,0,B|334:331|334:331|389:351|435:343,1,160,4|8,0:0|0:0,0:0:0:0:
459,247,50650,1,0,0:0:0:0:
438,255,50744,1,2,0:0:0:0:
417,262,50838,2,0,L|425:182,1,80,2|2,0:0|0:0,0:0:0:0:
310,106,51213,2,0,L|390:101,1,80,0|2,1:0|0:0,0:0:0:0:
318,202,51588,6,0,B|246:188|246:188|197:191,2,120,4|4|4,0:0|0:0|0:0,0:0:0:0:
318,202,52525,1,4,0:0:0:0:
267,331,52713,1,0,1:0:0:0:
341,285,52900,5,0,1:0:0:0:
341,285,52994,1,0,1:0:0:0:
341,285,53088,2,0,L|421:294,1,80,0|2,0:0|0:0,0:0:0:0:
259,253,53463,2,0,L|179:262,1,80,8|0,0:0|0:0,0:0:0:0:
155,299,53744,2,0,P|100:322|42:311,1,120,2|2,0:0|0:0,0:0:0:0:
75,158,54213,2,0,P|89:196|93:236,1,80,0|2,1:0|0:0,0:0:0:0:
205,151,54588,6,0,B|277:165|277:165|326:162,2,120,4|4|4,0:0|0:0|0:0,0:0:0:0:
205,151,55525,1,4,0:0:0:0:
282,36,55713,1,2,0:3:0:0:
353,87,55900,5,0,0:0:0:0:
353,87,55994,1,0,0:0:0:0:
353,87,56088,2,0,B|347:152|347:152|366:208|361:246,1,160,4|2,0:0|0:3,0:0:0:0:
321,323,56650,1,0,0:0:0:0:
235,300,56838,2,0,P|159:280|80:292,2,160,4|2|4,0:0|0:3|0:0,0:0:0:0:
321,323,57775,5,0,0:0:0:0:
361,244,57963,2,0,P|359:196|348:156,1,80,8|0,0:0|0:0,0:0:0:0:
272,79,58338,2,0,P|263:118|262:157,2,80,2|2|8,0:0|0:0|0:0,0:0:0:0:
335,18,58900,1,0,1:0:0:0:
190,45,59088,6,0,B|132:54|132:54|30:38,1,160,4|0,0:0|1:0,0:0:0:0:
96,201,59838,2,0,B|154:192|154:192|256:208,2,160,4|0|0,0:0|1:0|1:0,0:0:0:0:
46,273,60775,1,0,1:0:0:0:
46,273,60963,2,0,L|55:352,1,80,0|0,1:0|1:0,0:0:0:0:
143,193,61338,2,0,L|134:273,1,80,0|0,1:0|1:0,0:0:0:0:
270,334,61713,1,0,1:0:0:0:
221,262,61900,1,0,1:0:0:0:
183,381,62088,6,0,P|266:369|342:365,1,160,4|4,0:0|0:0,0:0:0:0:
475,251,62838,2,0,P|435:185|359:173,1,160,4|4,0:0|0:0,0:0:0:0:
283,219,63400,5,0,0:0:0:0:
283,219,63494,1,0,0:0:0:0:
283,219,63588,2,0,P|241:218|204:209,1,80,4|0,0:0|0:0,0:0:0:0:
111,130,63963,2,0,P|151:130|190:121,1,80,8|0,0:0|0:0,0:0:0:0:
65,55,64338,2,0,L|77:214,1,160,2|8,0:0|0:0,0:0:0:0:
77,214,64900,1,0,0:0:0:0:
139,276,65088,5,2,0:0:0:0:
221,247,65275,1,0,0:0:0:0:
386,247,65463,1,8,0:0:0:0:
304,276,65650,1,0,0:0:0:0:
221,247,65838,6,0,P|225:208|241:171,1,80,2|0,0:0|0:0,0:0:0:0:
307,77,66213,2,0,P|323:114|327:154,1,80,8|0,0:0|0:0,0:0:0:0:
383,33,66588,6,0,P|408:108|410:188,1,160,2|8,0:0|0:0,0:0:0:0:
375,269,67150,1,0,0:0:0:0:
442,325,67338,2,0,L|521:331,1,80,2|0,0:0|0:0,0:0:0:0:
360,357,67713,2,0,L|280:363,1,80,8|0,0:0|0:0,0:0:0:0:
205,252,68088,5,2,0:0:0:0:
172,333,68275,1,0,0:0:0:0:
122,220,68463,2,0,P|178:168|255:178,2,160,8|2|8,0:0|0:0|0:0,0:0:0:0:
43,182,69400,5,0,0:0:0:0:
43,182,69494,1,0,0:0:0:0:
43,182,69588,2,0,L|50:102,1,80,4|0,0:0|0:0,0:0:0:0:
122,220,69963,2,0,L|129:299,1,80,8|0,0:0|0:0,0:0:0:0:
53,344,70338,2,0,P|132:336|212:340,1,160,4|8,0:0|0:0,0:0:0:0:
299,351,70900,1,8,0:0:0:0:
304,262,71088,6,0,B|265:244|265:244|227:241|188:249,2,120,4|4|4,0:0|0:0|0:0,0:0:0:0:
333,179,71838,2,0,P|319:109|237:74,1,160,4|8,0:0|0:0,0:0:0:0:
249,161,72400,1,2,0:0:0:0:
377,254,72588,6,0,L|456:248,1,80,4|0,0:0|0:0,0:0:0:0:
307,335,72963,2,0,L|386:341,1,80,8|0,0:0|0:0,0:0:0:0:
496,298,73338,2,0,B|482:226|482:226|485:177,2,120,4|4|4,0:0|0:0|0:0,0:0:0:0:
397,377,74088,6,0,L|407:298,1,80,0|0,1:0|1:0,0:0:0:0:
362,221,74463,1,0,1:0:0:0:
225,264,74650,1,0,1:0:0:0:
225,264,74838,2,0,L|215:184,1,80,4|0,1:2|1:0,0:0:0:0:
145,303,75213,1,0,1:0:0:0:
284,339,75400,1,0,1:0:0:0:
108,373,75588,6,0,L|123:254,1,120,2|0,3:0|0:0,0:0:0:0:
98,217,75963,2,0,L|18:225,1,80,8|0,0:0|0:0,0:0:0:0:
180,185,76338,6,0,P|179:145|166:107,1,80,2|0,0:0|0:0,0:0:0:0:
94,53,76713,2,0,P|81:91|81:131,1,80,8|0,0:0|0:0,0:0:0:0:
98,217,77088,1,2,0:0:0:0:
166,271,77275,1,0,0:0:0:0:
248,131,77463,1,8,0:0:0:0:
180,185,77650,1,0,0:0:0:0:
323,176,77838,6,0,P|333:137|329:98,1,80,2|0,0:0|0:0,0:0:0:0:
255,233,78213,2,0,P|250:272|261:310,1,80,8|0,0:0|0:0,0:0:0:0:
396,379,78588,6,0,L|405:299,1,80,2|0,0:0|0:0,0:0:0:0:
433,265,78869,1,0,0:0:0:0:
433,265,78963,2,0,L|423:185,1,80,8|0,0:0|0:0,0:0:0:0:
438,35,79338,1,2,0:0:0:0:
476,115,79525,1,0,0:0:0:0:
339,112,79713,2,0,L|349:32,1,80,8|0,0:0|0:0,0:0:0:0:
173,121,80088,6,0,L|253:131,1,80,2|0,0:0|0:0,0:0:0:0:
392,205,80463,2,0,L|312:195,1,80,8|0,0:0|0:0,0:0:0:0:
250,257,80838,2,0,P|249:287|260:313,3,40,2|0|0|0,0:0|0:0|0:0|0:0,0:0:0:0:
224,331,81213,2,0,L|144:331,1,80,8|8,0:0|0:0,0:0:0:0:
104,311,81494,5,0,0:0:0:0:
104,311,81588,2,0,L|24:311,1,80,4|0,0:0|0:0,0:0:0:0:
15,223,81963,2,0,L|6:143,1,80,8|0,0:0|0:0,0:0:0:0:
102,71,82338,2,0,L|94:151,1,80,2|0,0:0|0:0,0:0:0:0:
169,195,82713,1,8,0:0:0:0:
250,161,82900,1,8,0:0:0:0:
169,195,83088,6,0,B|158:235|174:284|174:284|166:312,2,120,4|4|4,0:0|0:0|0:0,0:0:0:0:
360,247,83838,2,0,P|297:285|247:231,1,160,4|8,0:0|0:0,0:0:0:0:
287,153,84400,1,2,0:0:0:0:
406,204,84588,6,0,L|391:363,1,160,2|4,0:0|0:0,0:0:0:0:
305,382,85150,1,2,0:0:0:0:
263,304,85338,2,0,L|248:144,1,160,2|4,0:0|0:0,0:0:0:0:
249,145,86088,5,0,1:0:0:0:
99,158,86275,1,0,1:0:0:0:
170,106,86463,1,4,1:2:0:0:
20,119,86650,1,0,1:2:0:0:
170,106,86838,6,0,P|167:67|151:30,1,80,0|0,1:0|1:0,0:0:0:0:
99,158,87213,2,0,P|102:197|118:234,1,80,4|0,1:2|1:0,0:0:0:0:
46,287,87588,6,0,P|115:322|184:287,1,160,4|8,0:0|0:0,0:0:0:0:
247,225,88150,1,0,0:0:0:0:
327,262,88338,2,0,B|332:303|332:303|323:337|323:337|328:380,2,120,2|2|2,0:0|0:0|0:0,0:0:0:0:
386,197,89088,2,0,P|391:119|333:68,1,160,4|8,0:0|0:0,0:0:0:0:
311,154,89650,1,2,0:0:0:0:
479,188,89838,6,0,P|483:148|478:109,1,80,8|0,0:0|0:0,0:0:0:0:
311,154,90213,2,0,P|305:194|310:234,1,80,8|0,0:0|1:0,0:0:0:0:
255,302,90588,6,0,L|175:292,1,80,4|0,0:0|0:0,0:0:0:0:
136,313,90869,1,2,0:0:0:0:
136,313,90963,2,0,L|56:303,1,80,8|2,0:0|0:0,0:0:0:0:
18,223,91338,2,0,P|14:145|74:97,2,160,2|8|4,0:0|0:0|0:0,0:0:0:0:
109,224,92275,1,0,0:0:0:0:
101,203,92369,1,2,0:0:0:0:
94,182,92463,2,0,L|174:190,1,80,8|2,0:0|0:0,0:0:0:0:
257,217,92838,6,0,L|265:177,3,40,2|0|0|0,0:0|0:0|0:0|0:0,0:0:0:0:
305,159,93213,2,0,L|297:119,3,40,8|0|0|0,0:0|0:0|1:0|0:0,0:0:0:0:
270,84,93588,6,0,P|348:94|424:70,1,160,4|8,0:0|0:0,0:0:0:0:
498,116,94150,1,2,0:0:0:0:
445,187,94338,2,0,B|439:253|439:253|452:305,2,120,0|4|6,1:0|0:0|0:0,0:0:0:0:
276,197,95088,2,0,L|356:188,1,80,4|0,0:0|0:0,0:0:0:0:
318,275,95463,5,8,0:0:0:0:
340,272,95557,1,0,0:0:0:0:
362,270,95650,2,0,L|352:363,1,80,0|4,0:0|0:0,0:0:0:0:
270,379,96025,1,2,1:2:0:0:
195,237,96213,2,0,P|187:199|193:160,1,80,0|2,1:0|1:2,0:0:0:0:
200,326,96588,6,0,L|80:317,1,120,4|0,0:0|0:0,0:0:0:0:
42,293,96963,1,0,1:0:0:0:
22,253,97056,2,0,P|16:193|27:134,1,120,0|4,0:0|0:0,0:0:0:0:
99,84,97525,1,0,0:0:0:0:
99,84,97619,1,0,0:0:0:0:
99,84,97713,2,0,L|178:89,1,80,0|0,1:0|0:0,0:0:0:0:
203,174,98088,6,0,B|193:212|193:212|199:253,2,80,4|0|0,1:2|1:0|1:0,0:0:0:0:
191,131,98556,1,0,1:0:0:0:
266,84,98744,1,0,1:0:0:0:
266,84,98838,2,0,L|345:89,2,80,4|0|0,1:2|1:0|1:0,0:0:0:0:
229,108,99306,1,0,1:0:0:0:
256,237,99494,6,0,L|256:277,1,40,0|4,1:0|0:1,0:0:0:0:
256,192,99681,12,0,101088,0:0:0:0:
