osu file format v14

[General]
AudioFilename: audio.mp3
AudioLeadIn: 0
PreviewTime: 62091
Countdown: 0
SampleSet: Normal
StackLeniency: 0.7
Mode: 1
LetterboxInBreaks: 0
WidescreenStoryboard: 0

[Editor]
DistanceSpacing: 0.6
BeatDivisor: 4
GridSize: 32
TimelineZoom: 1.8

[Metadata]
Title:Torinokosareta Bijutsu (Arranged: HiZuMi)
TitleUnicode:取り残された美術 (Arranged:HiZuMi)
Artist:Yuuhei Satellite feat. senya
ArtistUnicode:幽閉サテライト feat. senya
Creator:davidminh0111
Version:Futsuu
Source:東方妖々夢 ~ Perfect Cherry Blossom.
Tags:Toono gensou monogatari The fantastic tales from tono tohno genso 迷ひ家 迷い家 mayohiga mayoiga 森永真由美 Mayumi Morinaga 橙 th7 PCB Youyoumu ZUN electronic Touhou Chen かませ虎 kamase-tora 遠野幻想物語 BEMANI × 東方Project Ultimate Masterpieces Jaltzu video game japanese Konami REFLEC BEAT plus pop'n music うさぎと猫と少年の夢 jubeat plus beatmania IIDX 22 PENDUAL BeatStream prop groovin'!! Upper SOUND VOLTEX III GRAVITY WARS SDVX Abandoned Arts
BeatmapID:2364594
BeatmapSetID:1132037

[Difficulty]
HPDrainRate:7
CircleSize:2
OverallDifficulty:3
ApproachRate:10
SliderMultiplier:1.4
SliderTickRate:1

[Events]
//Background and Video events
0,0,"bg.jpg",0,0
//Break Periods
//Storyboard Layer 0 (Background)
//Storyboard Layer 1 (Fail)
//Storyboard Layer 2 (Pass)
//Storyboard Layer 3 (Foreground)
//Storyboard Layer 4 (Overlay)
//Storyboard Sound Samples

[TimingPoints]
581,375,4,1,0,70,1,0
12581,-100,4,1,0,80,0,0
24581,-100,4,1,0,90,0,0
26081,-100,4,1,0,80,0,0
62081,-100,4,1,0,90,0,0
63581,-100,4,1,0,85,0,1
87581,-100,4,1,0,80,0,0

[HitObjects]
256,192,581,5,8,0:0:0:0:
256,192,1331,1,8,0:0:0:0:
256,192,2081,1,0,0:0:0:0:
256,192,2456,1,8,0:0:0:0:
256,192,2831,1,8,0:0:0:0:
256,192,3018,1,8,0:0:0:0:
256,192,3206,1,0,0:0:0:0:
256,192,3581,1,0,0:0:0:0:
256,192,3956,1,8,0:0:0:0:
256,192,4331,1,0,0:0:0:0:
256,192,4706,1,8,0:0:0:0:
256,192,5081,1,0,0:0:0:0:
256,192,5456,1,8,0:0:0:0:
256,192,5643,1,0,0:0:0:0:
256,192,5831,1,8,0:0:0:0:
256,192,6581,1,4,0:0:0:0:
256,192,8081,1,4,0:0:0:0:
256,192,9581,1,4,0:0:0:0:
256,192,10331,1,4,0:0:0:0:
256,192,11081,1,4,0:0:0:0:
256,192,11456,1,4,0:0:0:0:
256,192,11831,1,12,0:0:0:0:
256,192,12206,1,12,0:0:0:0:
256,192,12581,1,4,0:0:0:0:
256,192,12956,1,8,0:0:0:0:
256,192,13331,1,8,0:0:0:0:
256,192,13518,1,8,0:0:0:0:
256,192,13706,1,8,0:0:0:0:
256,192,13893,1,8,0:0:0:0:
256,192,14081,1,0,0:0:0:0:
256,192,14831,1,12,0:0:0:0:
256,192,15206,1,12,0:0:0:0:
256,192,15581,1,0,0:0:0:0:
256,192,15956,1,8,0:0:0:0:
256,192,16331,1,8,0:0:0:0:
256,192,16518,1,0,0:0:0:0:
256,192,16706,1,0,0:0:0:0:
256,192,16893,1,8,0:0:0:0:
256,192,17081,1,0,0:0:0:0:
256,192,17831,1,0,0:0:0:0:
256,192,18018,1,0,0:0:0:0:
256,192,18206,1,8,0:0:0:0:
256,192,18581,1,4,0:0:0:0:
256,192,18956,1,8,0:0:0:0:
256,192,19143,1,0,0:0:0:0:
256,192,19331,1,8,0:0:0:0:
256,192,19518,1,8,0:0:0:0:
256,192,19706,1,8,0:0:0:0:
256,192,20081,1,0,0:0:0:0:
256,192,20831,1,12,0:0:0:0:
256,192,21206,1,12,0:0:0:0:
256,192,21581,1,0,0:0:0:0:
256,192,21956,1,8,0:0:0:0:
256,192,22143,1,8,0:0:0:0:
256,192,22331,1,8,0:0:0:0:
256,192,22518,1,0,0:0:0:0:
256,192,22706,1,0,0:0:0:0:
256,192,23081,1,0,0:0:0:0:
256,192,23456,1,8,0:0:0:0:
256,192,23831,1,0,0:0:0:0:
256,192,24018,1,0,0:0:0:0:
256,192,24206,1,8,0:0:0:0:
256,192,24393,1,8,0:0:0:0:
256,192,24581,1,4,0:0:0:0:
256,192,24956,1,12,0:0:0:0:
256,192,25331,1,4,0:0:0:0:
256,192,25706,1,12,0:0:0:0:
256,192,26081,1,4,0:0:0:0:
256,192,26456,1,8,0:0:0:0:
256,192,26831,1,8,0:0:0:0:
256,192,27206,1,0,0:0:0:0:
256,192,27581,1,8,0:0:0:0:
256,192,27956,1,8,0:0:0:0:
256,192,28143,1,8,0:0:0:0:
256,192,28331,1,0,0:0:0:0:
256,192,29081,1,0,0:0:0:0:
256,192,29456,1,8,0:0:0:0:
256,192,29831,1,0,0:0:0:0:
256,192,30206,1,8,0:0:0:0:
256,192,30393,1,8,0:0:0:0:
256,192,30581,1,0,0:0:0:0:
256,192,30956,1,8,0:0:0:0:
256,192,31331,1,0,0:0:0:0:
256,192,31518,1,0,0:0:0:0:
256,192,31706,1,8,0:0:0:0:
256,192,31893,1,8,0:0:0:0:
256,192,32081,1,4,0:0:0:0:
256,192,32456,1,8,0:0:0:0:
256,192,32831,1,8,0:0:0:0:
256,192,33206,1,8,0:0:0:0:
256,192,33581,1,0,0:0:0:0:
256,192,33956,1,8,0:0:0:0:
256,192,34143,1,0,0:0:0:0:
256,192,34331,1,8,0:0:0:0:
256,192,35081,1,0,0:0:0:0:
256,192,35456,1,8,0:0:0:0:
256,192,35643,1,8,0:0:0:0:
256,192,35831,1,0,0:0:0:0:
256,192,36206,1,0,0:0:0:0:
256,192,36393,1,8,0:0:0:0:
256,192,36581,1,0,0:0:0:0:
256,192,37143,1,0,0:0:0:0:
256,192,37331,1,0,0:0:0:0:
256,192,38268,1,4,0:0:0:0:
256,192,38456,1,8,0:0:0:0:
256,192,38831,1,8,0:0:0:0:
256,192,39206,1,8,0:0:0:0:
256,192,39581,1,0,0:0:0:0:
256,192,39768,1,0,0:0:0:0:
256,192,39956,1,8,0:0:0:0:
256,192,40143,1,8,0:0:0:0:
256,192,40331,1,0,0:0:0:0:
256,192,41081,1,0,0:0:0:0:
256,192,41456,1,8,0:0:0:0:
256,192,41831,1,0,0:0:0:0:
256,192,42206,1,8,0:0:0:0:
256,192,42393,1,8,0:0:0:0:
256,192,42581,1,0,0:0:0:0:
256,192,42956,1,8,0:0:0:0:
256,192,43331,1,0,0:0:0:0:
256,192,43518,1,0,0:0:0:0:
256,192,43706,1,8,0:0:0:0:
256,192,43893,1,8,0:0:0:0:
256,192,44081,1,0,0:0:0:0:
256,192,44456,1,8,0:0:0:0:
256,192,44831,1,8,0:0:0:0:
256,192,45206,1,8,0:0:0:0:
256,192,45581,1,0,0:0:0:0:
256,192,45956,1,8,0:0:0:0:
256,192,46143,1,8,0:0:0:0:
256,192,46331,1,0,0:0:0:0:
256,192,47081,1,0,0:0:0:0:
256,192,47456,1,8,0:0:0:0:
256,192,47831,1,0,0:0:0:0:
256,192,48206,1,8,0:0:0:0:
256,192,48393,1,8,0:0:0:0:
256,192,48581,1,0,0:0:0:0:
256,192,48956,1,8,0:0:0:0:
256,192,49143,1,0,0:0:0:0:
256,192,49331,1,0,0:0:0:0:
256,192,49706,1,8,0:0:0:0:
256,192,50081,1,4,0:0:0:0:
256,192,50831,1,0,0:0:0:0:
256,192,51206,1,8,0:0:0:0:
256,192,51581,1,4,0:0:0:0:
256,192,52143,1,4,0:0:0:0:
256,192,52518,1,4,0:0:0:0:
256,192,53268,1,0,0:0:0:0:
256,192,53456,1,8,0:0:0:0:
256,192,53831,1,0,0:0:0:0:
256,192,54018,1,8,0:0:0:0:
256,192,54206,1,8,0:0:0:0:
256,192,54581,1,4,0:0:0:0:
256,192,55143,1,4,0:0:0:0:
256,192,55518,1,12,0:0:0:0:
256,192,56081,1,12,0:0:0:0:
256,192,56831,1,4,0:0:0:0:
256,192,57581,1,8,0:0:0:0:
256,192,57956,1,0,0:0:0:0:
256,192,58143,1,0,0:0:0:0:
256,192,58331,1,0,0:0:0:0:
256,192,59081,1,12,0:0:0:0:
256,192,59456,1,0,0:0:0:0:
256,192,59643,1,0,0:0:0:0:
256,192,59831,1,12,0:0:0:0:
256,192,60206,1,8,0:0:0:0:
256,192,60393,1,0,0:0:0:0:
256,192,60581,1,8,0:0:0:0:
256,192,60956,1,0,0:0:0:0:
256,192,61331,1,0,0:0:0:0:
256,192,61518,1,0,0:0:0:0:
256,192,61706,1,0,0:0:0:0:
256,192,61893,1,0,0:0:0:0:
256,192,62081,1,12,0:0:0:0:
256,192,62456,1,4,0:0:0:0:
256,192,62831,1,12,0:0:0:0:
256,192,63206,1,12,0:0:0:0:
256,192,63581,1,12,0:0:0:0:
256,192,64143,1,0,0:0:0:0:
256,192,64331,1,8,0:0:0:0:
256,192,64893,1,8,0:0:0:0:
256,192,65081,1,8,0:0:0:0:
256,192,65456,1,0,0:0:0:0:
256,192,65643,1,8,0:0:0:0:
256,192,65831,1,0,0:0:0:0:
256,192,66018,1,0,0:0:0:0:
256,192,66206,1,8,0:0:0:0:
256,192,66581,1,0,0:0:0:0:
256,192,66956,1,8,0:0:0:0:
256,192,67143,1,8,0:0:0:0:
256,192,67331,1,0,0:0:0:0:
256,192,67706,1,8,0:0:0:0:
256,192,68081,1,0,0:0:0:0:
256,192,68268,1,0,0:0:0:0:
256,192,68456,1,8,0:0:0:0:
256,192,68643,1,8,0:0:0:0:
256,192,68831,1,0,0:0:0:0:
256,192,69581,1,12,0:0:0:0:
256,192,69768,1,0,0:0:0:0:
256,192,69956,1,8,0:0:0:0:
256,192,70143,1,8,0:0:0:0:
256,192,70331,1,0,0:0:0:0:
256,192,70706,1,8,0:0:0:0:
256,192,70893,1,0,0:0:0:0:
256,192,71081,1,8,0:0:0:0:
256,192,71456,1,8,0:0:0:0:
256,192,71831,1,0,0:0:0:0:
256,192,72206,1,8,0:0:0:0:
256,192,72393,1,0,0:0:0:0:
256,192,72581,1,8,0:0:0:0:
256,192,72956,1,8,0:0:0:0:
256,192,73331,1,4,0:0:0:0:
256,192,74081,1,0,0:0:0:0:
256,192,74268,1,0,0:0:0:0:
256,192,74456,1,0,0:0:0:0:
256,192,74831,1,0,0:0:0:0:
256,192,75018,1,0,0:0:0:0:
256,192,75206,1,0,0:0:0:0:
256,192,75393,1,0,0:0:0:0:
256,192,75581,1,12,0:0:0:0:
256,192,76143,1,0,0:0:0:0:
256,192,76331,1,8,0:0:0:0:
256,192,76893,1,8,0:0:0:0:
256,192,77081,1,0,0:0:0:0:
256,192,77456,1,0,0:0:0:0:
256,192,77643,1,8,0:0:0:0:
256,192,77831,1,0,0:0:0:0:
256,192,78018,1,8,0:0:0:0:
256,192,78206,1,8,0:0:0:0:
256,192,78581,1,0,0:0:0:0:
256,192,78768,1,0,0:0:0:0:
256,192,78956,1,8,0:0:0:0:
256,192,79331,1,0,0:0:0:0:
256,192,79706,1,0,0:0:0:0:
256,192,80081,1,8,0:0:0:0:
256,192,80268,1,8,0:0:0:0:
256,192,80456,1,0,0:0:0:0:
256,192,80643,1,0,0:0:0:0:
256,192,80831,1,8,0:0:0:0:
256,192,81581,1,12,0:0:0:0:
256,192,81956,1,8,0:0:0:0:
256,192,82143,1,0,0:0:0:0:
256,192,82331,1,8,0:0:0:0:
256,192,82706,1,8,0:0:0:0:
256,192,83081,1,12,0:0:0:0:
256,192,83643,1,12,0:0:0:0:
256,192,83831,1,4,0:0:0:0:
256,192,84581,1,0,0:0:0:0:
256,192,84956,1,4,0:0:0:0:
256,192,85331,1,8,0:0:0:0:
256,192,85706,1,12,0:0:0:0:
256,192,86081,1,0,0:0:0:0:
256,192,86456,1,0,0:0:0:0:
256,192,86831,1,0,0:0:0:0:
256,192,87018,1,0,0:0:0:0:
256,192,87206,1,4,0:0:0:0:
256,192,87393,1,0,0:0:0:0:
256,192,87581,1,12,0:0:0:0:
256,192,88143,1,0,0:0:0:0:
256,192,88331,1,8,0:0:0:0:
256,192,88706,1,8,0:0:0:0:
256,192,88893,1,8,0:0:0:0:
256,192,89081,1,8,0:0:0:0:
256,192,89456,1,8,0:0:0:0:
256,192,89643,1,8,0:0:0:0:
256,192,89831,1,0,0:0:0:0:
256,192,90581,1,4,0:0:0:0:
256,192,91143,1,0,0:0:0:0:
256,192,91331,1,8,0:0:0:0:
256,192,91518,1,0,0:0:0:0:
256,192,91706,1,8,0:0:0:0:
256,192,92081,1,0,0:0:0:0:
256,192,92456,1,0,0:0:0:0:
256,192,92831,1,0,0:0:0:0:
256,192,93018,1,0,0:0:0:0:
256,192,93206,1,8,0:0:0:0:
256,192,93393,1,8,0:0:0:0:
256,192,93581,1,4,0:0:0:0:
256,192,94143,1,0,0:0:0:0:
256,192,94331,1,8,0:0:0:0:
256,192,94706,1,8,0:0:0:0:
256,192,94893,1,8,0:0:0:0:
256,192,95081,1,8,0:0:0:0:
256,192,95456,1,0,0:0:0:0:
256,192,95643,1,0,0:0:0:0:
256,192,95831,1,8,0:0:0:0:
256,192,96581,1,4,0:0:0:0:
256,192,96956,1,8,0:0:0:0:
256,192,97331,1,4,0:0:0:0:
256,192,97706,1,8,0:0:0:0:
256,192,98081,1,4,0:0:0:0:
256,192,98268,1,0,0:0:0:0:
256,192,98456,1,8,0:0:0:0:
256,192,98643,1,0,0:0:0:0:
256,192,98831,1,8,0:0:0:0:
256,192,99581,1,4,0:0:0:0:
256,192,99768,12,0,101081,0:0:0:0:
