osu file format v14

[General]
AudioFilename: audio.mp3
AudioLeadIn: 0
PreviewTime: 62041
Countdown: 0
SampleSet: Soft
StackLeniency: 0.7
Mode: 0
LetterboxInBreaks: 0
EpilepsyWarning: 1
WidescreenStoryboard: 1

[Editor]
Bookmarks: 12583,24583,38083,50083,62083,75583,87583
DistanceSpacing: 1.2
BeatDivisor: 4
GridSize: 32
TimelineZoom: 2.599999

[Metadata]
Title:Torinokosareta Bijutsu (Arranged: HiZuMi)
TitleUnicode:取り残された美術 (Arranged:HiZuMi)
Artist:Yuuhei Satellite feat. senya
ArtistUnicode:幽閉サテライト feat. senya
Creator:Petal
Version:IOException's Hard
Source:東方妖々夢 ~ Perfect Cherry Blossom.
Tags:東方Project Touhou Japanese AF affirmation neoskylove nao tomori naotoshi lasse -tochi deadcode ioexception video game ZUN Team Shanghai Alice 遠野幻想物語 東方妖々夢より BEMANI×東方Project Ultimate MasterPieces
BeatmapID:2059098
BeatmapSetID:982006

[Difficulty]
HPDrainRate:5
CircleSize:3.8
OverallDifficulty:6.4
ApproachRate:8
SliderMultiplier:1.5
SliderTickRate:1

[Events]
//Background and Video events
0,0,"gb.jpg",0,0
//Break Periods
//Storyboard Layer 0 (Background)
//Storyboard Layer 1 (Fail)
//Storyboard Layer 2 (Pass)
//Storyboard Layer 3 (Foreground)
//Storyboard Layer 4 (Overlay)
//Storyboard Sound Samples

[TimingPoints]
541,375,4,2,1,50,1,0
6541,-100,4,2,1,65,0,0
12541,-100,4,2,1,70,0,0
23041,-100,4,2,7,70,0,0
24541,-100,4,2,8,70,0,0
24916,-100,4,2,9,70,0,0
25291,-100,4,2,8,70,0,0
25666,-100,4,2,10,70,0,0
26041,-111.111111111111,4,2,1,80,0,0
49291,-111.111111111111,4,2,7,80,0,0
50041,-100,4,2,1,80,0,0
52853,-100,4,2,4,80,0,0
53041,-100,4,2,1,80,0,0
55853,-100,4,2,7,80,0,0
56041,-100,4,2,1,80,0,0
56228,-100,4,2,6,80,0,0
56416,-100,4,2,1,80,0,0
56603,-100,4,2,4,80,0,0
56791,-100,4,2,1,80,0,0
56978,-100,4,2,3,80,0,0
57166,-100,4,2,1,80,0,0
61291,-100,4,2,7,80,0,0
62041,-100,4,2,9,80,0,0
62416,-100,4,2,8,80,0,0
62791,-100,4,2,10,80,0,0
63166,-100,4,2,9,80,0,0
63212,-100,4,2,1,80,0,0
63541,-90.9090909090909,4,2,2,90,0,0
63916,-90.9090909090909,4,2,1,90,0,1
74041,-90.9090909090909,4,2,1,90,0,0
74791,-90.9090909090909,4,2,7,90,0,0
75541,-90.9090909090909,4,2,2,90,0,1
75916,-90.9090909090909,4,2,1,90,0,1
84916,-66.6666666666667,4,2,1,90,0,1
85291,-90.9090909090909,4,2,1,90,0,1
85666,-66.6666666666667,4,2,1,90,0,1
86041,-90.9090909090909,4,2,1,90,0,1
87541,-90.9090909090909,4,2,1,80,0,0
87916,-100,4,2,1,80,0,0
96541,-100,4,2,1,80,0,0
96728,-100,4,2,7,80,0,0
97291,-100,4,2,1,80,0,0
97478,-100,4,2,7,80,0,0
98041,-100,4,2,1,80,0,0
98509,-100,4,2,7,80,0,0
98791,-100,4,2,1,80,0,0
99259,-100,4,2,7,80,0,0
99541,-166.666666666667,4,2,11,80,0,0
101041,-166.666666666667,4,2,1,50,0,0

[Colours]
Combo1 : 229,235,201
Combo2 : 254,149,124
Combo3 : 240,237,134
Combo4 : 155,191,224
Combo5 : 174,151,182
Combo6 : 195,59,59
Combo7 : 255,200,169
Combo8 : 137,216,233

[HitObjects]
488,270,541,6,0,P|445:311|333:281,1,150,2|2,0:0|0:0,0:0:0:0:
297,240,1103,1,2,0:0:0:0:
268,325,1291,2,0,P|225:366|113:336,1,150,2|2,0:0|0:0,0:0:0:0:
77,295,1853,1,2,0:0:0:0:
13,230,2041,6,0,P|11:191|23:143,1,75,2|2,0:0|0:0,0:0:0:0:
66,79,2416,1,2,0:0:0:0:
142,125,2603,1,2,0:0:0:0:
208,64,2791,1,2,0:0:0:0:
285,110,2978,2,0,L|278:152,2,25,2|2|2,0:0|0:0|0:0,0:0:0:0:
310,93,3166,2,0,L|384:90,1,75,2|2,0:0|0:0,0:0:0:0:
462,43,3541,5,2,0:0:0:0:
505,121,3728,1,2,0:0:0:0:
446,189,3916,2,0,P|452:233|455:290,1,75,2|2,0:0|0:0,0:0:0:0:
360,365,4291,5,2,0:0:0:0:
370,276,4478,1,2,0:0:0:0:
317,203,4666,2,0,P|323:159|326:102,1,75,2|2,0:0|0:0,0:0:0:0:
252,75,5041,5,2,0:0:0:0:
173,32,5228,1,2,0:0:0:0:
107,93,5416,1,2,0:0:0:0:
145,174,5603,1,2,0:0:0:0:
235,163,5790,1,2,0:0:0:0:
133,358,6541,6,0,L|29:352,1,75,6|2,0:0|0:0,0:0:0:0:
37,265,6916,2,0,L|111:269,1,75,2|2,0:0|0:0,0:0:0:0:
201,281,7291,2,0,P|228:234|334:216,1,150,2|2,0:0|0:0,0:0:0:0:
404,225,7853,1,2,0:0:0:0:
480,272,8041,6,0,B|507:307|507:307|501:399,2,112.5,4|2|2,1:0|0:0|0:0,0:0:0:0:
492,182,8791,2,0,L|508:95,1,75,2|0,0:0|0:0,0:0:0:0:
445,40,9166,1,2,0:0:0:0:
362,75,9353,5,2,0:0:0:0:
357,104,9446,1,0,0:0:0:0:
351,134,9541,2,0,L|174:147,1,150,6|8,1:2|0:0,0:0:0:0:
218,324,10291,2,0,L|367:313,1,150,4|8,1:2|0:0,0:0:0:0:
206,231,11041,6,0,P|142:251|120:286,1,75,6|0,1:2|0:0,0:0:0:0:
77,322,11416,2,0,P|13:302|-9:267,1,75,12|0,0:0|0:0,0:0:0:0:
23,208,11791,2,0,L|12:119,1,75,4|2,1:2|0:0,0:0:0:0:
68,41,12166,2,0,L|73:-6,3,37.5,10|2|2|2,0:0|0:0|0:0|0:0,0:0:0:0:
53,63,12541,6,0,P|103:60|151:77,1,75,6|0,1:2|0:0,0:0:0:0:
152,152,12916,2,0,P|202:155|250:138,1,75,8|2,0:0|0:0,0:0:0:0:
285,81,13291,1,8,3:0:0:0:
396,92,13478,2,0,L|390:135,2,25,2|2|2,0:0|0:0|0:0,0:0:0:0:
393,66,13666,2,0,B|428:53|428:53|476:62,1,75,10|2,0:0|0:0,0:0:0:0:
496,155,14041,6,0,L|494:230,1,75,4|2,3:0|0:0,0:0:0:0:
411,307,14416,2,0,L|409:232,1,75,8|2,0:0|0:0,0:0:0:0:
350,169,14791,6,0,B|312:137|262:146|262:146|276:180,1,112.5,6|0,1:2|0:0,0:0:0:0:
258,218,15166,2,0,B|220:250|170:241|170:241|184:207,1,112.5,12|0,0:0|0:0,0:0:0:0:
148,189,15541,6,0,P|110:197|68:204,1,75,4|0,3:0|0:0,0:0:0:0:
16,133,15916,2,0,L|4:53,1,75,8|0,0:0|0:0,0:0:0:0:
82,13,16291,1,8,3:0:0:0:
170,102,16478,2,0,L|150:125,2,25,2|2|2,0:0|0:0|0:0,0:0:0:0:
177,71,16666,2,0,P|216:89|261:87,1,75,10|2,0:0|0:0,0:0:0:0:
345,57,17041,6,0,L|430:43,1,75,4|2,3:0|0:0,0:0:0:0:
461,124,17416,2,0,L|386:136,1,75,8|2,0:0|0:0,0:0:0:0:
348,217,17791,2,0,L|361:274,3,37.5,4|4|4|4,0:3|0:3|0:3|0:3,0:0:0:0:
301,304,18166,2,0,L|288:361,3,37.5,8|8|8|8,0:3|3:0|3:0|3:0,0:0:0:0:
235,274,18541,6,0,P|177:279|140:301,1,75,6|2,1:2|0:0,0:0:0:0:
109,358,18916,2,0,P|51:353|14:331,1,75,10|2,0:0|0:0,0:0:0:0:
6,261,19291,1,8,3:0:0:0:
39,154,19478,2,0,L|31:116,2,25,2|2|2,0:0|0:0|0:0,0:0:0:0:
64,181,19666,2,0,L|150:171,1,75,10|2,0:0|0:0,0:0:0:0:
136,78,20041,6,0,P|133:35|147:8,1,75,4|2,3:0|0:0,0:0:0:0:
237,8,20416,2,0,P|252:41|248:78,1,75,8|2,0:0|0:0,0:0:0:0:
293,156,20791,6,0,B|296:144|296:144|345:124|399:170,1,112.5,6|0,1:2|0:0,0:0:0:0:
428,224,21166,2,0,B|425:212|425:212|376:192|322:238,1,112.5,12|0,0:0|0:0,0:0:0:0:
309,271,21541,6,0,L|318:368,1,75,4|0,3:0|0:0,0:0:0:0:
225,351,21916,2,0,L|218:276,1,75,8|0,0:0|0:0,0:0:0:0:
162,205,22291,6,0,L|171:108,1,75,8|2,3:0|0:0,0:0:0:0:
78,125,22666,2,0,L|71:199,1,75,8|2,0:0|0:0,0:0:0:0:
40,284,23041,6,0,L|112:277,3,37.5,2|0|2|0,0:0|1:0|0:0|1:0,0:0:0:0:
134,334,23416,2,0,L|206:341,3,37.5,10|0|2|0,0:0|1:0|0:0|1:0,0:0:0:0:
217,274,23791,2,0,L|289:267,3,37.5,2|0|2|0,0:0|1:0|0:0|1:0,0:0:0:0:
311,324,24166,2,0,L|383:331,3,37.5,10|0|2|0,0:0|1:0|0:0|1:0,0:0:0:0:
401,274,24541,5,14,0:0:0:0:
420,95,24916,5,12,0:0:0:0:
244,54,25291,5,12,0:0:0:0:
225,233,25666,5,14,0:0:0:0:
401,274,26041,6,0,P|358:275|255:337,1,134.999995880127,4|8,1:2|0:0,0:0:0:0:
218,370,26603,1,0,0:0:0:0:
197,291,26791,2,0,P|138:257|72:251,1,134.999995880127,8|8,3:0|0:0,0:0:0:0:
4,103,27541,6,0,P|47:102|150:40,1,134.999995880127,4|8,3:0|0:0,0:0:0:0:
187,11,28103,1,2,0:0:0:0:
208,86,28291,2,0,P|263:103|296:95,1,67.4999979400635,4|2,3:0|0:0,0:0:0:0:
331,46,28666,2,0,P|386:29|419:37,1,67.4999979400635,10|2,0:0|0:0,0:0:0:0:
467,66,29041,6,0,P|469:122|480:229,1,134.999995880127,4|8,3:0|0:0,0:0:0:0:
378,330,29791,2,0,P|384:262|387:195,1,134.999995880127,8|8,3:0|0:0,0:0:0:0:
326,141,30353,1,2,0:0:0:0:
246,156,30541,6,0,L|93:176,1,134.999995880127,4|8,3:0|0:0,0:0:0:0:
34,149,31103,1,0,0:0:0:0:
34,149,31197,1,0,0:0:0:0:
34,149,31291,2,0,L|23:108,3,33.7499989700318,4|4|4|4,0:3|0:3|0:3|0:3,0:0:0:0:
87,75,31666,2,0,L|98:34,3,33.7499989700318,8|8|8|8,0:0|0:3|0:3|0:3,0:0:0:0:
77,9,32041,6,0,P|149:23|232:35,1,134.999995880127,4|8,1:2|0:0,0:0:0:0:
362,87,32791,2,0,P|290:101|207:113,1,134.999995880127,8|8,3:0|0:0,0:0:0:0:
149,122,33353,1,0,0:0:0:0:
77,160,33541,6,0,P|76:197|63:258,1,67.4999979400635,4|0,3:0|0:0,0:0:0:0:
117,294,33916,1,8,0:0:0:0:
37,307,34103,1,2,0:0:0:0:
88,369,34291,2,0,L|175:380,1,67.4999979400635,8|0,3:0|0:0,0:0:0:0:
232,352,34666,2,0,L|319:363,1,67.4999979400635,8|0,0:0|0:0,0:0:0:0:
380,365,35041,6,0,P|392:311|368:207,1,134.999995880127,4|8,3:0|0:0,0:0:0:0:
310,192,35603,1,0,0:0:0:0:
239,150,35791,2,0,P|227:84|240:19,1,134.999995880127,8|8,3:0|0:0,0:0:0:0:
319,4,36353,1,2,0:0:0:0:
398,20,36541,6,0,L|483:32,1,67.4999979400635,4|4,3:0|3:0,0:0:0:0:
472,110,36916,2,0,L|405:100,1,67.4999979400635,8|2,0:0|0:0,0:0:0:0:
341,150,37291,2,0,L|328:205,3,33.7499989700318,4|0|4|0,3:0|0:0|3:0|0:0,0:0:0:0:
388,237,37666,2,0,L|401:292,3,33.7499989700318,8|0|8|0,0:0|0:0|3:0|0:0,0:0:0:0:
294,336,38228,6,0,L|206:318,1,67.4999979400635,6|8,1:2|0:0,0:0:0:0:
157,362,38603,1,0,0:0:0:0:
76,355,38791,2,0,P|43:318|67:220,1,134.999995880127,8|8,3:0|0:0,0:0:0:0:
131,228,39353,1,0,0:0:0:0:
156,150,39541,6,0,L|145:68,1,67.4999979400635,4|0,3:0|0:0,0:0:0:0:
73,5,39916,2,0,P|66:40|77:95,1,67.4999979400635,8|2,0:0|0:0,0:0:0:0:
146,47,40291,1,8,3:0:0:0:
224,27,40478,1,2,0:0:0:0:
224,27,40572,1,2,0:0:0:0:
224,27,40666,1,8,0:0:0:0:
295,64,40853,1,0,0:0:0:0:
284,144,41041,6,0,L|292:231,1,67.4999979400635,4|0,3:0|0:0,0:0:0:0:
367,235,41416,2,0,L|375:148,1,67.4999979400635,8|0,0:0|0:0,0:0:0:0:
420,101,41791,2,0,P|474:107|506:197,1,134.999995880127,8|8,3:0|0:0,0:0:0:0:
480,247,42353,1,0,0:0:0:0:
504,324,42541,6,0,L|427:339,1,67.4999979400635,4|0,3:0|0:0,0:0:0:0:
360,310,42916,1,8,0:0:0:0:
314,376,43103,1,2,0:0:0:0:
314,376,43197,1,2,0:0:0:0:
314,376,43291,2,0,L|272:378,3,33.7499989700318,4|4|4|4,0:3|0:3|0:3|0:3,0:0:0:0:
242,314,43666,2,0,L|200:312,3,33.7499989700318,8|8|8|8,0:3|0:3|0:3|0:3,0:0:0:0:
155,363,44041,6,0,L|82:372,1,67.4999979400635,6|0,1:2|0:0,0:0:0:0:
130,285,44416,2,0,L|57:294,1,67.4999979400635,8|0,0:0|0:0,0:0:0:0:
203,232,44791,2,0,L|276:241,1,67.4999979400635,8|0,3:0|0:0,0:0:0:0:
228,154,45166,2,0,L|301:163,1,67.4999979400635,8|0,0:0|0:0,0:0:0:0:
183,80,45541,6,0,P|142:74|69:143,1,134.999995880127,4|8,3:0|0:0,0:0:0:0:
57,208,46103,1,2,0:0:0:0:
43,288,46291,2,0,L|114:296,1,67.4999979400635,8|0,3:0|0:0,0:0:0:0:
125,312,46572,1,2,0:0:0:0:
139,328,46666,2,0,L|207:336,1,67.4999979400635,8|0,0:0|0:0,0:0:0:0:
285,353,47041,6,0,P|288:304|280:262,1,67.4999979400635,4|0,3:0|0:0,0:0:0:0:
231,225,47416,1,8,0:0:0:0:
310,213,47603,1,0,0:0:0:0:
390,200,47791,2,0,P|387:151|395:109,1,67.4999979400635,8|0,3:0|0:0,0:0:0:0:
419,57,48166,1,10,0:0:0:0:
340,69,48353,1,2,0:0:0:0:
260,82,48541,6,0,P|263:131|255:173,1,67.4999979400635,8|4,3:0|3:0,0:0:0:0:
173,90,48916,2,0,P|176:139|168:181,1,67.4999979400635,8|4,0:0|3:0,0:0:0:0:
131,226,49291,6,0,P|128:275|136:317,1,67.4999979400635,2|2,0:0|0:0,0:0:0:0:
218,234,49666,2,0,P|215:283|223:325,1,67.4999979400635,10|2,0:0|0:0,0:0:0:0:
294,347,50041,5,6,0:0:0:0:
343,272,50228,1,0,1:0:0:0:
430,295,50416,1,8,0:0:0:0:
462,211,50603,2,0,L|505:200,2,37.5,2|0|4,0:0|0:0|3:0,0:0:0:0:
378,176,50978,1,0,0:0:0:0:
308,118,51166,2,0,P|287:68|289:28,1,75,8|0,0:0|0:0,0:0:0:0:
206,6,51541,6,0,L|77:25,2,112.5,4|4|4,1:2|1:2|0:0,0:0:0:0:
185,184,52478,1,4,1:2:0:0:
165,95,52666,1,4,3:0:0:0:
75,106,52853,5,10,0:0:0:0:
57,107,52946,1,10,0:0:0:0:
38,109,53041,2,0,P|8:157|8:197,1,75,4|2,1:2|0:0,0:0:0:0:
54,250,53416,1,8,0:0:0:0:
107,321,53603,2,0,L|108:384,2,37.5,2|0|4,0:0|0:0|3:0,0:0:0:0:
180,268,53978,1,0,0:0:0:0:
260,226,54166,2,0,P|307:207|351:207,1,75,8|0,0:0|0:0,0:0:0:0:
435,288,54541,6,0,L|305:290,2,112.5,4|4|4,1:2|1:2|1:2,0:0:0:0:
401,111,55478,1,4,1:2:0:0:
386,200,55666,1,4,3:0:0:0:
473,180,55853,5,0,1:0:0:0:
489,171,55946,1,0,1:0:0:0:
506,162,56041,2,0,P|513:105|497:69,1,75,0|10,1:0|0:1,0:0:0:0:
450,331,56603,5,10,0:0:0:0:
467,327,56696,1,10,0:0:0:0:
486,324,56791,2,0,P|510:273|506:233,1,75,2|10,0:0|0:1,0:0:0:0:
352,170,57353,5,8,0:0:0:0:
335,174,57446,1,8,0:0:0:0:
316,177,57541,2,0,P|291:227|295:267,1,75,4|4,1:2|0:3,0:0:0:0:
223,325,57916,2,0,P|217:288|197:256,1,75,4|4,0:3|0:3,0:0:0:0:
131,195,58291,1,2,0:0:0:0:
60,250,58478,2,0,L|58:274,3,25,2|2|2|8,0:0|0:0|0:0|0:0,0:0:0:0:
2,178,58853,1,8,0:0:0:0:
75,113,59041,5,4,1:2:0:0:
227,17,59416,2,0,L|310:27,1,75,8|0,0:0|0:0,0:0:0:0:
389,44,59791,1,4,1:2:0:0:
332,214,60166,2,0,L|415:204,1,75,8|0,0:0|0:0,0:0:0:0:
496,196,60541,6,0,L|490:291,1,75,0|0,1:0|1:0,0:0:0:0:
415,364,60916,2,0,L|409:269,1,75,0|0,1:0|1:0,0:0:0:0:
320,298,61291,6,0,L|274:306,3,37.5,2|0|2|0,0:0|1:0|0:0|1:0,0:0:0:0:
231,245,61666,2,0,L|185:237,3,37.5,2|0|2|0,0:0|1:0|0:0|1:0,0:0:0:0:
137,289,62041,5,14,0:0:0:0:
140,109,62416,5,14,0:0:0:0:
318,84,62791,5,14,0:0:0:0:
315,264,63166,5,14,0:0:0:0:
137,289,63541,6,0,P|62:286|-3:370,1,165.000005035401,14|8,0:0|0:0,0:0:0:0:
97,374,64103,1,2,0:0:0:0:
196,371,64291,2,0,L|291:353,1,82.5000025177003,2|2,1:2|0:0,0:0:0:0:
320,266,64666,1,10,0:0:0:0:
386,338,64853,1,2,0:0:0:0:
458,270,65041,6,0,P|471:223|457:166,1,82.5000025177003,0|2,1:0|0:0,0:0:0:0:
400,116,65416,2,0,L|282:106,1,82.5000025177003,8|2,0:0|0:0,0:0:0:0:
229,63,65791,1,0,1:0:0:0:
196,162,65978,2,0,L|211:199,2,27.5000008392334,2|2|2,0:0|0:0|0:0,0:0:0:0:
171,143,66166,2,0,B|130:146|130:146|90:177,1,82.5000025177003,10|2,0:0|0:0,0:0:0:0:
0,182,66541,6,0,L|11:94,1,82.5000025177003,0|0,1:0|0:0,0:0:0:0:
23,4,66916,1,8,0:0:0:0:
121,13,67103,1,2,0:0:0:0:
219,27,67291,2,0,P|271:27|321:16,1,82.5000025177003,0|2,1:0|0:0,0:0:0:0:
268,115,67666,1,8,0:0:0:0:
365,98,67853,5,2,0:0:0:0:
385,95,67946,1,2,0:0:0:0:
405,92,68041,2,0,P|457:92|507:103,1,82.5000025177003,0|2,1:0|0:0,0:0:0:0:
493,196,68416,2,0,P|493:248|482:298,1,82.5000025177003,8|2,0:0|0:0,0:0:0:0:
421,351,68791,1,0,1:0:0:0:
363,270,68978,1,2,0:0:0:0:
353,251,69071,1,8,0:0:0:0:
344,233,69166,2,0,L|271:228,3,41.2500012588501,8|8|8|8,0:0|0:0|0:0|0:0,0:0:0:0:
269,193,69541,6,0,L|180:206,1,82.5000025177003,4|2,1:2|0:0,0:0:0:0:
144,294,69916,2,0,L|55:281,1,82.5000025177003,8|2,0:0|0:0,0:0:0:0:
20,192,70291,2,0,L|11:10,1,165.000005035401,0|8,1:0|0:0,0:0:0:0:
107,1,70853,1,2,0:0:0:0:
151,89,71041,2,0,P|183:62|245:49,1,82.5000025177003,0|0,1:0|0:0,0:0:0:0:
266,69,71322,2,0,L|406:82,1,123.75000377655,2|0,0:0|0:0,0:0:0:0:
467,19,71791,1,0,1:0:0:0:
485,116,71978,1,2,0:0:0:0:
488,137,72071,1,2,0:0:0:0:
491,157,72166,2,0,L|474:241,1,82.5000025177003,10|2,0:0|0:0,0:0:0:0:
459,335,72541,6,0,P|412:297|288:279,1,165.000005035401,0|8,1:0|0:0,0:0:0:0:
124,341,73291,2,0,L|271:355,2,123.75000377655,4|4|12,1:2|1:2|0:0,0:0:0:0:
38,291,74041,6,0,L|24:194,1,82.5000025177003,0|0,1:0|1:0,0:0:0:0:
125,218,74416,2,0,L|111:121,1,82.5000025177003,0|0,1:0|1:0,0:0:0:0:
198,63,74791,6,0,L|190:120,3,41.2500012588501,2|0|2|0,0:0|1:0|0:0|1:0,0:0:0:0:
262,128,75166,2,0,L|254:185,3,41.2500012588501,6|4|6|4,0:0|1:0|0:0|1:0,0:0:0:0:
320,75,75541,6,0,P|376:58|477:113,1,165.000005035401,14|8,0:0|0:0,0:0:0:0:
441,196,76103,1,2,0:0:0:0:
486,284,76291,2,0,B|504:323|504:323|497:371,1,82.5000025177003,2|2,1:2|0:0,0:0:0:0:
401,339,76666,1,10,0:0:0:0:
307,308,76853,1,2,0:0:0:0:
211,333,77041,6,0,L|106:361,1,82.5000025177003,0|2,1:0|0:0,0:0:0:0:
76,271,77416,2,0,L|155:249,1,82.5000025177003,8|2,0:0|0:0,0:0:0:0:
205,163,77791,1,0,1:0:0:0:
272,261,77978,2,0,L|267:296,2,27.5000008392334,2|2|2,0:0|0:0|0:0,0:0:0:0:
271,232,78166,2,0,L|360:241,1,82.5000025177003,10|2,0:0|0:0,0:0:0:0:
448,255,78541,6,0,P|463:206|441:149,1,82.5000025177003,0|2,1:0|0:0,0:0:0:0:
448,77,78916,1,8,0:0:0:0:
359,120,79103,1,2,0:0:0:0:
281,58,79291,2,0,L|188:50,1,82.5000025177003,0|2,1:0|0:0,0:0:0:0:
231,144,79666,1,10,0:0:0:0:
132,153,79853,5,2,0:0:0:0:
111,154,79946,1,2,0:0:0:0:
90,156,80041,2,0,L|-3:164,1,82.5000025177003,0|2,1:0|0:0,0:0:0:0:
20,261,80416,2,0,L|28:354,1,82.5000025177003,8|2,0:0|0:0,0:0:0:0:
119,378,80791,1,0,1:0:0:0:
196,316,80978,1,2,0:0:0:0:
216,319,81071,1,2,0:0:0:0:
237,323,81166,2,0,L|309:312,3,41.2500012588501,8|8|8|8,0:0|0:0|0:0|0:0,0:0:0:0:
322,338,81541,6,0,P|327:271|335:231,1,82.5000025177003,4|2,1:2|0:0,0:0:0:0:
420,215,81916,2,0,P|415:148|407:108,1,82.5000025177003,8|2,0:0|0:0,0:0:0:0:
359,49,82291,1,0,1:0:0:0:
293,122,82478,1,2,0:0:0:0:
237,39,82666,2,0,L|147:43,1,82.5000025177003,8|2,0:0|0:0,0:0:0:0:
62,78,83041,6,0,B|53:118|53:118|77:178,1,82.5000025177003,4|0,1:2|0:0,0:0:0:0:
86,202,83322,2,0,P|149:176|228:217,1,123.75000377655,4|12,1:2|0:0,0:0:0:0:
283,244,83791,2,0,B|292:284|292:284|268:344,1,82.5000025177003,4|0,1:2|0:0,0:0:0:0:
190,371,84166,1,8,0:0:0:0:
174,273,84353,1,0,1:0:0:0:
96,335,84541,6,0,L|1:328,1,82.5000025177003,0|0,1:0|0:0,0:0:0:0:
13,328,84916,6,0,L|1:181,1,112.500004291535,12|0,0:0|0:0,0:0:0:0:
103,209,85291,6,0,L|198:202,1,82.5000025177003,0|0,1:0|0:0,0:0:0:0:
185,203,85666,6,0,L|197:55,1,112.500004291535,12|0,0:0|0:0,0:0:0:0:
266,22,86041,5,0,1:0:0:0:
319,105,86228,1,0,1:0:0:0:
412,70,86416,2,0,P|434:113|432:178,1,82.5000025177003,4|0,1:2|1:0,0:0:0:0:
365,214,86791,2,0,L|361:274,3,41.2500012588501,8|8|8|8,3:0|3:0|3:0|3:0,0:0:0:0:
375,330,87166,2,0,L|315:326,3,41.2500012588501,4|4|4|4,0:3|0:3|0:3|0:3,0:0:0:0:
278,379,87541,6,0,P|225:335|185:335,1,82.5000025177003,4|2,1:2|0:0,0:0:0:0:
131,370,87916,1,8,0:0:0:0:
51,328,88103,1,2,0:0:0:0:
66,239,88291,2,0,L|79:160,1,75,0|0,1:0|0:0,0:0:0:0:
114,137,88572,2,0,L|102:11,1,112.5,2|2,0:0|0:0,0:0:0:0:
193,19,89041,6,0,P|254:9|337:73,1,150,0|8,1:0|0:0,0:0:0:0:
348,140,89603,1,2,0:0:0:0:
437,129,89791,2,0,L|541:118,1,75,0|0,1:0|0:0,0:0:0:0:
476,204,90166,2,0,L|470:267,3,37.5,8|0|2|0,0:0|0:0|0:0|0:0,0:0:0:0:
486,284,90541,6,0,P|418:280|335:334,1,150,4|8,1:2|0:0,0:0:0:0:
278,375,91103,1,2,0:0:0:0:
215,310,91291,2,0,B|203:275|203:275|208:222,1,75,0|2,1:0|0:0,0:0:0:0:
219,204,91541,2,0,L|252:199,2,25,2|2|10,0:0|0:0|0:0,0:0:0:0:
127,180,91853,1,2,0:0:0:0:
34,207,92041,6,0,P|21:167|31:129,1,75,0|0,1:0|0:0,0:0:0:0:
36,91,92322,2,0,P|86:99|146:42,1,112.5,2|0,0:0|0:0,0:0:0:0:
210,16,92791,2,0,L|263:9,3,37.5,8|8|8|8,0:3|0:3|0:3|0:3,0:0:0:0:
299,66,93166,2,0,L|352:73,3,37.5,4|4|4|4,0:3|0:3|0:3|0:3,0:0:0:0:
384,42,93541,6,0,P|376:109|382:221,1,150,4|8,1:2|0:0,0:0:0:0:
420,270,94103,1,2,0:0:0:0:
383,352,94291,2,0,L|280:341,1,75,0|0,1:0|0:0,0:0:0:0:
274,314,94572,2,0,L|136:329,1,112.5,2|2,0:0|0:0,0:0:0:0:
79,362,95041,6,0,P|48:328|83:219,1,150,0|8,1:0|0:0,0:0:0:0:
145,194,95603,1,2,0:0:0:0:
142,171,95696,1,2,0:0:0:0:
140,149,95791,2,0,L|149:53,1,75,4|0,1:2|1:0,0:0:0:0:
229,36,96166,2,0,L|282:26,3,37.5,8|2|0|2,0:0|0:0|1:0|0:0,0:0:0:0:
310,37,96541,6,0,L|323:136,1,75,4|0,1:2|0:0,0:0:0:0:
258,177,96916,1,8,0:0:0:0:
256,195,97009,1,0,1:0:0:0:
254,214,97103,1,0,1:0:0:0:
343,206,97291,6,0,L|356:305,1,75,6|0,0:0|0:0,0:0:0:0:
291,346,97666,1,8,0:0:0:0:
289,364,97759,1,0,1:0:0:0:
287,383,97853,1,0,1:0:0:0:
374,362,98041,5,4,1:2:0:0:
462,345,98228,1,0,1:0:0:0:
481,256,98416,1,8,0:0:0:0:
483,240,98509,2,0,L|492:157,1,75,0|0,1:0|1:0,0:0:0:0:
494,148,98791,5,4,1:2:0:0:
424,81,98978,1,0,1:0:0:0:
334,89,99166,1,8,0:0:0:0:
323,98,99259,2,0,L|224:85,1,75,0|0,1:0|1:0,0:0:0:0:
221,90,99541,6,2,B|145:119|180:229|274:190|274:190|262:228|262:228|335:226|340:317,1,359.999989013672,14|0,0:0|1:0,1:0:0:0:
