osu file format v14

[General]
AudioFilename: nokosareta.mp3
AudioLeadIn: 0
PreviewTime: 62091
Countdown: 0
SampleSet: Soft
StackLeniency: 0.7
Mode: 0
LetterboxInBreaks: 0
WidescreenStoryboard: 0

[Editor]
DistanceSpacing: 0.8
BeatDivisor: 4
GridSize: 4
TimelineZoom: 1

[Metadata]
Title:Torinokosareta Bijutsu (Arranged: HiZuMi)
TitleUnicode:取り残された美術 (Arranged:HiZuMi)
Artist:Yuuhei Satellite feat. senya
ArtistUnicode:幽閉サテライト feat. senya
Creator:Dailycare
Version:Normal
Source:東方妖々夢 ~ Perfect Cherry Blossom.
Tags:Cellina Reana Touhou Chen かませ虎 kamase-tora HiZuMi 遠野幻想物語 BEMANI × 東方Project Ultimate Masterpieces
BeatmapID:1032304
BeatmapSetID:483527

[Difficulty]
HPDrainRate:3.5
CircleSize:3.5
OverallDifficulty:4
ApproachRate:5.3
SliderMultiplier:1.29
SliderTickRate:1

[Events]
//Background and Video events
0,0,"bg.jpg",0,0
//Break Periods
//Storyboard Layer 0 (Background)
//Storyboard Layer 1 (Fail)
//Storyboard Layer 2 (Pass)
//Storyboard Layer 3 (Foreground)
//Storyboard Sound Samples

[TimingPoints]
591,375,4,2,1,50,1,0
6591,-100,4,2,1,65,0,0
12591,-100,4,2,1,70,0,0
24591,-100,4,2,1,75,0,0
24966,-100,4,2,1,50,0,0
25341,-100,4,2,1,70,0,0
25716,-100,4,2,1,85,0,0
26091,-100,4,2,1,70,0,0
51591,-100,4,2,1,80,0,0
52341,-100,4,2,1,50,0,0
52528,-100,4,2,1,70,0,0
54591,-100,4,2,1,80,0,0
55341,-100,4,2,1,50,0,0
55528,-100,4,2,1,70,0,0
56091,-100,4,2,1,90,0,0
56466,-100,4,2,1,70,0,0
56841,-100,4,2,1,80,0,0
57216,-100,4,2,1,70,0,0
62091,-100,4,2,1,75,0,0
62466,-100,4,2,1,55,0,0
62841,-100,4,2,1,70,0,0
63216,-100,4,2,1,85,0,0
63591,-100,4,2,1,80,0,1
73341,-100,4,2,1,90,0,1
74091,-100,4,2,1,80,0,1
83091,-100,4,2,1,90,0,1
83841,-100,4,2,1,80,0,1
87591,-100,4,2,1,80,0,0
99684,-100,4,2,1,20,0,0

[Colours]
Combo1 : 149,239,143
Combo2 : 240,183,77
Combo3 : 252,135,202
Combo4 : 216,191,129

[HitObjects]
354,320,591,6,0,B|298:260|336:189|336:189|401:165,1,193.5,2|0,0:0|0:0,0:0:0:0:
430,194,1341,2,0,B|477:176|477:176|515:101|459:45,1,193.5,2|0,0:0|0:0,0:0:0:0:
412,24,2091,1,2,0:0:0:0:
329,85,2466,2,0,P|297:81|264:73,1,64.5,2|2,0:0|0:0,0:0:0:0:
217,55,2841,2,0,P|226:124|233:202,1,129,2|2,0:0|0:0,0:0:0:0:
223,233,3403,1,2,0:0:0:0:
223,233,3591,6,0,P|191:225|159:221,1,64.5,2|0,0:0|0:0,0:0:0:0:
111,239,3966,2,0,P|78:235|47:227,1,64.5,2|2,0:0|0:0,0:0:0:0:
11,191,4341,2,0,P|57:151|57:68,1,129,2|2,0:0|0:0,0:0:0:0:
143,20,5091,1,2,0:0:0:0:
215,93,5466,2,0,P|207:141|203:161,2,64.5,2|2|2,0:0|0:0|0:0,0:0:0:0:
307,46,6216,1,2,0:0:0:0:
353,138,6591,5,4,1:3:0:0:
353,138,8091,1,4,1:3:0:0:
353,138,9591,6,0,P|388:257|307:357,1,258,4|4,1:3|1:3,0:0:0:0:
107,333,11091,2,0,P|97:269|144:216,1,129,4|4,1:3|0:3,0:0:0:0:
229,260,11841,2,0,P|239:196|198:140,1,129,4|4,0:3|0:3,0:0:0:0:
108,108,12591,5,4,0:0:0:0:
33,177,12966,2,0,P|33:216|25:254,1,64.5,8|0,0:0|0:0,0:0:0:0:
12,287,13341,2,0,P|68:255|147:274,1,129,0|8,0:0|0:0,0:0:0:0:
186,349,14091,2,0,P|242:381|321:362,1,129,0|8,0:0|0:0,0:0:0:0:
392,320,14841,2,0,L|384:165,1,129,8|8,0:0|0:0,0:0:0:0:
452,112,15591,5,4,0:0:0:0:
373,44,15966,2,0,P|332:52|303:61,1,64.5,8|0,0:0|0:0,0:0:0:0:
260,43,16341,2,0,P|282:93|244:178,1,129,0|8,0:0|0:0,0:0:0:0:
178,223,17091,2,0,P|156:173|194:88,1,129,0|8,0:0|0:0,0:0:0:0:
181,53,17653,1,0,0:0:0:0:
181,53,17841,2,0,P|118:43|25:37,1,129,4|10,0:3|3:2,0:0:0:0:
4,128,18591,5,4,0:0:0:0:
47,221,18966,2,0,P|93:215|118:209,1,64.5,8|0,0:0|0:0,0:0:0:0:
156,187,19341,2,0,P|136:232|164:328,1,129,0|8,0:0|0:0,0:0:0:0:
234,366,20091,2,0,P|293:330|376:339,1,129,0|8,0:0|0:0,0:0:0:0:
452,307,20841,2,0,P|463:216|469:162,1,129,8|8,0:0|0:0,0:0:0:0:
425,84,21591,5,4,0:0:0:0:
340,143,21966,2,0,P|297:150|267:151,1,64.5,8|0,0:0|0:0,0:0:0:0:
231,177,22341,2,0,P|259:120|236:43,1,129,0|8,0:0|0:0,0:0:0:0:
154,11,23091,1,4,0:3:0:0:
131,111,23466,2,0,P|84:144|13:136,2,129,8|4|8,0:0|0:3|0:0,0:0:0:0:
154,11,24591,6,0,P|219:16|301:25,1,129,4|4,1:0|0:1,0:0:0:0:
346,135,25341,2,0,P|281:130|217:123,1,129,4|4,0:1|0:1,0:0:0:0:
100,176,26091,6,0,P|90:242|140:297,2,129,4|8|0,3:2|0:0|3:0,0:0:0:0:
192,130,27216,1,8,0:0:0:0:
124,51,27591,2,0,P|180:24|258:49,1,129,0|8,3:0|0:0,0:0:0:0:
275,75,28153,1,0,0:0:0:0:
275,75,28341,2,0,B|359:90|359:90|404:66,1,129,0|8,3:0|0:0,0:0:0:0:
497,96,29091,6,0,P|500:142|479:239,2,129,0|8|0,3:0|0:0|3:0,0:0:0:0:
397,69,30216,1,8,0:0:0:0:
328,145,30591,1,0,3:0:0:0:
393,224,30966,2,0,P|389:262|384:294,1,64.5,8|0,0:0|0:0,0:0:0:0:
405,335,31341,2,0,P|364:303|279:316,1,129,4|10,3:0|0:0,0:0:0:0:
256,347,31903,1,2,0:0:0:0:
256,347,32091,6,0,P|186:358|112:375,2,129,4|8|0,3:2|0:0|3:0,0:0:0:0:
227,247,33216,1,8,0:0:0:0:
322,208,33591,2,0,P|327:172|334:78,1,129,0|8,3:0|0:0,0:0:0:0:
357,34,34153,1,0,0:0:0:0:
357,34,34341,2,0,P|299:72|234:62,1,129,0|8,3:0|0:0,0:0:0:0:
152,117,35091,6,0,B|70:100|70:100|27:129,2,129,0|8|0,3:0|0:0|3:0,0:0:0:0:
214,199,36216,2,0,P|258:190|280:180,1,64.5,8|0,0:0|0:0,0:0:0:0:
318,153,36591,2,0,L|308:301,1,129,0|8,1:0|3:2,0:0:0:0:
327,329,37153,1,0,3:0:0:0:
327,329,37341,2,0,P|366:361|459:338,1,129,4|6,3:0|3:0,0:0:0:0:
480,321,37903,1,0,3:0:0:0:
402,252,38278,6,0,P|397:217|394:169,1,64.5,4|12,0:0|0:0,0:0:0:0:
474,121,38841,1,0,3:0:0:0:
405,43,39216,1,8,0:0:0:0:
327,110,39591,2,0,P|286:125|181:149,1,129,0|8,3:0|0:0,0:0:0:0:
152,154,40153,1,0,0:0:0:0:
152,154,40341,2,0,B|166:74|166:74|125:20,1,129,0|8,3:0|0:0,0:0:0:0:
38,68,41091,6,0,P|10:126|21:205,2,129,0|8|0,3:0|0:0|3:0,0:0:0:0:
137,35,42216,1,8,0:0:0:0:
213,104,42591,1,0,3:0:0:0:
311,74,42966,2,0,P|313:113|307:145,1,64.5,8|0,0:0|0:0,0:0:0:0:
331,184,43341,2,0,P|291:224|287:303,1,129,4|10,3:0|0:0,0:0:0:0:
305,340,43903,1,2,0:0:0:0:
305,340,44091,6,0,P|353:367|445:343,2,129,4|8|0,3:2|0:0|3:0,0:0:0:0:
241,258,45216,1,8,0:0:0:0:
160,322,45591,2,0,B|79:336|79:336|36:309,1,129,0|8,3:0|0:0,0:0:0:0:
3,274,46153,1,0,0:0:0:0:
3,274,46341,2,0,P|41:229|46:157,1,129,0|8,3:0|0:0,0:0:0:0:
129,98,47091,6,0,P|79:58|16:60,2,129,0|8|0,3:0|0:0|3:0,0:0:0:0:
232,104,48216,2,0,P|218:147|208:170,1,64.5,8|0,0:0|0:0,0:0:0:0:
171,198,48591,2,0,P|230:193|299:256,1,129,0|8,1:0|3:2,0:0:0:0:
303,279,49153,1,0,3:0:0:0:
303,279,49341,2,0,L|455:263,1,129,6|10,3:0|0:3,0:0:0:0:
481,278,49903,1,10,0:3:0:0:
481,278,50091,6,0,P|509:223|481:143,1,129,12|8,1:2|0:0,0:0:0:0:
459,62,50841,2,0,P|426:62|397:75,1,64.5,0|0,3:0|0:0,0:0:0:0:
365,116,51216,2,0,L|292:107,1,64.5,8|0,0:0|0:0,0:0:0:0:
270,149,51591,6,0,P|268:209|262:269,2,96.75,4|4|4,1:2|1:2|1:2,0:0:0:0:
174,187,52528,2,0,B|94:193|128:149|35:159,1,129,4|0,1:2|0:0,0:0:0:0:
4,178,53091,6,0,P|28:125|6:45,1,129,0|8,1:0|0:0,0:0:0:0:
106,10,53841,2,0,P|163:20|196:31,1,64.5,0|0,3:0|0:0,0:0:0:0:
194,66,54216,2,0,L|275:58,1,64.5,8|0,0:0|0:0,0:0:0:0:
300,29,54591,6,0,L|292:148,2,96.75,0|0|0,1:0|1:0|1:0,0:0:0:0:
380,93,55528,2,0,P|420:101|455:101,1,64.5,0|8,1:0|0:3,0:0:0:0:
493,87,55903,1,4,0:3:0:0:
493,87,56091,6,0,B|485:181|485:181|466:207|466:207|482:237|482:237|474:360,1,258,4|4,1:2|1:2,0:0:0:0:
272,297,57591,2,0,P|243:231|263:174,2,129,4|8|0,1:2|3:2|3:0,0:0:0:0:
294,343,58528,1,2,3:0:0:0:
294,343,58716,2,0,P|338:329|381:329,1,64.5,8|4,3:0|3:0,0:0:0:0:
400,298,59091,6,0,B|421:221|421:221|390:160,1,129,4|8,3:2|0:0,0:0:0:0:
346,87,59841,2,0,P|268:92|191:101,1,129,4|8,3:2|0:0,0:0:0:0:
122,58,60591,2,0,B|101:135|101:135|132:196,1,129,4|8,1:2|3:2,0:0:0:0:
150,222,61153,1,0,0:0:0:0:
150,222,61341,2,0,P|113:212|61:211,1,64.5,4|4,1:3|0:3,0:0:0:0:
35,212,61716,2,0,P|48:250|57:286,1,64.5,8|4,3:2|0:3,0:0:0:0:
51,325,62091,6,0,P|82:365|178:360,1,129,4|4,1:0|0:1,0:0:0:0:
257,295,62841,2,0,P|226:255|130:260,1,129,4|4,0:1|0:1,0:0:0:0:
37,192,63591,6,0,B|10:115|10:115|30:72,1,129,6|8,3:2|0:0,0:0:0:0:
56,27,64153,1,0,0:0:0:0:
56,27,64341,2,0,P|93:59|181:52,1,129,0|8,3:0|0:0,0:0:0:0:
211,28,64903,1,0,0:0:0:0:
211,28,65091,2,0,P|226:71|232:101,1,64.5,0|0,3:0|0:0,0:0:0:0:
226,141,65466,2,0,P|255:153|287:154,1,64.5,8|0,0:0|0:0,0:0:0:0:
339,148,65841,1,0,3:0:0:0:
331,45,66216,2,0,P|368:48|400:64,1,64.5,8|0,0:0|0:0,0:0:0:0:
444,52,66591,6,0,P|435:125|421:204,1,129,0|8,3:0|0:0,0:0:0:0:
459,218,67153,1,0,0:0:0:0:
459,218,67341,2,0,P|395:207|327:262,1,129,0|8,3:0|0:0,0:0:0:0:
341,341,68091,2,0,P|314:338|268:335,1,64.5,0|0,3:0|0:0,0:0:0:0:
228,353,68466,2,0,P|217:317|218:275,1,64.5,8|0,3:2|3:0,0:0:0:0:
236,243,68841,2,0,P|153:254|93:266,1,129,4|8,0:3|0:0,0:0:0:0:
5,258,69591,6,0,P|12:205|12:178,1,64.5,4|0,3:2|0:0,0:0:0:0:
6,142,69966,2,0,P|-1:89|-1:62,1,64.5,8|0,0:0|0:0,0:0:0:0:
22,32,70341,2,0,P|86:21|143:59,1,129,0|8,3:0|0:0,0:0:0:0:
204,131,71091,2,0,P|245:123|310:114,2,96.75,0|2|2,3:0|0:0|0:0,0:0:0:0:
166,166,71841,1,0,3:0:0:0:
147,267,72216,2,0,L|219:289,1,64.5,8|0,0:0|0:0,0:0:0:0:
256,295,72591,6,0,P|287:248|274:154,1,129,0|8,3:0|0:0,0:0:0:0:
272,74,73341,2,0,P|232:80|194:150,2,96.75,4|4|4,1:2|1:2|1:2,0:0:0:0:
302,31,74091,2,0,B|386:38|386:38|425:90,1,129,4|8,3:0|0:0,0:0:0:0:
500,128,74841,2,0,L|493:201,1,64.5,6|4,3:0|0:3,0:0:0:0:
449,219,75216,2,0,L|442:292,1,64.5,8|8,0:0|0:0,0:0:0:0:
453,335,75591,6,0,P|411:303|323:311,1,129,6|8,3:2|0:0,0:0:0:0:
285,300,76153,1,0,0:0:0:0:
285,300,76341,2,0,P|243:332|155:324,1,129,0|8,3:0|0:0,0:0:0:0:
121,349,76903,1,0,0:0:0:0:
121,349,77091,2,0,P|109:297|107:257,1,64.5,0|0,3:0|0:0,0:0:0:0:
59,267,77466,2,0,L|73:175,1,64.5,8|0,0:0|0:0,0:0:0:0:
107,168,77841,1,0,3:0:0:0:
191,227,78216,2,0,P|226:219|259:214,1,64.5,8|0,0:0|0:0,0:0:0:0:
302,233,78591,6,0,P|342:180|326:106,1,129,0|8,3:0|0:0,0:0:0:0:
357,74,79153,1,0,0:0:0:0:
357,74,79341,2,0,P|306:66|215:52,1,129,0|8,3:0|0:0,0:0:0:0:
129,76,80091,2,0,L|53:66,1,64.5,0|0,3:0|0:0,0:0:0:0:
13,60,80466,2,0,P|12:92|23:122,1,64.5,8|0,3:2|3:0,0:0:0:0:
19,174,80841,2,0,P|103:187|162:194,1,129,4|8,0:3|0:0,0:0:0:0:
237,242,81591,6,0,P|247:211|247:179,1,64.5,4|0,3:2|0:0,0:0:0:0:
218,136,81966,2,0,L|299:127,1,64.5,8|0,0:0|0:0,0:0:0:0:
325,100,82341,2,0,B|338:194|338:194|373:223,1,129,0|8,3:0|0:0,0:0:0:0:
440,285,83091,2,0,P|442:232|451:178,2,96.75,4|4|4,1:2|1:2|1:2,0:0:0:0:
398,316,83841,2,0,P|340:325|254:343,1,129,4|8,3:2|0:0,0:0:0:0:
233,325,84403,1,0,3:0:0:0:
233,325,84591,5,0,3:0:0:0:
180,236,84966,1,8,0:0:0:0:
269,184,85341,1,0,3:0:0:0:
322,272,85716,1,8,0:0:0:0:
233,325,86091,5,0,3:0:0:0:
180,236,86466,1,8,3:2:0:0:
84,292,86841,1,6,3:0:0:0:
23,208,87216,1,8,0:0:0:0:
109,151,87591,6,0,P|119:109|120:59,2,64.5,4|0|8,0:0|0:0|0:0,0:0:0:0:
204,191,88341,2,0,P|219:139|223:79,2,96.75,2|2|2,1:3|0:3|0:3,0:0:0:0:
175,234,89091,2,0,P|225:219|305:277,1,129,0|8,1:0|0:0,0:0:0:0:
312,298,89653,1,0,0:0:0:0:
341,340,89841,2,0,P|395:371|457:357,1,129,4|8,1:3|0:0,0:0:0:0:
412,263,90591,6,0,B|369:236|369:236|306:243,2,96.75,2|2|2,1:3|0:3|0:3,0:0:0:0:
455,291,91341,2,0,P|464:238|467:213,1,64.5,0|2,1:0|0:3,0:0:0:0:
446,179,91716,2,0,P|437:126|434:101,1,64.5,8|2,0:0|0:3,0:0:0:0:
412,69,92091,2,0,P|448:45|513:59,2,96.75,0|2|2,1:0|0:3|0:3,0:0:0:0:
378,108,92841,2,0,P|341:115|304:121,1,64.5,4|4,0:3|0:3,0:0:0:0:
276,154,93216,2,0,P|239:147|202:141,1,64.5,10|10,0:3|0:3,0:0:0:0:
161,133,93591,5,4,1:2:0:0:
163,236,93966,2,0,P|126:229|89:223,1,64.5,8|0,0:0|0:0,0:0:0:0:
50,242,94341,2,0,P|57:196|38:146,2,96.75,2|2|2,1:3|0:3|0:3,0:0:0:0:
23,286,95091,1,0,1:0:0:0:
92,361,95466,2,0,P|130:351|168:349,1,64.5,8|2,0:0|0:3,0:0:0:0:
205,361,95841,2,0,B|223:286|223:286|180:227,1,129,4|6,1:3|0:3,0:0:0:0:
289,209,96591,6,0,P|358:200|427:193,1,129,6|2,1:3|0:3,0:0:0:0:
476,109,97341,2,0,P|411:102|347:93,1,129,2|2,1:3|0:3,0:0:0:0:
261,36,98091,2,0,P|247:67|244:107,1,64.5,6|2,1:2|1:2,0:0:0:0:
194,114,98466,2,0,P|209:169|163:241,1,129,10|2,1:2|1:2,0:0:0:0:
131,253,99028,2,0,L|52:245,1,64.5,2|10,1:2|1:2,0:0:0:0:
39,146,99591,5,4,1:0:0:0:
256,192,99684,12,0,101091,0:0:0:0:
