osu file format v14

[General]
AudioFilename: nokosareta.mp3
AudioLeadIn: 0
PreviewTime: 62091
Countdown: 0
SampleSet: Soft
StackLeniency: 0.7
Mode: 0
LetterboxInBreaks: 0
WidescreenStoryboard: 0

[Editor]
Bookmarks: 26091,63591
DistanceSpacing: 1.1
BeatDivisor: 4
GridSize: 4
TimelineZoom: 1.7

[Metadata]
Title:Torinokosareta Bijutsu (Arranged: HiZuMi)
TitleUnicode:取り残された美術 (Arranged:HiZuMi)
Artist:Yuuhei Satellite feat. senya
ArtistUnicode:幽閉サテライト feat. senya
Creator:Dailycare
Version:Collab Lunatic
Source:東方妖々夢 ~ Perfect Cherry Blossom.
Tags:Cellina Reana Touhou Chen かませ虎 kamase-tora HiZuMi 遠野幻想物語 BEMANI × 東方Project Ultimate Masterpieces
BeatmapID:1037117
BeatmapSetID:483527

[Difficulty]
HPDrainRate:5.8
CircleSize:4
OverallDifficulty:7.5
ApproachRate:8.3
SliderMultiplier:1.6
SliderTickRate:1

[Events]
//Background and Video events
0,0,"bg.jpg",0,0
//Break Periods
//Storyboard Layer 0 (Background)
//Storyboard Layer 1 (Fail)
//Storyboard Layer 2 (Pass)
//Storyboard Layer 3 (Foreground)
//Storyboard Sound Samples

[TimingPoints]
591,375,4,2,1,70,1,0
591,-111.111111111111,4,2,1,70,0,0
12591,-100,4,2,1,70,0,0
51591,-83.3333333333333,4,2,1,70,0,0
52341,-100,4,2,1,70,0,0
54591,-83.3333333333333,4,2,1,70,0,0
55341,-100,4,2,1,70,0,0
56091,-83.3333333333333,4,2,1,70,0,0
57591,-100,4,2,1,70,0,0
63591,-90.9090909090909,4,2,1,70,0,1
73341,-76.9230769230769,4,2,1,70,0,1
73528,-76.9230769230769,4,2,1,15,0,1
73622,-76.9230769230769,4,2,1,70,0,1
73809,-76.9230769230769,4,2,1,15,0,1
73903,-76.9230769230769,4,2,1,70,0,1
74091,-90.9090909090909,4,2,1,70,0,1
83091,-76.9230769230769,4,2,1,70,0,1
83747,-90.9090909090909,4,2,1,70,0,1
87591,-100,4,2,1,70,0,0
99684,-100,4,2,1,20,0,0

[Colours]
Combo1 : 149,239,143
Combo2 : 240,183,77
Combo3 : 252,135,202
Combo4 : 216,191,129

[HitObjects]
94,238,591,6,0,L|261:222,1,143.999995605469,2|0,0:0|0:0,0:0:0:0:
205,132,1153,1,0,0:0:0:0:
328,265,1341,2,0,P|244:268|212:331,1,143.999995605469,2|0,0:0|0:0,0:0:0:0:
392,343,1903,1,0,0:0:0:0:
430,254,2091,6,0,P|420:197|417:157,1,71.9999978027344,2|0,0:0|0:0,0:0:0:0:
301,144,2466,2,0,P|308:108|312:72,1,71.9999978027344,2|2,0:0|0:0,0:0:0:0:
464,42,2841,1,2,0:0:0:0:
464,42,3028,1,0,0:0:0:0:
301,144,3216,2,0,L|205:133,1,71.9999978027344,2|2,0:0|0:0,0:0:0:0:
90,232,3591,6,0,P|136:234|176:216,1,71.9999978027344,2|0,0:0|0:0,0:0:0:0:
148,60,3966,2,0,P|102:58|62:76,1,71.9999978027344,2|2,0:0|0:0,0:0:0:0:
120,147,4341,1,2,0:0:0:0:
236,58,4528,1,0,0:0:0:0:
301,188,4716,2,0,P|292:257|290:282,1,71.9999978027344,2|2,0:0|0:0,0:0:0:0:
356,342,5091,5,2,0:0:0:0:
227,317,5278,1,0,0:0:0:0:
374,227,5466,2,0,P|388:179|363:132,1,71.9999978027344,2|2,0:0|0:0,0:0:0:0:
179,154,5841,6,0,L|184:226,1,71.9999978027344,2|0,0:0|0:0,0:0:0:0:
106,288,6216,2,0,L|111:360,1,71.9999978027344,2|0,0:0|0:0,0:0:0:0:
207,324,6591,5,4,1:3:0:0:
305,60,8091,1,4,1:3:0:0:
128,286,9591,5,4,1:3:0:0:
384,98,9966,1,0,0:0:0:0:
162,64,10341,5,4,1:3:0:0:
350,320,10716,1,0,0:0:0:0:
128,286,11091,6,0,P|77:288|29:324,1,107.999996704102,4|0,1:3|0:0,0:0:0:0:
31,320,11466,2,0,P|36:265|32:214,1,71.9999978027344,4|0,0:3|0:0,0:0:0:0:
9,141,11841,5,4,0:3:0:0:
44,136,11934,1,0,0:0:0:0:
79,144,12028,1,0,0:0:0:0:
105,167,12122,1,0,0:0:0:0:
106,130,12216,1,4,0:3:0:0:
126,100,12309,1,0,0:0:0:0:
156,80,12403,1,0,0:0:0:0:
193,76,12497,1,0,0:0:0:0:
228,93,12591,6,0,P|274:100|327:101,1,80,4|0,0:0|0:0,0:0:0:0:
458,189,12966,2,0,P|422:192|377:203,1,80,8|0,0:0|0:0,0:0:0:0:
236,268,13341,1,0,0:0:0:0:
312,127,13528,2,0,L|305:94,3,26.6666666666667,0|0|0|8,0:0|0:0|0:0|0:0,0:0:0:0:
325,334,13903,1,0,0:0:0:0:
161,207,14091,5,0,0:0:0:0:
331,248,14278,1,0,0:0:0:0:
352,250,14372,1,0,0:0:0:0:
373,252,14466,1,8,0:0:0:0:
159,330,14653,1,0,0:0:0:0:
306,100,14841,5,8,0:0:0:0:
325,334,15216,1,8,0:0:0:0:
300,78,15591,6,0,P|337:77|402:61,1,80,4|0,0:0|0:0,0:0:0:0:
207,150,15966,2,0,P|171:144|124:142,1,80,8|0,0:0|0:0,0:0:0:0:
32,225,16341,1,0,0:0:0:0:
152,287,16528,2,0,L|145:245,3,26.6666666666667,0|0|0|8,0:0|0:0|0:0|0:0,0:0:0:0:
124,127,16903,1,0,0:0:0:0:
237,276,17091,6,0,P|279:267|329:263,1,80,0|0,0:0|0:0,0:0:0:0:
368,353,17466,1,8,0:0:0:0:
405,198,17653,1,0,0:0:0:0:
174,240,17841,6,0,L|165:202,3,40,4|0|0|0,0:3|0:0|0:0|0:0,0:0:0:0:
150,175,18216,1,10,3:2:0:0:
166,151,18309,1,0,0:0:0:0:
193,143,18403,1,2,0:0:0:0:
221,145,18497,1,0,0:0:0:0:
235,124,18591,6,0,P|234:82|230:38,1,80,4|0,0:0|0:0,0:0:0:0:
309,199,18966,2,0,P|306:234|306:278,1,80,8|0,0:0|0:0,0:0:0:0:
401,172,19341,1,0,0:0:0:0:
218,209,19528,2,0,L|177:220,3,26.6666666666667,0|0|0|8,0:0|0:0|0:0|0:0,0:0:0:0:
391,304,19903,1,0,0:0:0:0:
395,150,20091,6,0,P|393:110|385:64,1,80,0|0,0:0|0:0,0:0:0:0:
297,177,20466,1,8,0:0:0:0:
498,124,20653,1,0,0:0:0:0:
308,271,20841,5,8,0:0:0:0:
279,20,21216,1,8,0:0:0:0:
308,286,21591,6,0,P|258:295|214:314,1,80,4|0,0:0|0:0,0:0:0:0:
119,192,21966,2,0,P|153:207|196:211,1,80,8|0,0:0|0:0,0:0:0:0:
340,179,22341,1,0,0:0:0:0:
185,93,22528,2,0,L|180:125,3,26.6666666666667,0|0|0|8,0:0|0:0|0:0|0:0,0:0:0:0:
154,287,22903,1,0,0:0:0:0:
341,213,23091,6,0,L|332:264,3,40,4|0|4|0,0:3|0:0|0:3|0:0,0:0:0:0:
380,317,23466,2,0,L|386:356,3,40,8|0|4|0,0:0|0:0|0:3|0:0,0:0:0:0:
356,343,23841,5,4,0:3:0:0:
325,341,23934,1,0,0:0:0:0:
293,344,24028,1,4,0:3:0:0:
261,352,24122,1,0,0:0:0:0:
231,364,24216,5,8,0:0:0:0:
209,340,24309,1,0,0:0:0:0:
199,309,24403,1,4,0:3:0:0:
199,276,24497,1,0,0:0:0:0:
210,246,24591,5,4,1:0:0:0:
397,217,24966,1,4,0:1:0:0:
85,90,25341,5,4,0:1:0:0:
272,119,25716,1,4,0:1:0:0:
38,308,26091,6,0,P|32:257|26:194,1,80,4|0,3:2|0:0,0:0:0:0:
191,276,26466,2,0,P|197:327|203:390,1,80,8|0,0:0|0:0,0:0:0:0:
124,188,26841,2,0,P|165:168|206:167,1,80,0|0,3:0|0:0,0:0:0:0:
404,254,27216,1,8,0:0:0:0:
404,254,27591,6,0,P|446:214|425:108,1,160,0|8,3:0|0:0,0:0:0:0:
271,75,28153,1,0,0:0:0:0:
371,9,28341,2,0,P|360:65|347:112,1,80,0|0,3:0|0:0,0:0:0:0:
175,190,28716,2,0,P|186:134|199:87,1,80,8|0,0:0|0:0,0:0:0:0:
320,240,29091,6,0,L|240:242,1,80,0|0,3:0|0:0,0:0:0:0:
11,187,29466,2,0,L|90:189,1,80,8|0,0:0|0:0,0:0:0:0:
239,342,29841,2,0,P|183:325|158:299,1,80,0|0,3:0|0:0,0:0:0:0:
134,104,30216,1,8,0:0:0:0:
134,104,30591,6,0,P|197:160|300:141,1,160,0|8,3:0|0:0,0:0:0:0:
362,57,31153,1,0,0:0:0:0:
341,230,31341,2,0,P|334:257|322:297,3,40,4|0|0|0,3:0|0:0|0:0|0:0,0:0:0:0:
315,296,31716,1,10,0:0:0:0:
346,290,31809,1,0,0:0:0:0:
377,296,31903,1,2,0:0:0:0:
403,314,31997,1,0,0:0:0:0:
417,342,32091,6,0,P|460:337|519:327,1,80,4|0,3:2|0:0,0:0:0:0:
493,168,32466,2,0,P|449:172|391:183,1,80,8|0,0:0|0:0,0:0:0:0:
210,292,32841,2,0,P|219:338|235:395,1,80,0|0,3:0|0:0,0:0:0:0:
296,133,33216,1,8,0:0:0:0:
296,133,33591,6,0,P|225:126|105:117,1,160,0|8,3:0|0:0,0:0:0:0:
0,190,34153,1,0,0:0:0:0:
71,284,34341,2,0,P|85:242|94:188,1,80,0|0,3:0|0:0,0:0:0:0:
62,24,34716,2,0,P|48:66|39:120,1,80,8|0,0:0|0:0,0:0:0:0:
199,244,35091,6,0,L|298:234,1,80,0|0,3:0|0:0,0:0:0:0:
216,89,35466,2,0,L|136:80,1,80,8|0,0:0|0:0,0:0:0:0:
302,319,35841,2,0,P|340:297|366:255,1,80,0|0,3:0|0:0,0:0:0:0:
287,131,36216,1,8,0:0:0:0:
441,235,36403,1,0,0:0:0:0:
284,235,36591,5,0,1:0:0:0:
386,86,36778,1,0,3:0:0:0:
174,157,36966,2,0,P|159:117|144:64,1,80,8|0,3:2|3:0,0:0:0:0:
316,23,37341,6,0,L|307:75,3,40,4|0|4|0,3:0|0:0|3:0|0:0,3:0:0:0:
280,91,37716,2,0,L|289:143,3,40,6|0|0|0,3:0|0:0|3:0|3:0,3:0:0:0:
202,359,38278,5,4,0:0:0:0:
75,268,38466,2,0,P|119:276|160:295,1,80,12|0,0:0|0:0,0:0:0:0:
7,363,38841,1,0,3:0:0:0:
75,268,39028,1,0,0:0:0:0:
0,159,39216,2,0,P|36:143|76:137,1,80,8|0,0:0|0:0,0:0:0:0:
308,247,39591,6,0,P|230:252|171:202,1,160,0|8,3:0|0:0,0:0:0:0:
123,46,40153,1,0,0:0:0:0:
265,157,40341,2,0,P|306:149|357:134,1,80,0|0,3:0|0:0,0:0:0:0:
229,11,40716,2,0,P|215:50|202:102,1,80,8|0,0:0|0:0,0:0:0:0:
372,59,41091,6,0,P|344:27|306:-9,1,80,0|0,3:0|0:0,0:0:0:0:
413,189,41466,2,0,P|440:220|478:257,1,80,8|0,0:0|0:0,0:0:0:0:
492,18,41841,2,0,L|481:117,1,80,0|0,3:0|0:0,0:0:0:0:
305,227,42216,1,8,0:0:0:0:
305,227,42591,6,0,P|251:180|150:197,1,160,0|8,3:0|0:0,0:0:0:0:
70,319,43153,1,0,0:0:0:0:
59,174,43341,2,0,P|62:152|64:122,3,40,4|0|0|0,3:0|0:0|0:0|0:0,0:0:0:0:
57,103,43716,1,10,0:0:0:0:
83,119,43809,1,0,0:0:0:0:
114,126,43903,1,2,0:0:0:0:
145,123,43997,1,0,0:0:0:0:
173,108,44091,6,0,P|185:36|187:-1,1,80,4|0,3:2|0:0,0:0:0:0:
93,208,44466,2,0,P|81:280|79:317,1,80,8|0,0:0|0:0,0:0:0:0:
0,35,44841,2,0,P|38:25|78:19,1,80,0|0,3:0|0:0,0:0:0:0:
293,131,45216,1,8,0:0:0:0:
293,131,45591,6,0,P|304:204|226:271,1,160,0|8,3:0|0:0,0:0:0:0:
84,304,46153,1,0,0:0:0:0:
186,384,46341,2,0,P|178:344|169:305,1,80,0|0,3:0|0:0,0:0:0:0:
326,221,46716,2,0,P|333:260|342:299,1,80,8|0,0:0|0:0,0:0:0:0:
475,176,47091,6,0,P|437:162|398:151,1,80,0|0,3:0|0:0,0:0:0:0:
434,331,47466,2,0,P|464:304|493:277,1,80,8|0,0:0|0:0,0:0:0:0:
454,59,47841,1,0,3:0:0:0:
454,59,48216,1,8,0:0:0:0:
318,123,48403,1,0,0:0:0:0:
400,250,48591,5,0,1:0:0:0:
402,122,48778,1,0,3:0:0:0:
253,224,48966,2,0,P|264:274|277:328,1,80,8|0,3:2|3:0,0:0:0:0:
175,89,49341,2,0,L|122:82,3,40,6|0|4|0,3:0|0:0|0:3|0:0,0:0:0:0:
107,112,49716,2,0,L|54:119,3,40,10|0|10|4,0:3|0:0|0:3|0:3,0:0:0:0:
29,106,50091,6,0,P|15:61|15:15,1,80,12|0,1:2|0:0,0:0:0:0:
161,176,50466,2,0,P|158:215|145:253,1,80,8|0,0:0|0:0,0:0:0:0:
145,253,50747,1,0,0:0:0:0:
145,253,50841,1,0,3:0:0:0:
80,330,51028,5,0,0:0:0:0:
246,274,51216,1,8,0:0:0:0:
71,191,51403,1,0,0:0:0:0:
291,350,51591,6,2,P|330:302|324:236,1,95.9999970703126,4|0,1:2|0:0,0:1:0:0:
322,175,51872,2,2,L|334:270,1,95.9999970703126,4|0,1:2|0:0,0:1:0:0:
425,279,52153,2,2,P|381:261|334:271,1,95.9999970703126,4|0,1:2|0:0,0:1:0:0:
474,346,52528,5,4,1:2:0:0:
493,239,52716,1,8,0:0:0:0:
512,132,52904,1,0,0:0:0:0:
512,132,52997,1,0,0:0:0:0:
512,132,53091,6,0,P|467:140|395:146,1,80,0|0,1:0|0:0,0:0:0:0:
223,18,53466,2,0,P|262:22|302:29,1,80,8|0,0:0|0:0,0:0:0:0:
302,29,53747,1,0,0:0:0:0:
302,29,53841,1,0,3:0:0:0:
403,60,54028,5,0,0:0:0:0:
233,114,54216,1,8,0:0:0:0:
382,221,54403,1,0,0:0:0:0:
165,174,54591,6,2,P|146:148|157:69,1,95.9999970703126,4|0,1:2|0:0,0:1:0:0:
50,92,54872,2,2,L|146:86,1,95.9999970703126,4|0,1:2|0:0,0:1:0:0:
242,80,55153,2,0,L|146:86,1,95.9999970703126,4|0,1:2|0:0,0:0:0:0:
12,229,55528,5,2,0:1:0:0:
12,229,55622,1,0,0:0:0:0:
12,229,55716,2,0,L|20:280,1,40,8|0,0:3|0:0,0:0:0:0:
175,305,55903,2,0,L|169:266,1,40,4|4,0:3|0:3,0:0:0:0:
82,194,56091,6,2,L|100:324,1,95.9999970703126,4|2,1:2|0:3,0:1:0:0:
349,368,56466,5,8,3:0:0:0:
349,368,56559,1,8,0:3:0:0:
349,368,56653,1,4,0:3:0:0:
349,368,56747,1,4,0:3:0:0:
349,368,56841,6,2,L|335:272,1,95.9999970703126,4|2,1:2|0:3,0:1:0:0:
82,194,57216,5,8,3:0:0:0:
82,194,57309,1,8,0:3:0:0:
82,194,57403,1,4,0:3:0:0:
82,194,57497,1,4,0:3:0:0:
82,194,57591,6,0,P|108:222|174:239,1,80,4|0,1:2|3:0,0:0:0:0:
247,184,57966,2,0,P|259:147|240:81,1,80,8|0,3:2|3:0,0:0:0:0:
157,36,58341,2,0,P|119:44|71:94,1,80,0|2,3:0|3:0,0:0:0:0:
249,16,58716,2,0,L|302:20,3,40,8|0|4|0,3:0|0:0|3:0|0:0,0:0:0:0:
327,30,59091,6,0,L|336:130,1,80,4|0,3:2|0:0,0:0:0:0:
297,332,59466,2,0,L|304:252,1,80,8|0,0:0|0:0,0:0:0:0:
436,107,59841,2,0,P|428:159|393:193,1,80,4|0,3:2|0:0,0:0:0:0:
173,151,60216,2,0,P|222:131|268:145,1,80,8|0,0:0|0:0,0:0:0:0:
389,326,60591,5,4,1:2:0:0:
229,219,60778,1,0,0:0:0:0:
444,146,60966,1,8,3:2:0:0:
329,241,61153,1,0,0:0:0:0:
489,354,61341,6,0,P|491:331|493:292,3,40,4|0|4|0,1:3|0:0|0:3|0:0,0:0:0:0:
477,278,61716,2,0,P|474:255|473:216,3,40,8|0|4|0,3:2|0:0|0:3|3:0,0:0:0:0:
492,202,62091,5,4,1:0:0:0:
196,131,62466,1,4,0:1:0:0:
310,312,62841,1,4,0:1:0:0:
382,17,63216,1,4,0:1:0:0:
196,131,63591,6,0,P|150:118|67:165,1,132.00000402832,6|0,3:2|0:0,0:0:0:0:
57,178,63966,2,0,L|74:271,1,88.000002685547,8|0,0:0|0:0,0:0:0:0:
262,190,64341,6,0,P|281:130|242:59,1,132.00000402832,0|0,3:0|0:0,0:0:0:0:
227,49,64716,2,0,P|275:44|336:55,1,88.000002685547,8|0,0:0|0:0,0:0:0:0:
494,165,65091,6,0,P|450:161|408:148,1,88.000002685547,0|0,3:0|0:0,0:0:0:0:
229,290,65466,2,0,P|270:276|314:273,1,88.000002685547,8|0,0:0|0:0,0:0:0:0:
477,329,65841,1,0,3:0:0:0:
319,276,66028,1,0,0:0:0:0:
504,233,66216,1,8,0:0:0:0:
408,148,66403,1,0,0:0:0:0:
372,341,66591,6,0,P|403:286|369:209,1,132.00000402832,0|0,3:0|0:0,0:0:0:0:
354,209,66966,1,8,0:0:0:0:
290,373,67153,1,0,0:0:0:0:
267,194,67341,2,0,P|315:198|373:216,1,88.000002685547,0|0,3:0|0:0,0:0:0:0:
194,132,67716,2,0,P|151:142|107:146,1,88.000002685547,8|0,0:0|0:0,0:0:0:0:
299,19,68091,5,0,3:0:0:0:
175,229,68278,1,0,0:0:0:0:
377,140,68466,1,8,3:2:0:0:
214,46,68653,1,0,3:0:0:0:
353,208,68841,6,0,L|362:265,3,44.0000013427735,4|0|0|0,0:3|0:0|0:0|0:0,0:0:0:0:
377,282,69216,1,8,0:0:0:0:
342,277,69309,1,0,0:0:0:0:
308,289,69403,1,0,0:0:0:0:
285,316,69497,1,0,0:0:0:0:
273,350,69591,6,0,P|227:355|155:336,1,88.000002685547,4|0,3:2|0:0,0:0:0:0:
204,161,69966,2,0,P|218:209|227:254,1,88.000002685547,8|0,0:0|0:0,0:0:0:0:
37,306,70341,2,0,P|99:299|171:335,1,132.00000402832,0|0,3:0|0:0,0:0:0:0:
186,348,70716,1,8,0:0:0:0:
204,161,70903,1,0,0:0:0:0:
350,225,71091,6,0,P|290:251|225:245,2,132.00000402832,0|2|2,3:0|0:0|0:0,0:0:0:0:
245,85,71841,2,0,P|150:89|113:163,1,176.000005371094,0|8,3:0|0:0,0:0:0:0:
161,326,72403,1,0,0:0:0:0:
204,161,72591,6,0,P|199:98|181:53,1,88.000002685547,0|0,3:0|0:0,0:0:0:0:
287,252,72966,2,0,P|275:294|274:338,1,88.000002685547,8|0,0:0|0:0,0:0:0:0:
441,225,73341,6,2,P|387:231|345:197,1,103.999995239258,4|0,1:2|0:0,0:1:0:0:
256,181,73622,2,2,P|310:175|352:209,1,103.999995239258,4|0,1:2|0:0,0:1:0:0:
287,252,73903,1,4,1:2:0:0:
408,154,74091,6,0,L|398:106,3,44.0000013427735,4|0|4|0,3:0|0:0|0:3|0:0,0:0:0:0:
337,63,74466,2,0,L|347:15,3,44.0000013427735,8|0|4|4,0:0|0:0|0:3|0:3,0:0:0:0:
311,12,74841,5,6,3:0:0:0:
272,21,74934,1,0,0:0:0:0:
241,46,75028,1,4,0:3:0:0:
228,83,75122,1,6,0:3:0:0:
237,121,75216,5,8,0:0:0:0:
246,159,75310,1,0,0:0:0:0:
233,196,75404,1,8,0:0:0:0:
202,221,75498,1,0,0:0:0:0:
163,230,75591,6,0,P|100:218|41:247,1,132.00000402832,6|0,3:2|0:0,0:0:0:0:
41,246,75966,2,0,P|52:193|51:141,1,88.000002685547,8|0,0:0|0:0,0:0:0:0:
190,314,76341,6,0,P|253:302|312:331,1,132.00000402832,0|0,3:0|0:0,0:0:0:0:
312,331,76716,2,0,P|303:272|319:218,1,88.000002685547,8|0,0:0|0:0,0:0:0:0:
433,153,77091,6,0,P|395:171|330:161,1,88.000002685547,0|0,3:0|0:0,0:0:0:0:
198,101,77466,2,0,P|245:94|298:92,1,88.000002685547,8|0,0:0|0:0,0:0:0:0:
461,72,77841,1,0,3:0:0:0:
404,246,78028,1,0,0:0:0:0:
374,94,78216,1,8,0:0:0:0:
494,250,78403,1,0,0:0:0:0:
294,166,78591,6,0,P|285:224|282:270,1,88.000002685547,0|0,3:0|0:0,0:0:0:0:
185,307,78966,1,8,0:0:0:0:
376,246,79153,1,0,0:0:0:0:
209,199,79341,2,0,P|152:210|96:215,1,88.000002685547,0|0,3:0|0:0,0:0:0:0:
184,53,79716,2,0,P|227:58|270:67,1,88.000002685547,8|0,0:0|0:0,0:0:0:0:
397,182,80091,5,0,3:0:0:0:
404,14,80278,1,0,0:0:0:0:
291,163,80466,1,8,3:2:0:0:
459,84,80653,1,0,3:0:0:0:
439,266,80841,5,4,0:3:0:0:
408,283,80934,1,0,0:0:0:0:
373,288,81028,1,0,0:0:0:0:
338,281,81122,1,0,0:0:0:0:
306,265,81216,1,8,0:0:0:0:
271,258,81310,1,0,0:0:0:0:
236,263,81404,1,8,0:0:0:0:
205,280,81497,1,0,0:0:0:0:
181,306,81591,6,0,P|170:218|196:165,1,132.00000402832,4|0,3:2|0:0,0:0:0:0:
209,153,81966,2,0,P|256:155|301:135,1,88.000002685547,8|0,0:0|0:0,0:0:0:0:
146,82,82341,1,0,3:0:0:0:
268,233,82528,1,0,0:0:0:0:
97,189,82716,1,8,0:0:0:0:
238,67,82903,1,0,0:0:0:0:
320,300,83091,6,2,P|351:259|349:209,1,103.999995239258,4|0,1:2|0:0,0:1:0:0:
376,117,83372,2,2,P|345:158|349:209,1,103.999995239258,4|0,1:2|0:0,0:1:0:0:
423,184,83653,1,4,1:2:0:0:
420,38,83841,6,0,P|355:30|297:76,1,132.00000402832,4|0,3:2|0:0,0:0:0:0:
289,97,84216,1,8,0:0:0:0:
123,90,84403,1,0,3:0:0:0:
272,181,84591,6,0,P|289:138|287:88,1,88.000002685547,0|0,3:0|0:0,0:0:0:0:
160,219,84966,2,2,P|200:242|239:294,1,88.000002685547,8|0,0:0|0:0,0:0:0:0:
30,210,85341,2,0,P|37:166|65:130,1,88.000002685547,0|0,3:0|0:0,0:0:0:0:
95,298,85716,2,2,L|80:392,1,88.000002685547,8|0,0:0|0:0,0:0:0:0:
227,272,86091,5,0,3:0:0:0:
17,298,86278,1,0,0:0:0:0:
248,358,86466,1,8,3:2:0:0:
200,156,86653,1,0,0:0:0:0:
105,333,86841,5,6,3:0:0:0:
142,315,86934,1,4,0:3:0:0:
183,315,87028,1,4,0:3:0:0:
219,329,87122,1,0,0:0:0:0:
248,358,87216,5,8,0:0:0:0:
272,327,87309,1,4,0:3:0:0:
281,288,87403,1,4,0:3:0:0:
274,248,87497,1,0,0:0:0:0:
260,210,87591,6,0,P|306:209|386:242,1,120,4|0,0:0|0:0,0:0:0:0:
402,253,87966,2,0,L|398:155,1,80,8|0,0:0|0:0,0:0:0:0:
243,122,88341,2,0,P|187:144|128:146,2,120,2|2|2,1:3|0:3|0:3,0:0:0:0:
100,63,89091,5,0,1:0:0:0:
100,63,89466,1,8,0:0:0:0:
148,225,89653,1,0,0:0:0:0:
210,41,89841,5,4,1:3:0:0:
241,36,89934,1,0,0:0:0:0:
272,42,90028,1,0,0:0:0:0:
300,56,90122,1,0,0:0:0:0:
321,79,90216,1,8,0:0:0:0:
328,109,90309,1,0,0:0:0:0:
325,140,90403,1,2,0:3:0:0:
315,170,90497,1,0,0:0:0:0:
294,194,90591,6,0,L|423:186,2,120,2|2|2,1:3|0:3|0:3,0:0:0:0:
243,318,91341,1,0,1:0:0:0:
223,146,91528,2,0,L|219:113,3,26.6666666666667,2|0|0|8,0:3|0:0|0:0|0:0,0:0:0:0:
323,283,91903,1,2,0:3:0:0:
171,264,92091,6,0,P|113:263|54:302,2,120,0|2|2,1:0|0:3|0:3,0:0:0:0:
319,322,92841,2,0,L|324:263,3,40,4|4|4|4,0:3|0:3|0:3|0:3,0:0:0:0:
325,250,93216,1,10,0:3:0:0:
327,218,93309,1,4,0:3:0:0:
330,186,93403,1,10,0:3:0:0:
333,154,93497,1,4,0:3:0:0:
336,122,93591,6,0,P|288:122|237:88,1,80,4|0,1:2|0:0,0:0:0:0:
71,192,93966,2,0,P|112:186|160:182,1,80,8|0,0:0|0:0,0:0:0:0:
236,317,94341,2,0,L|245:181,2,120,2|2|2,1:3|0:3|0:3,0:0:0:0:
203,124,95091,6,0,P|259:115|321:172,1,120,0|0,1:0|0:0,0:0:0:0:
325,176,95466,1,8,0:0:0:0:
329,144,95559,1,0,0:0:0:0:
334,112,95653,1,2,0:3:0:0:
339,80,95747,1,2,0:3:0:0:
344,48,95841,6,0,L|403:66,3,40,4|0|2|0,1:3|0:0|0:3|0:0,0:0:0:0:
481,94,96216,2,0,L|443:106,3,40,6|0|6|0,0:3|0:0|0:3|0:0,0:0:0:0:
391,168,96591,6,0,P|381:227|390:298,1,120,6|0,1:3|1:0,0:0:0:0:
398,316,96966,1,2,0:3:0:0:
398,316,97059,2,0,P|350:309|308:315,1,80,2|0,0:0|0:0,0:0:0:0:
252,362,97341,6,0,P|232:302|264:248,1,120,2|0,1:3|1:0,0:0:0:0:
280,232,97716,1,2,0:3:0:0:
280,232,97809,2,0,P|232:239|190:233,1,80,2|0,0:0|0:0,0:0:0:0:
41,181,98091,5,6,1:2:0:0:
144,310,98278,1,2,1:2:0:0:
131,105,98466,1,10,1:2:0:0:
131,105,98559,2,0,P|138:150|144:200,1,80,2|2,0:3|0:0,0:0:0:0:
141,212,98841,1,2,1:2:0:0:
59,362,99028,1,2,1:2:0:0:
264,277,99216,2,0,L|267:237,1,40,10|2,1:2|0:3,0:0:0:0:
18,148,99497,2,0,L|23:201,1,40,2|4,0:0|1:0,0:0:0:0:
256,192,99684,12,0,101091,0:0:0:0:
