osu file format v14

[General]
AudioFilename: nokosareta.mp3
AudioLeadIn: 0
PreviewTime: 62091
Countdown: 0
SampleSet: Soft
StackLeniency: 0.7
Mode: 0
LetterboxInBreaks: 0
WidescreenStoryboard: 0

[Editor]
DistanceSpacing: 1.1
BeatDivisor: 4
GridSize: 4
TimelineZoom: 1

[Metadata]
Title:Torinokosareta Bijutsu (Arranged: HiZuMi)
TitleUnicode:取り残された美術 (Arranged:HiZuMi)
Artist:Yuuhei Satellite feat. senya
ArtistUnicode:幽閉サテライト feat. senya
Creator:Dailycare
Version:Hard
Source:東方妖々夢 ~ Perfect Cherry Blossom.
Tags:Cellina Reana Touhou Chen かませ虎 kamase-tora HiZuMi 遠野幻想物語 BEMANI × 東方Project Ultimate Masterpieces
BeatmapID:1032303
BeatmapSetID:483527

[Difficulty]
HPDrainRate:5
CircleSize:3.7
OverallDifficulty:6
ApproachRate:7.6
SliderMultiplier:1.56
SliderTickRate:1

[Events]
//Background and Video events
0,0,"bg.jpg",0,0
//Break Periods
//Storyboard Layer 0 (Background)
//Storyboard Layer 1 (Fail)
//Storyboard Layer 2 (Pass)
//Storyboard Layer 3 (Foreground)
//Storyboard Sound Samples

[TimingPoints]
591,375,4,2,1,50,1,0
591,-111.111111111111,4,2,1,50,0,0
6591,-111.111111111111,4,2,1,65,0,0
12591,-111.111111111111,4,2,1,70,0,0
14841,-83.3333333333333,4,2,1,70,0,0
15591,-111.111111111111,4,2,1,70,0,0
20841,-83.3333333333333,4,2,1,70,0,0
21591,-111.111111111111,4,2,1,70,0,0
24591,-111.111111111111,4,2,1,75,0,0
24966,-111.111111111111,4,2,1,50,0,0
25341,-111.111111111111,4,2,1,70,0,0
25716,-111.111111111111,4,2,1,85,0,0
26091,-111.111111111111,4,2,1,70,0,0
50091,-105.263157894737,4,2,1,70,0,0
51591,-76.9230769230769,4,2,1,80,0,0
52341,-76.9230769230769,4,2,1,50,0,0
52528,-105.263157894737,4,2,1,70,0,0
54591,-76.9230769230769,4,2,1,80,0,0
55341,-76.9230769230769,4,2,1,50,0,0
55528,-105.263157894737,4,2,1,70,0,0
56091,-83.3333333333333,4,2,1,90,0,0
56466,-111.111111111111,4,2,1,70,0,0
56841,-83.3333333333333,4,2,1,80,0,0
57216,-111.111111111111,4,2,1,70,0,0
62091,-111.111111111111,4,2,1,75,0,0
62466,-111.111111111111,4,2,1,55,0,0
62841,-111.111111111111,4,2,1,70,0,0
63216,-111.111111111111,4,2,1,85,0,0
63591,-100,4,2,1,80,0,1
69122,-100,4,2,1,20,0,1
69216,-100,4,2,1,80,0,1
73341,-83.3333333333333,4,2,1,90,0,1
74091,-100,4,2,1,80,0,1
81122,-100,4,2,1,20,0,1
81216,-100,4,2,1,80,0,1
83091,-83.3333333333333,4,2,1,90,0,1
83841,-100,4,2,1,80,0,1
87591,-100,4,2,1,80,0,0
99684,-100,4,2,1,20,0,0

[Colours]
Combo1 : 149,239,143
Combo2 : 240,183,77
Combo3 : 252,135,202
Combo4 : 216,191,129

[HitObjects]
123,355,591,6,0,B|111:259|111:259|151:202,1,140.399995715332,2|0,0:0|0:0,0:0:0:0:
187,152,1153,1,0,0:0:0:0:
274,164,1341,2,0,B|286:68|286:68|246:11,1,140.399995715332,2|0,0:0|0:0,0:0:0:0:
178,62,1903,1,0,0:0:0:0:
101,18,2091,6,0,P|87:61|101:110,1,70.1999978576661,2|0,0:0|0:0,0:0:0:0:
152,146,2466,2,0,P|166:189|152:238,1,70.1999978576661,2|2,0:0|0:0,0:0:0:0:
111,284,2841,2,0,L|22:271,1,70.1999978576661,2|0,0:0|0:0,0:0:0:0:
163,213,3216,2,0,L|232:223,1,70.1999978576661,2|2,0:0|0:0,0:0:0:0:
287,291,3591,6,0,P|342:288|367:280,1,70.1999978576661,2|0,0:0|0:0,0:0:0:0:
390,203,3966,2,0,P|445:206|470:214,1,70.1999978576661,2|2,0:0|0:0,0:0:0:0:
507,283,4341,1,2,0:0:0:0:
422,306,4528,2,0,P|431:356|439:388,2,70.1999978576661,0|2|2,0:0|0:0|0:0,0:0:0:0:
364,239,5091,6,0,P|311:227|274:224,1,70.1999978576661,2|0,0:0|0:0,0:0:0:0:
223,276,5466,2,0,P|230:332|235:360,1,70.1999978576661,2|2,0:0|0:0,0:0:0:0:
295,225,5841,2,0,B|309:184|293:153|293:153|274:119|288:78,1,140.399995715332,2|2,0:0|0:0,0:0:0:0:
317,6,6403,1,0,0:0:0:0:
373,111,6591,5,4,1:3:0:0:
373,111,8091,1,4,1:3:0:0:
373,111,9591,6,0,P|327:103|219:97,1,140.399995715332,4|0,1:3|0:0,0:0:0:0:
154,248,10341,2,0,P|200:256|308:262,1,140.399995715332,4|0,1:3|0:0,0:0:0:0:
457,199,11091,5,4,1:3:0:0:
293,133,11466,2,0,B|281:84|281:84|324:-1,2,140.399995715332,4|4|4,0:3|0:3|0:3,0:0:0:0:
371,289,12591,6,0,P|338:294|280:266,1,70.1999978576661,4|0,0:0|0:0,0:0:0:0:
249,213,12966,2,0,P|216:208|158:236,1,70.1999978576661,8|0,0:0|0:0,0:0:0:0:
109,269,13341,1,0,0:0:0:0:
31,229,13528,2,0,P|22:258|25:301,2,70.1999978576661,0|8|0,0:0|0:0|0:0,0:0:0:0:
4,144,14091,6,0,L|87:136,1,70.1999978576661,0|0,0:0|0:0,0:0:0:0:
147,185,14466,2,0,L|230:193,1,70.1999978576661,8|0,0:0|0:0,0:0:0:0:
300,233,14841,6,0,B|328:115|328:115|291:57,1,187.19999428711,8|8,0:0|0:0,0:1:0:0:
292,59,15591,6,0,P|331:78|382:77,1,70.1999978576661,4|0,0:0|0:0,0:0:0:0:
437,45,15966,2,0,P|471:50|502:66,1,70.1999978576661,8|0,0:0|0:0,0:0:0:0:
444,133,16341,1,0,0:0:0:0:
496,203,16528,2,0,L|487:289,2,70.1999978576661,0|8|0,0:0|0:0|0:0,0:0:0:0:
444,133,17091,6,0,P|407:131|370:150,1,70.1999978576661,0|0,0:0|0:0,0:0:0:0:
310,201,17466,2,0,P|289:231|287:273,1,70.1999978576661,8|0,0:0|0:0,0:0:0:0:
276,351,17841,2,0,L|228:358,3,35.099998928833,4|0|0|0,0:3|0:0|0:0|0:0,0:0:0:0:
210,340,18216,2,0,L|175:334,3,35.099998928833,10|0|2|0,3:2|0:0|0:0|0:0,0:0:0:0:
141,342,18591,6,0,P|132:299|128:244,1,70.1999978576661,4|0,0:0|0:0,0:0:0:0:
190,208,18966,2,0,P|198:165|203:110,1,70.1999978576661,8|0,0:0|0:0,0:0:0:0:
140,75,19341,1,0,0:0:0:0:
206,18,19528,2,0,P|249:24|281:52,2,70.1999978576661,0|8|0,0:0|0:0|0:0,0:0:0:0:
140,75,20091,6,0,P|97:69|65:41,1,70.1999978576661,0|0,0:0|0:0,0:0:0:0:
14,117,20466,2,0,P|21:154|27:196,1,70.1999978576661,8|0,0:0|0:0,0:0:0:0:
16,273,20841,6,0,B|136:249|136:249|205:299,1,187.19999428711,8|8,0:0|0:0,0:0:0:0:
188,287,21591,6,0,P|199:231|214:192,1,70.1999978576661,4|0,0:0|0:0,0:0:0:0:
262,154,21966,2,0,L|356:174,1,70.1999978576661,8|0,0:0|0:0,0:0:0:0:
399,223,22341,1,0,0:0:0:0:
482,197,22528,2,0,P|491:230|497:265,2,70.1999978576661,0|8|0,0:0|0:0|0:0,0:0:0:0:
417,136,23091,6,0,P|422:101|432:67,1,70.1999978576661,4|4,0:3|0:3,0:0:0:0:
354,25,23466,2,0,P|348:59|338:93,1,70.1999978576661,8|4,0:0|0:3,0:0:0:0:
280,158,23841,2,0,L|226:162,3,35.099998928833,4|0|4|0,0:3|0:0|0:3|0:0,0:0:0:0:
216,183,24216,2,0,L|162:179,3,35.099998928833,8|0|4|0,0:0|0:0|0:3|0:0,0:0:0:0:
150,197,24591,6,0,L|136:37,1,140.399995715332,4|4,1:0|0:1,0:0:0:0:
275,243,25341,2,0,L|289:403,1,140.399995715332,4|4,0:1|0:1,0:0:0:0:
373,171,26091,6,0,P|415:159|444:164,1,70.1999978576661,4|0,3:2|0:0,0:0:0:0:
373,171,26466,2,0,P|362:213|343:235,1,70.1999978576661,8|0,0:0|0:0,0:0:0:0:
373,171,26841,2,0,P|341:140|331:113,1,70.1999978576661,0|0,3:0|0:0,0:0:0:0:
340,28,27216,1,8,0:0:0:0:
340,28,27591,6,0,P|239:28|206:70,1,140.399995715332,0|8,3:0|0:0,0:0:0:0:
147,105,28153,1,0,0:0:0:0:
217,157,28341,2,0,P|211:201|192:307,1,140.399995715332,0|8,3:0|0:0,0:0:0:0:
194,295,29091,6,0,P|159:309|119:329,1,70.1999978576661,0|0,3:0|0:0,0:0:0:0:
194,295,29466,2,0,P|223:318|260:342,1,70.1999978576661,8|0,0:0|0:0,0:0:0:0:
194,295,29841,2,0,P|199:257|202:213,1,70.1999978576661,0|0,3:0|0:0,0:0:0:0:
236,144,30216,1,8,0:0:0:0:
236,144,30591,6,0,P|204:178|101:175,1,140.399995715332,0|8,3:0|0:0,0:0:0:0:
48,123,31153,1,0,0:0:0:0:
12,42,31341,2,0,P|28:36|47:35,3,35.099998928833,4|0|0|0,3:0|0:0|0:0|0:0,0:0:0:0:
81,41,31716,2,0,P|97:46|116:48,3,35.099998928833,10|0|2|0,0:0|0:0|0:0|0:0,0:0:0:0:
147,36,32091,6,0,P|168:76|173:119,1,70.1999978576661,4|0,3:2|0:0,0:0:0:0:
241,109,32466,2,0,P|206:110|172:100,1,70.1999978576661,8|0,0:0|0:0,0:0:0:0:
130,155,32841,2,0,P|148:124|173:100,1,70.1999978576661,0|0,3:0|0:0,0:0:0:0:
226,30,33216,1,8,0:0:0:0:
226,30,33591,6,0,B|318:42|318:42|358:93,1,140.399995715332,0|8,3:0|0:0,0:0:0:0:
434,94,34153,1,0,0:0:0:0:
377,161,34341,2,0,P|364:230|352:313,1,140.399995715332,0|8,3:0|0:0,0:0:0:0:
353,299,35091,6,0,P|331:291|285:275,1,70.1999978576661,0|0,3:0|0:0,0:0:0:0:
272,188,35466,2,0,P|223:222|124:203,2,140.399995715332,8|0|8,0:0|3:0|0:0,0:0:0:0:
326,116,36403,1,0,0:0:0:0:
270,47,36591,6,0,P|233:22|124:44,1,140.399995715332,0|8,1:0|3:2,0:0:0:0:
83,96,37153,1,0,3:0:0:0:
140,162,37341,2,0,P|136:202|129:241,1,70.1999978576661,4|4,3:0|3:0,0:0:0:0:
58,281,37716,2,0,P|58:305|62:337,3,35.099998928833,6|0|0|0,3:0|0:0|3:0|3:0,0:0:0:0:
218,231,38278,5,4,0:0:0:0:
218,231,38466,2,0,P|269:234|304:238,1,70.1999978576661,12|0,0:0|0:0,0:0:0:0:
302,322,38841,2,0,P|251:319|216:315,1,70.1999978576661,0|0,3:0|0:0,0:0:0:0:
150,284,39216,1,8,0:0:0:0:
150,284,39591,6,0,P|176:236|197:148,1,140.399995715332,0|8,3:0|0:0,0:0:0:0:
183,66,40153,1,0,0:0:0:0:
257,19,40341,2,0,P|321:38|414:62,1,140.399995715332,0|8,3:0|0:0,0:0:0:0:
392,56,41091,6,0,P|426:110|438:134,1,70.1999978576661,0|0,3:0|0:0,0:0:0:0:
391,56,41466,2,0,P|407:24|425:-5,1,70.1999978576661,8|0,0:0|0:0,0:0:0:0:
392,56,41841,2,0,P|356:58|321:58,1,70.1999978576661,0|0,3:0|0:0,0:0:0:0:
236,37,42216,1,8,0:0:0:0:
236,37,42591,6,0,P|244:121|249:186,1,140.399995715332,0|8,3:0|0:0,0:0:0:0:
236,264,43153,1,0,0:0:0:0:
187,337,43341,2,0,P|204:348|227:354,3,35.099998928833,4|0|0|0,3:0|0:0|0:0|0:0,0:0:0:0:
254,354,43716,2,0,P|271:343|294:337,3,35.099998928833,10|0|2|0,0:0|0:0|0:0|0:0,0:0:0:0:
321,337,44091,6,0,P|336:309|368:285,1,70.1999978576661,4|0,3:2|0:0,0:0:0:0:
346,220,44466,2,0,P|361:247|366:287,1,70.1999978576661,8|0,0:0|0:0,0:0:0:0:
433,299,44841,2,0,P|400:299|363:284,1,70.1999978576661,0|0,3:0|0:0,0:0:0:0:
277,260,45216,1,8,0:0:0:0:
277,260,45591,6,0,B|258:161|258:161|289:98,1,140.399995715332,0|8,3:0|0:0,0:0:0:0:
303,41,46153,1,0,0:0:0:0:
370,97,46341,2,0,P|423:109|532:127,1,140.399995715332,0|8,3:0|0:0,0:0:0:0:
507,123,47091,6,0,P|488:164|477:203,1,70.1999978576661,0|0,3:0|0:0,0:0:0:0:
453,273,47466,1,8,0:0:0:0:
380,226,47653,1,0,0:0:0:0:
351,309,47841,2,0,P|321:341|211:323,1,140.399995715332,0|8,3:0|0:0,0:0:0:0:
173,273,48403,1,0,0:0:0:0:
101,324,48591,6,0,P|87:270|88:242,1,70.1999978576661,0|0,1:0|3:0,0:0:0:0:
145,190,48966,2,0,P|159:136|158:108,1,70.1999978576661,8|0,3:2|3:0,0:0:0:0:
203,45,49341,2,0,P|174:35|144:39,3,35.099998928833,6|0|4|0,3:0|0:0|0:3|0:0,0:0:0:0:
139,17,49716,2,0,P|110:26|80:23,3,35.099998928833,10|0|10|4,0:3|0:0|0:3|0:3,0:0:0:0:
71,22,50091,5,12,1:2:0:0:
8,90,50278,1,0,0:0:0:0:
91,130,50466,1,8,0:0:0:0:
26,195,50653,1,0,0:0:0:0:
26,195,50747,1,0,0:0:0:0:
26,195,50841,2,0,L|36:277,1,74.0999980213166,0|0,3:0|0:0,0:0:0:0:
108,384,51216,2,0,L|116:310,1,74.0999980213166,8|0,0:0|0:0,0:0:0:0:
198,258,51591,6,2,B|142:213|142:213|57:230,1,152.099993037415,4|4,1:2|1:2,0:1:0:0:
205,354,52153,2,2,P|261:333|291:283,1,101.399995358277,4|0,1:2|0:0,0:1:0:0:
279,208,52528,5,4,1:2:0:0:
199,159,52716,1,8,0:0:0:0:
217,68,52903,1,0,0:0:0:0:
217,68,52997,1,0,0:0:0:0:
217,68,53091,5,0,1:0:0:0:
308,53,53278,1,0,0:0:0:0:
343,139,53466,1,8,0:0:0:0:
279,208,53653,1,0,0:0:0:0:
279,208,53747,1,0,0:0:0:0:
279,208,53841,2,0,P|271:266|272:288,1,74.0999980213166,0|0,3:0|0:0,0:0:0:0:
366,384,54216,2,0,P|365:346|358:310,1,74.0999980213166,8|0,0:0|0:0,0:0:0:0:
271,281,54591,6,2,B|325:224|325:224|418:239,1,152.099993037415,0|0,1:0|1:0,0:1:0:0:
269,375,55153,2,2,P|203:349|185:280,1,101.399995358277,0|0,1:0|0:0,0:1:0:0:
190,232,55528,5,2,0:1:0:0:
274,192,55716,1,8,0:3:0:0:
355,255,55903,1,4,0:3:0:0:
355,255,55997,1,4,0:3:0:0:
355,255,56091,6,2,P|380:200|356:135,1,93.5999971435548,4|2,1:2|0:3,0:1:0:0:
290,48,56466,2,0,L|294:82,3,35.099998928833,8|8|4|4,3:0|0:3|0:3|0:3,0:0:0:0:
311,107,56841,6,2,L|179:96,1,93.5999971435548,4|2,1:2|0:3,0:1:0:0:
78,166,57216,2,0,L|127:161,3,35.099998928833,8|8|4|4,3:0|0:3|0:3|0:3,0:0:0:0:
143,149,57591,6,0,P|140:196|132:245,1,70.1999978576661,4|0,1:2|3:0,0:0:0:0:
88,76,57966,2,0,P|91:29|99:-20,1,70.1999978576661,8|0,3:2|3:0,0:0:0:0:
171,48,58341,1,0,3:0:0:0:
255,26,58528,1,2,3:0:0:0:
328,74,58716,1,8,3:0:0:0:
412,50,58903,1,4,3:0:0:0:
412,50,58997,1,0,3:0:0:0:
412,50,59091,6,0,P|409:97|401:146,1,70.1999978576661,4|0,3:2|0:0,0:0:0:0:
329,163,59466,2,0,L|229:149,1,70.1999978576661,8|0,0:0|0:0,0:0:0:0:
437,200,59841,2,0,L|537:214,1,70.1999978576661,4|0,3:2|0:0,0:0:0:0:
356,247,60216,2,0,P|351:281|349:316,1,70.1999978576661,8|0,0:0|0:0,0:0:0:0:
264,339,60591,6,0,P|269:305|271:270,1,70.1999978576661,4|0,1:2|0:0,0:0:0:0:
214,201,60966,2,0,L|114:215,1,70.1999978576661,8|0,3:2|0:0,0:0:0:0:
76,265,61341,2,0,P|66:251|60:224,3,35.099998928833,4|0|4|0,1:3|0:0|0:3|0:0,0:0:0:0:
34,212,61716,2,0,P|43:198|50:171,3,35.099998928833,8|0|4|0,3:2|0:0|0:3|3:0,0:0:0:0:
42,146,62091,6,0,P|99:118|133:178,1,140.399995715332,4|4,1:0|0:1,0:0:0:0:
297,283,62841,2,0,P|239:310|206:251,1,140.399995715332,4|4,0:1|0:1,0:0:0:0:
408,264,63591,6,0,B|383:222|398:183|398:183|372:125,1,117,6|0,3:2|0:0,0:0:0:0:
371,127,63966,2,0,P|416:117|462:111,1,78,8|0,0:0|0:0,0:0:0:0:
304,191,64341,2,0,P|273:150|167:153,1,156,0|8,3:0|0:0,0:0:0:0:
139,227,64903,1,0,0:0:0:0:
86,158,65091,6,0,P|92:111|119:70,1,78,0|0,3:0|0:0,0:0:0:0:
226,211,65466,2,0,P|219:257|192:298,1,78,8|0,0:0|0:0,0:0:0:0:
129,326,65841,2,0,L|30:338,1,78,0|0,3:0|0:0,0:0:0:0:
254,361,66216,2,0,L|353:349,1,78,8|0,0:0|0:0,0:0:0:0:
412,317,66591,6,0,B|352:263|352:263|362:181,1,156,0|8,3:0|0:0,0:0:0:0:
293,136,67153,1,0,0:0:0:0:
252,211,67341,2,0,P|215:228|178:227,1,78,0|0,3:0|0:0,0:0:0:0:
93,212,67716,1,8,0:0:0:0:
135,137,67903,1,0,0:0:0:0:
97,59,68091,6,0,P|51:45|10:45,1,78,0|0,3:0|0:0,0:0:0:0:
213,82,68466,2,0,P|194:37|167:6,1,78,8|0,3:2|3:0,0:0:0:0:
269,185,68841,2,0,P|303:136|299:58,1,117,4|0,0:3|0:0,0:0:0:0:
297,51,69216,2,0,L|362:45,3,39,8|0|0|0,0:0|0:0|0:0|0:0,0:0:0:0:
364,59,69591,6,0,L|450:52,1,78,4|0,3:2|0:0,0:0:0:0:
470,133,69966,2,0,L|384:140,1,78,8|0,0:0|0:0,0:0:0:0:
326,194,70341,2,0,P|372:237|353:342,1,156,0|8,3:0|0:0,0:0:0:0:
293,277,70903,1,0,0:0:0:0:
249,351,71091,6,0,L|124:362,2,117,0|2|2,3:0|0:0|0:0,0:0:0:0:
334,355,71841,2,0,L|426:347,1,78,0|0,3:0|0:0,0:0:0:0:
495,328,72216,2,0,P|515:283|510:244,1,78,8|0,0:0|0:0,0:0:0:0:
477,176,72591,5,0,3:0:0:0:
330,265,72966,1,8,0:0:0:0:
326,93,73341,2,0,B|368:66|368:66|479:97,2,140.399995715332,4|4|4,1:2|1:2|1:2,0:0:0:0:
259,147,74091,6,0,P|211:136|172:113,1,78,4|4,3:0|0:3,0:0:0:0:
101,139,74466,1,8,0:0:0:0:
25,98,74653,1,4,0:3:0:0:
25,98,74747,1,4,0:3:0:0:
25,98,74841,2,0,P|13:41|11:6,1,78,6|4,3:0|0:3,0:0:0:0:
185,122,75216,2,0,P|197:179|199:214,1,78,8|8,0:0|0:0,0:0:0:0:
124,50,75591,6,0,P|170:28|252:62,1,117,6|0,3:2|0:0,0:0:0:0:
255,62,75966,2,0,P|307:73|346:77,1,78,8|0,0:0|0:0,0:0:0:0:
406,212,76341,2,0,P|379:176|263:181,1,156,0|8,3:0|0:0,0:0:0:0:
240,249,76903,1,0,0:0:0:0:
299,314,77091,6,0,P|321:283|325:245,1,78,0|0,3:0|0:0,0:0:0:0:
180,186,77466,2,0,P|157:217|154:255,1,78,8|0,0:0|0:0,0:0:0:0:
70,228,77841,2,0,L|-16:239,1,78,0|0,3:0|0:0,0:0:0:0:
112,135,78216,2,0,L|34:125,1,78,8|0,0:0|0:0,0:0:0:0:
61,43,78591,6,0,L|152:55,1,78,0|0,3:0|0:0,0:0:0:0:
219,29,78966,1,8,0:0:0:0:
269,97,79153,1,0,0:0:0:0:
349,71,79341,2,0,P|354:111|342:146,1,78,0|0,3:0|0:0,0:0:0:0:
388,218,79716,1,8,0:0:0:0:
304,226,79903,1,0,0:0:0:0:
243,287,80091,6,0,P|221:254|219:216,1,78,0|0,3:0|0:0,0:0:0:0:
90,141,80466,2,0,P|127:132|164:143,1,78,8|0,3:2|3:0,0:0:0:0:
282,9,80841,2,0,P|282:66|252:116,1,117,4|0,0:3|0:0,0:0:0:0:
264,146,81216,2,0,L|323:159,3,39,8|0|8|0,0:0|0:0|0:0|0:0,0:0:0:0:
330,146,81591,6,0,L|338:228,1,78,4|0,3:2|0:0,0:0:0:0:
421,240,81966,2,0,L|413:162,1,78,8|0,0:0|0:0,0:0:0:0:
388,79,82341,1,0,3:0:0:0:
303,64,82528,1,0,0:0:0:0:
248,130,82716,2,0,P|199:155|166:154,1,78,8|0,0:0|0:0,0:0:0:0:
94,135,83091,6,0,B|69:84|69:84|106:-6,2,140.399995715332,4|4|4,1:2|1:2|1:2,0:0:0:0:
106,220,83841,2,0,P|52:212|21:168,1,78,4|0,3:2|0:0,0:0:0:0:
174,168,84216,1,8,0:0:0:0:
194,251,84403,1,0,3:0:0:0:
214,334,84591,6,0,L|324:323,1,78,0|0,3:0|0:0,0:0:0:0:
417,268,84966,2,2,P|382:252|345:259,1,78,8|0,0:0|0:0,0:1:0:0:
272,212,85341,2,0,L|278:116,1,78,0|0,3:0|0:0,0:0:0:0:
366,18,85716,2,2,P|369:57|351:91,1,78,8|0,0:0|0:0,0:1:0:0:
193,140,86091,6,0,L|107:130,1,78,0|0,3:0|0:0,0:0:0:0:
62,283,86466,2,2,P|80:249|77:210,1,78,8|0,3:2|0:0,0:1:0:0:
34,97,86841,2,0,P|45:72|64:54,3,39,6|4|4|0,3:0|0:3|0:3|0:0,0:0:0:0:
51,31,87216,2,0,L|110:37,3,39,8|4|4|0,0:0|0:3|0:3|0:0,0:0:0:0:
115,16,87591,6,0,P|147:53|144:114,1,78,4|0,0:0|0:0,0:0:0:0:
123,161,87966,2,0,L|23:152,1,78,8|0,0:0|0:0,0:0:0:0:
152,80,88341,2,0,L|268:91,1,117,2|2,1:3|0:3,0:0:0:0:
297,88,88716,2,0,P|299:137|287:176,1,78,8|2,0:0|0:3,0:0:0:0:
236,230,89091,6,0,P|293:196|373:228,1,156,0|8,1:0|0:0,0:0:0:0:
404,305,89653,1,0,0:0:0:0:
487,283,89841,2,0,P|498:239|510:118,1,156,4|8,1:3|0:0,0:0:0:0:
473,51,90403,1,2,0:3:0:0:
473,51,90497,1,0,0:0:0:0:
473,51,90591,6,0,B|398:38|398:38|348:62,1,117,2|2,1:3|0:3,0:0:0:0:
334,70,90966,2,0,L|344:157,1,78,8|2,0:0|0:3,0:0:0:0:
397,213,91341,1,0,1:0:0:0:
317,245,91528,2,0,P|311:268|307:291,3,26,2|0|0|8,0:3|0:0|0:0|0:0,0:0:0:0:
261,179,91903,1,2,0:3:0:0:
193,232,92091,6,0,P|140:245|89:230,1,78,0|0,1:0|0:0,0:0:0:0:
89,228,92372,2,0,P|128:265|129:354,1,117,2|2,0:3|0:3,0:0:0:0:
213,368,92841,2,0,P|220:345|226:311,3,39,4|4|4|4,0:3|0:3|0:3|0:3,0:0:0:0:
251,313,93216,2,0,P|243:290|238:256,3,39,10|4|10|4,0:3|0:3|0:3|0:3,0:0:0:0:
222,250,93591,6,0,L|323:246,1,78,4|0,1:2|0:0,0:0:0:0:
384,232,93966,2,0,P|400:280|405:328,1,78,8|0,0:0|0:0,0:0:0:0:
299,246,94341,2,0,P|280:190|276:132,1,117,2|2,1:3|0:3,0:0:0:0:
280,103,94716,2,0,L|377:108,1,78,8|2,0:0|0:3,0:0:0:0:
434,146,95091,6,0,P|445:91|368:21,1,156,0|8,1:0|0:0,0:0:0:0:
299,47,95653,1,2,0:3:0:0:
299,47,95747,1,2,0:3:0:0:
299,47,95841,1,4,1:3:0:0:
215,85,96028,2,0,P|212:47|203:3,2,78,2|6|6,0:3|0:3|0:3,0:0:0:0:
245,172,96591,6,0,B|197:192|157:157|157:157|126:198,1,117,6|0,1:3|1:0,0:0:0:0:
130,204,96966,2,0,P|131:226|139:248,1,39,2|2,0:3|0:0,0:0:0:0:
245,172,97341,6,0,B|293:152|333:187|333:187|364:146,1,117,2|0,1:3|1:0,0:0:0:0:
360,140,97716,2,0,P|359:118|351:96,1,39,2|2,0:3|0:0,0:0:0:0:
301,24,98091,5,6,1:2:0:0:
219,69,98278,1,2,1:2:0:0:
130,37,98466,1,10,1:2:0:0:
130,37,98559,2,0,L|139:145,1,78,2|2,0:3|0:0,0:0:0:0:
151,141,98841,5,2,1:2:0:0:
59,129,99028,1,2,1:2:0:0:
6,205,99216,1,10,1:2:0:0:
6,205,99309,2,0,L|-2:313,1,78,2|2,0:3|0:0,0:0:0:0:
9,311,99591,5,4,1:0:0:0:
256,192,99684,12,0,101091,0:0:0:0:
