osu file format v14

[General]
AudioFilename: nokosareta.mp3
AudioLeadIn: 0
PreviewTime: 62091
Countdown: 0
SampleSet: Soft
StackLeniency: 0.7
Mode: 0
LetterboxInBreaks: 0
WidescreenStoryboard: 1

[Editor]
DistanceSpacing: 1
BeatDivisor: 4
GridSize: 4
TimelineZoom: 1

[Metadata]
Title:Torinokosareta Bijutsu (Arranged: HiZuMi)
TitleUnicode:取り残された美術 (Arranged:HiZuMi)
Artist:Yuuhei Satellite feat. senya
ArtistUnicode:幽閉サテライト feat. senya
Creator:Dailycare
Version:Easy
Source:東方妖々夢 ~ Perfect Cherry Blossom.
Tags:Cellina Reana Touhou Chen かませ虎 kamase-tora HiZuMi 遠野幻想物語 BEMANI × 東方Project Ultimate Masterpieces
BeatmapID:1249356
BeatmapSetID:483527

[Difficulty]
HPDrainRate:2
CircleSize:3
OverallDifficulty:2
ApproachRate:3
SliderMultiplier:0.85
SliderTickRate:1

[Events]
//Background and Video events
0,0,"bg.jpg",0,0
//Break Periods
//Storyboard Layer 0 (Background)
//Storyboard Layer 1 (Fail)
//Storyboard Layer 2 (Pass)
//Storyboard Layer 3 (Foreground)
//Storyboard Sound Samples

[TimingPoints]
591,375,4,2,1,50,1,0
6591,-100,4,2,1,65,0,0
12591,-100,4,2,1,70,0,0
24591,-100,4,2,1,75,0,0
24966,-100,4,2,1,50,0,0
25341,-100,4,2,1,70,0,0
25716,-100,4,2,1,85,0,0
26091,-100,4,2,1,70,0,0
51591,-100,4,2,1,80,0,0
52341,-100,4,2,1,50,0,0
52528,-100,4,2,1,70,0,0
54591,-100,4,2,1,80,0,0
55341,-100,4,2,1,50,0,0
55528,-100,4,2,1,70,0,0
56091,-100,4,2,1,90,0,0
56466,-100,4,2,1,70,0,0
56841,-100,4,2,1,80,0,0
57216,-100,4,2,1,70,0,0
62091,-100,4,2,1,75,0,0
62466,-100,4,2,1,55,0,0
62841,-100,4,2,1,70,0,0
63216,-100,4,2,1,85,0,0
63591,-100,4,2,1,80,0,1
73341,-100,4,2,1,90,0,1
74091,-100,4,2,1,80,0,1
83091,-100,4,2,1,90,0,1
83841,-100,4,2,1,80,0,1
87591,-100,4,2,1,80,0,0
99684,-100,4,2,1,20,0,0

[Colours]
Combo1 : 149,239,143
Combo2 : 240,183,77
Combo3 : 252,135,202
Combo4 : 216,191,129

[HitObjects]
107,82,591,6,0,P|162:75|293:51,2,170,2|2|2,0:0|0:0|0:0,0:0:0:0:
34,125,2466,1,2,0:0:0:0:
94,184,2841,2,0,P|102:231|103:284,1,85,2|2,0:0|0:0,0:0:0:0:
142,344,3591,6,0,P|100:299|-5:312,2,170,2|2|2,0:0|0:0|0:0,0:0:0:0:
222,373,5466,2,0,P|264:362|315:354,1,85,2|2,0:0|0:0,0:0:0:0:
462,291,6591,6,0,L|473:112,1,170,4|0,1:3|0:0,0:0:0:0:
426,49,7716,1,0,0:0:0:0:
375,117,8091,2,0,P|301:155|201:141,1,170,4|0,1:3|0:0,0:0:0:0:
144,102,9216,1,0,0:0:0:0:
81,159,9591,6,0,P|101:113|41:2,2,170,4|4|4,1:3|1:3|1:3,0:0:0:0:
104,240,11466,2,0,P|38:252|8:260,2,85,4|4|4,0:3|0:3|0:3,0:0:0:0:
175,286,12591,6,0,P|188:254|180:199,1,85,4|8,0:0|0:0,0:0:0:0:
158,123,13341,2,0,P|192:162|319:155,1,170,0|0,0:0|0:0,0:0:0:0:
348,93,14466,1,8,0:0:0:0:
423,132,14841,2,0,P|430:175|432:229,1,85,8|8,0:0|0:0,0:0:0:0:
393,292,15591,6,0,L|303:283,1,85,4|8,0:0|0:0,0:0:0:0:
236,328,16341,2,0,P|275:272|246:171,1,170,0|0,0:0|0:0,0:0:0:0:
284,99,17466,2,0,P|280:54|279:2,2,85,8|4|10,0:0|0:3|3:2,0:0:0:0:
340,162,18591,6,0,P|382:157|423:148,1,85,4|8,0:0|0:0,0:0:0:0:
507,136,19341,2,0,P|465:181|481:297,1,170,0|0,0:0|0:0,0:0:0:0:
420,352,20466,1,8,0:0:0:0:
338,326,20841,2,0,P|301:321|246:319,1,85,8|8,0:0|0:0,0:0:0:0:
175,352,21591,6,0,P|132:350|90:344,1,85,4|8,0:0|0:0,0:0:0:0:
5,354,22341,2,0,P|-13:270|48:209,1,170,0|4,0:0|0:3,0:0:0:0:
114,172,23466,2,0,P|121:135|127:78,2,85,8|4|8,0:0|0:3|0:0,0:0:0:0:
114,257,24591,6,0,P|156:251|203:249,1,85,4|4,1:0|0:1,0:0:0:0:
282,259,25341,2,0,P|324:256|366:250,1,85,4|4,0:1|0:1,0:0:0:0:
445,220,26091,6,0,P|466:185|411:66,1,170,4|0,3:2|3:0,0:0:0:0:
356,22,27216,1,8,0:0:0:0:
279,58,27591,2,0,L|106:74,1,170,0|0,3:0|3:0,0:0:0:0:
27,222,29091,6,0,P|6:257|61:376,1,170,0|0,3:0|3:0,0:0:0:0:
131,380,30216,1,8,0:0:0:0:
195,324,30591,2,0,L|368:308,1,170,0|4,3:0|3:0,0:0:0:0:
405,233,31716,1,10,0:0:0:0:
332,188,32091,6,0,L|159:204,1,170,4|0,3:2|3:0,0:0:0:0:
82,174,33216,1,8,0:0:0:0:
17,229,33591,2,0,P|49:168|10:77,1,170,0|0,3:0|3:0,0:0:0:0:
175,27,35091,6,0,P|143:88|182:179,1,170,0|0,3:0|3:0,0:0:0:0:
257,208,36216,1,8,0:0:0:0:
340,190,36591,2,0,P|383:120|359:41,1,170,0|4,1:0|3:0,0:0:0:0:
276,18,37716,2,0,P|250:19|218:27,1,42.5,6|0,3:0|3:0,0:0:0:0:
160,64,38278,6,0,P|171:136|178:205,1,127.5,4|0,0:0|3:0,0:0:0:0:
147,270,39216,1,8,0:0:0:0:
218,314,39591,2,0,P|258:307|399:293,1,170,0|0,3:0|3:0,0:0:0:0:
434,130,41091,6,0,P|394:137|253:151,1,170,0|0,3:0|3:0,0:0:0:0:
190,110,42216,1,8,0:0:0:0:
106,123,42591,2,0,P|58:174|73:269,1,170,0|4,3:0|3:0,0:0:0:0:
109,342,43716,1,10,0:0:0:0:
193,333,44091,6,0,P|200:243|209:150,1,170,4|0,3:2|3:0,0:0:0:0:
194,79,45216,1,8,0:0:0:0:
259,25,45591,2,0,P|331:13|437:84,1,191.25,0|0,3:0|3:0,0:0:0:0:
444,216,47091,6,0,P|403:298|369:379,2,170,0|0|0,3:0|3:0|1:0,0:0:0:0:
453,131,48966,1,8,3:2:0:0:
372,157,49341,2,0,P|320:166|271:172,1,85,6|10,3:0|0:3,0:0:0:0:
202,172,50091,5,12,1:2:0:0:
139,229,50466,2,0,P|148:277|155:326,2,85,8|0|8,0:0|3:0|0:0,0:0:0:0:
120,145,51591,2,0,P|67:112|5:58,2,127.5,4|4|8,1:2|1:2|0:0,0:0:0:0:
202,172,53091,5,0,1:0:0:0:
265,115,53466,2,0,P|256:67|249:18,2,85,8|0|8,0:0|3:0|0:0,0:0:0:0:
284,199,54591,2,0,P|337:232|399:286,2,127.5,4|4|8,1:2|1:2|0:3,0:0:0:0:
202,172,56091,6,0,B|150:171|150:171|123:189|123:189|92:179|92:179|35:197,2,170,4|4|4,1:2|1:2|1:2,0:0:0:0:
271,122,57966,1,8,3:2:0:0:
333,180,58341,2,0,P|368:198|425:197,1,85,0|8,3:0|3:0,0:0:0:0:
497,186,59091,6,0,P|501:138|515:6,2,170,4|4|4,3:2|3:2|1:2,0:0:0:0:
467,265,60966,2,0,P|474:310|480:369,2,85,8|4|8,3:2|1:3|3:2,0:0:0:0:
412,199,62091,6,0,P|369:194|310:193,1,85,4|4,1:0|0:1,0:0:0:0:
243,210,62841,2,0,P|200:208|158:203,1,85,4|4,0:1|0:1,0:0:0:0:
81,238,63591,6,0,P|120:183|89:79,1,170,6|0,3:2|3:0,0:0:0:0:
159,29,64716,1,8,0:0:0:0:
231,73,65091,2,0,L|328:63,1,85,0|8,3:0|0:0,0:0:0:0:
397,41,65841,2,0,P|399:83|404:125,1,85,0|8,3:0|0:0,0:0:0:0:
468,182,66591,6,0,P|488:223|436:336,2,170,0|0|0,3:0|3:0|3:0,0:0:0:0:
404,125,68466,1,8,3:2:0:0:
333,171,68841,2,0,P|293:179|237:187,1,85,4|8,0:3|0:0,0:0:0:0:
175,226,69591,6,0,P|102:210|-1:201,2,170,4|0|0,3:2|3:0|3:0,0:0:0:0:
247,270,71466,1,0,0:0:0:0:
329,249,71841,2,0,L|342:153,1,85,0|8,3:0|0:0,0:0:0:0:
314,83,72591,6,0,P|275:76|234:105,1,85,0|8,3:0|0:0,0:0:0:0:
191,169,73341,2,0,L|61:153,1,127.5,4|4,1:2|1:2,0:0:0:0:
25,137,74091,6,0,P|33:226|40:324,1,170,4|6,3:0|3:0,0:0:0:0:
107,356,75216,1,8,0:0:0:0:
178,309,75591,6,0,B|275:305|238:353|346:342,1,170,6|0,3:2|3:0,0:0:0:0:
418,309,76716,1,8,0:0:0:0:
498,335,77091,2,0,P|512:296|506:235,1,85,0|8,3:0|0:0,0:0:0:0:
458,186,77841,2,0,L|453:89,1,85,0|8,3:0|0:0,0:0:0:0:
406,30,78591,6,0,P|327:15|255:86,2,170,0|0|0,3:0|3:0|3:0,0:0:0:0:
453,101,80466,1,8,3:2:0:0:
392,160,80841,2,0,P|378:201|367:254,1,85,4|8,0:3|0:0,0:0:0:0:
398,321,81591,6,0,P|362:286|239:300,1,170,4|0,3:2|3:0,0:0:0:0:
192,354,82716,1,8,0:0:0:0:
110,329,83091,2,0,P|105:276|96:192,1,127.5,4|4,1:2|1:2,0:0:0:0:
85,161,83841,2,0,P|127:157|183:149,1,85,4|8,3:2|0:0,0:0:0:0:
252,169,84591,6,0,P|272:130|262:78,1,85,0|8,3:0|0:0,0:0:0:0:
322,24,85341,2,0,P|365:30|411:5,1,85,0|8,3:0|0:0,0:0:0:0:
476,54,86091,2,0,P|482:97|521:133,1,85,0|8,3:0|3:2,0:0:0:0:
495,210,86841,2,0,P|455:229|433:277,1,85,6|8,3:0|0:0,0:0:0:0:
352,276,87591,6,0,P|321:244|201:240,1,170,4|2,0:0|1:3,0:0:0:0:
142,299,88716,1,8,0:0:0:0:
73,248,89091,2,0,P|61:185|33:65,1,170,0|4,1:0|1:3,0:0:0:0:
202,43,90591,6,0,P|242:82|360:66,1,170,2|0,1:3|1:0,0:0:0:0:
405,10,91716,1,8,0:0:0:0:
481,46,92091,2,0,P|471:132|462:229,1,170,0|4,1:0|0:3,0:0:0:0:
381,238,93216,1,10,0:3:0:0:
300,209,93591,6,0,P|275:214|122:254,1,170,4|2,1:2|1:3,0:0:0:0:
50,236,94716,1,8,0:0:0:0:
16,314,95091,2,0,P|46:355|158:353,1,170,0|4,1:0|1:3,0:0:0:0:
201,190,96591,6,0,P|193:117|181:14,2,170,6|2|6,1:3|1:3|1:2,0:0:0:0:
259,252,98466,1,10,1:2:0:0:
317,190,98841,2,0,P|396:180|465:251,1,170,2|4,1:2|1:0,0:0:0:0:
256,192,99684,12,0,101091,0:0:0:0:
