osu file format v14

[General]
AudioFilename: audio.mp3
AudioLeadIn: 0
PreviewTime: 48401
Countdown: 0
SampleSet: Soft
StackLeniency: 0.7
Mode: 0
LetterboxInBreaks: 0
WidescreenStoryboard: 0

[Editor]
Bookmarks: 19125,149470,156091
DistanceSpacing: 1.2
BeatDivisor: 4
GridSize: 4
TimelineZoom: 2.599999

[Metadata]
Title:Ashita Chiru Sadame nara
TitleUnicode:明日散る運命なら
Artist:Yuuhei Satellite feat. Marcia
ArtistUnicode:幽閉サテライト feat. Marcia
Creator:Patchouli-R
Version:yf's Lunatic
Source:東方風神録 ~ Mountain of Faith.
Tags:Iceon 紅葉八朔 京田スズカ かわ 幻想万華鏡 厄神様の通り道 ~ Dark Road ZUN yf_bmp 東方Project Touhou Fuujinroku Kagiyama Hina 鍵山雛 kurukuru 18th 博麗神社例大祭 japanese j-pop jpop pop video game mof th10 wind god chronicles team shanghai alice yakujinsama no toorimichi road of the misfortune god fantasy kaleidoscope gensou mangekyou memories of phantasm 幻想万華鏡
BeatmapID:3807186
BeatmapSetID:1852871

[Difficulty]
HPDrainRate:6.3
CircleSize:4
OverallDifficulty:7.3
ApproachRate:8.3
SliderMultiplier:1.7
SliderTickRate:1

[Events]
//Background and Video events
Video,180,"MV.mp4"
0,0,"BG2.jpg",0,0
//Break Periods
2,149670,155387
//Storyboard Layer 0 (Background)
//Storyboard Layer 1 (Fail)
//Storyboard Layer 2 (Pass)
//Storyboard Layer 3 (Foreground)
//Storyboard Layer 4 (Overlay)
//Storyboard Sound Samples

[TimingPoints]
505,413.793103448276,4,2,1,55,1,0
7125,-100,4,2,1,60,0,0
13746,-100,4,2,1,65,0,0
20367,-100,4,2,1,55,0,0
32884,-100,4,2,1,5,0,0
32987,-50,4,2,1,60,0,0
33400,-50,4,2,1,5,0,0
33608,-50,4,2,1,65,0,0
34436,-90.9090909090909,4,2,1,65,0,0
46849,-90.9090909090909,4,2,1,60,0,0
47056,-100,4,2,1,60,0,0
47884,-50,4,2,1,60,0,0
48297,-50,4,2,1,5,0,0
48505,-50,4,2,1,68,0,1
49332,-80,4,2,2,68,0,1
49436,-80,4,2,1,68,0,1
50160,-80,4,2,3,68,0,1
50987,-80,4,2,4,68,0,1
51091,-80,4,2,1,68,0,1
52642,-80,4,2,2,68,0,1
52746,-80,4,2,1,68,0,1
53470,-66.6666666666667,4,2,3,68,0,1
53573,-66.6666666666667,4,2,1,68,0,1
53884,-66.6666666666667,4,2,3,68,0,1
53987,-66.6666666666667,4,2,1,68,0,1
54298,-66.6666666666667,4,2,2,68,0,1
54401,-66.6666666666667,4,2,1,68,0,1
55125,-80,4,2,1,68,0,1
55953,-80,4,2,2,68,0,1
56056,-80,4,2,1,68,0,1
56780,-80,4,2,4,68,0,1
57194,-80,4,2,1,68,0,1
57608,-80,4,2,5,68,0,1
58022,-80,4,2,2,68,0,1
58125,-80,4,2,1,68,0,1
58436,-80,4,2,4,68,0,1
58539,-80,4,2,1,68,0,1
58849,-80,4,2,5,68,0,1
58953,-80,4,2,1,68,0,1
59263,-80,4,2,2,68,0,1
59677,-80,4,2,5,68,0,1
59780,-80,4,2,1,68,0,1
60091,-80,4,2,3,68,0,1
60505,-80,4,2,1,68,0,1
62573,-80,4,2,2,68,0,1
62677,-80,4,2,1,68,0,1
63401,-80,4,2,3,68,0,1
64229,-80,4,2,4,68,0,1
64332,-80,4,2,1,68,0,1
65884,-80,4,2,2,68,0,1
66298,-80,4,2,1,68,0,1
66711,-66.6666666666667,4,2,3,68,0,1
66814,-66.6666666666667,4,2,1,68,0,1
67125,-66.6666666666667,4,2,3,68,0,1
67228,-66.6666666666667,4,2,1,68,0,1
67539,-66.6666666666667,4,2,2,68,0,1
67642,-66.6666666666667,4,2,1,68,0,1
68367,-80,4,2,1,68,0,1
69194,-80,4,2,2,68,0,1
69297,-80,4,2,1,68,0,1
70022,-80,4,2,4,68,0,1
70436,-80,4,2,1,68,0,1
70849,-80,4,2,5,68,0,1
71263,-80,4,2,2,68,0,1
71366,-80,4,2,1,68,0,1
71677,-80,4,2,4,68,0,1
71780,-80,4,2,1,68,0,1
72091,-80,4,2,5,68,0,1
72194,-80,4,2,1,68,0,1
72505,-80,4,2,2,68,0,1
72918,-80,4,2,5,68,0,1
73021,-80,4,2,1,68,0,1
73332,-80,4,2,3,68,0,1
73746,-80,4,2,1,68,0,1
74573,-100,4,2,1,68,0,1
74987,-100,4,2,1,60,0,0
88229,-100,4,2,1,65,0,0
89056,-90.9090909090909,4,2,1,65,0,0
101470,-90.9090909090909,4,2,1,60,0,0
101677,-100,4,2,1,60,0,0
102505,-50,4,2,1,60,0,0
102918,-50,4,2,1,5,0,0
103125,-50,4,2,1,68,0,1
103953,-80,4,2,2,68,0,1
104056,-80,4,2,1,68,0,1
104780,-80,4,2,3,68,0,1
105608,-80,4,2,4,68,0,1
105711,-80,4,2,1,68,0,1
107263,-80,4,2,2,68,0,1
107367,-80,4,2,1,68,0,1
108091,-66.6666666666667,4,2,3,68,0,1
108193,-66.6666666666667,4,2,1,68,0,1
108505,-66.6666666666667,4,2,3,68,0,1
108607,-66.6666666666667,4,2,1,68,0,1
108918,-66.6666666666667,4,2,2,68,0,1
109021,-66.6666666666667,4,2,1,68,0,1
109746,-80,4,2,1,68,0,1
110573,-80,4,2,2,68,0,1
110676,-80,4,2,1,68,0,1
111401,-80,4,2,4,68,0,1
111815,-80,4,2,1,68,0,1
112229,-80,4,2,5,68,0,1
112642,-80,4,2,2,68,0,1
112745,-80,4,2,1,68,0,1
113056,-80,4,2,4,68,0,1
113159,-80,4,2,1,68,0,1
113470,-80,4,2,5,68,0,1
113573,-80,4,2,1,68,0,1
113884,-80,4,2,2,68,0,1
114298,-80,4,2,5,68,0,1
114400,-80,4,2,1,68,0,1
114711,-80,4,2,3,68,0,1
115125,-80,4,2,1,68,0,1
117194,-80,4,2,2,68,0,1
117297,-80,4,2,1,68,0,1
118022,-80,4,2,3,68,0,1
118849,-80,4,2,4,68,0,1
118952,-80,4,2,1,68,0,1
120505,-80,4,2,2,68,0,1
120918,-80,4,2,1,68,0,1
121332,-66.6666666666667,4,2,3,68,0,1
121434,-66.6666666666667,4,2,1,68,0,1
121746,-66.6666666666667,4,2,3,68,0,1
121848,-66.6666666666667,4,2,1,68,0,1
122160,-66.6666666666667,4,2,2,68,0,1
122262,-66.6666666666667,4,2,1,68,0,1
122987,-80,4,2,1,68,0,1
123815,-80,4,2,2,68,0,1
123917,-80,4,2,1,68,0,1
124642,-80,4,2,4,68,0,1
125056,-80,4,2,1,68,0,1
125470,-80,4,2,5,68,0,1
125884,-80,4,2,2,68,0,1
125986,-80,4,2,1,68,0,1
126298,-80,4,2,4,68,0,1
126400,-80,4,2,1,68,0,1
126711,-80,4,2,5,68,0,1
126814,-80,4,2,1,68,0,1
127125,-80,4,2,2,68,0,1
127539,-80,4,2,5,68,0,1
127641,-80,4,2,1,68,0,1
127953,-80,4,2,3,68,0,1
128367,-80,4,2,1,68,0,1
129194,-100,4,2,1,68,0,1
129608,-100,4,2,1,60,0,0
136124,-100,4,2,1,5,0,0
136229,-90.9090909090909,4,2,1,65,0,0
140367,-80,4,2,1,65,0,0
141194,-66.6666666666667,4,2,1,65,0,0
142849,-90.9090909090909,4,2,1,65,0,0
146573,-76.9230769230769,4,2,1,65,0,0
147401,-66.6666666666667,4,2,1,65,0,0
149470,-66.6666666666667,4,2,1,60,0,0
156091,-90.9090909090909,4,2,1,65,0,0
160229,-76.9230769230769,4,2,1,65,0,0
161056,-71.4285714285714,4,2,1,65,0,0
162298,-62.5,4,2,1,65,0,0
162505,-54.054054054054,4,2,1,65,0,0
162711,-47.6190476190476,4,2,1,65,0,0
164262,-47.6190476190476,4,2,1,5,0,0
164367,-47.6190476190476,4,2,1,65,0,0
165918,-47.6190476190476,4,2,1,5,0,0
166022,-47.6190476190476,4,2,1,65,0,0
166746,-47.6190476190476,4,2,1,5,0,0
166849,-47.6190476190476,4,2,1,65,0,0
167159,-47.6190476190476,4,2,1,5,0,0
167263,-47.6190476190476,4,2,1,65,0,0
167573,-47.6190476190476,4,2,1,5,0,0
167677,-47.6190476190476,4,2,1,60,0,0
167884,-100,4,2,1,60,0,0
168711,-50,4,2,1,60,0,0
169124,-50,4,2,1,5,0,0
169332,-50,4,2,1,68,0,1
170160,-50,4,2,2,68,0,1
170987,-50,4,2,3,68,0,1
171815,-80,4,2,4,68,0,1
171918,-80,4,2,1,68,0,1
173470,-80,4,2,2,68,0,1
173573,-80,4,2,1,68,0,1
174298,-66.6666666666667,4,2,3,68,0,1
174400,-66.6666666666667,4,2,1,68,0,1
174711,-66.6666666666667,4,2,3,68,0,1
174814,-66.6666666666667,4,2,1,68,0,1
175125,-66.6666666666667,4,2,2,68,0,1
175228,-66.6666666666667,4,2,1,68,0,1
175953,-80,4,2,1,68,0,1
176780,-80,4,2,2,68,0,1
177194,-80,4,2,1,68,0,1
177608,-80,4,2,4,68,0,1
178022,-80,4,2,1,68,0,1
178436,-80,4,2,5,68,0,1
178538,-80,4,2,1,68,0,1
178849,-80,4,2,2,68,0,1
178952,-80,4,2,1,68,0,1
179263,-80,4,2,4,68,0,1
179366,-80,4,2,1,68,0,1
179677,-80,4,2,5,68,0,1
179780,-80,4,2,1,68,0,1
180091,-80,4,2,2,68,0,1
180505,-80,4,2,5,68,0,1
180607,-80,4,2,1,68,0,1
180918,-80,4,2,3,68,0,1
181332,-80,4,2,1,68,0,1
183401,-80,4,2,2,68,0,1
184229,-80,4,2,3,68,0,1
185056,-80,4,2,4,68,0,1
185159,-80,4,2,1,68,0,1
186711,-80,4,2,2,68,0,1
187125,-80,4,2,1,68,0,1
187539,-66.6666666666667,4,2,3,68,0,1
187641,-66.6666666666667,4,2,1,68,0,1
187953,-66.6666666666667,4,2,3,68,0,1
188055,-66.6666666666667,4,2,1,68,0,1
188367,-66.6666666666667,4,2,2,68,0,1
188469,-66.6666666666667,4,2,1,68,0,1
189194,-80,4,2,1,68,0,1
190022,-80,4,2,2,68,0,1
190436,-80,4,2,1,68,0,1
190849,-80,4,2,4,68,0,1
191263,-80,4,2,1,68,0,1
191677,-80,4,2,5,68,0,1
191779,-80,4,2,1,68,0,1
192091,-80,4,2,2,68,0,1
192193,-80,4,2,1,68,0,1
192505,-80,4,2,4,68,0,1
192607,-80,4,2,1,68,0,1
192918,-80,4,2,5,68,0,1
193021,-80,4,2,1,68,0,1
193332,-80,4,2,2,68,0,1
193746,-80,4,2,5,68,0,1
193848,-80,4,2,1,68,0,1
194160,-80,4,2,3,68,0,1
194573,-80,4,2,1,68,0,1
195401,-100,4,2,1,68,0,1
195815,-100,4,2,1,60,0,0
199125,444.444444444444,4,2,1,50,1,0
199125,-133.333333333333,4,2,1,50,0,0
200013,705.882352941176,4,2,1,50,1,0
200013,-133.333333333333,4,2,1,50,0,0
201424,705.882352941176,4,2,1,50,1,0
201776,-133.333333333333,4,2,1,50,0,0
203482,784.313725490196,4,2,1,50,1,0
203482,-133.333333333333,4,2,1,50,0,0
204217,-133.333333333333,4,2,1,5,0,0
204266,-133.333333333333,4,2,1,50,0,0
209756,-133.333333333333,4,2,1,5,0,0

[Colours]
Combo1 : 0,213,0
Combo2 : 213,0,0
Combo3 : 0,128,255
Combo4 : 255,128,0

[HitObjects]
40,112,505,5,0,2:0:0:0:
104,168,711,1,0,2:0:0:0:
24,196,918,2,0,L|60:8,1,170,2|0,2:0|2:0,0:0:0:0:
124,80,1539,1,0,2:0:0:0:
204,56,1746,2,0,L|168:244,1,170,2|0,2:0|2:0,0:0:0:0:
156,308,2367,5,0,2:0:0:0:
228,352,2573,1,2,2:0:0:0:
340,162,2987,1,0,2:0:0:0:
356,76,3194,1,0,2:0:0:0:
284,32,3401,1,2,2:0:0:0:
368,352,3815,5,0,2:0:0:0:
424,288,4022,1,0,2:0:0:0:
452,368,4229,2,0,L|264:332,1,170,2|0,2:0|2:0,0:0:0:0:
336,268,4849,1,0,2:0:0:0:
312,188,5056,2,0,L|500:224,1,170,2|0,2:0|2:0,0:0:0:0:
512,140,5677,5,0,2:0:0:0:
456,76,5884,1,2,2:0:0:0:
34,165,6298,1,0,2:0:0:0:
0,248,6505,1,0,2:0:0:0:
56,308,6711,1,2,2:0:0:0:
88,232,6918,1,0,2:0:0:0:
224,300,7125,6,0,P|160:228|92:228,1,170,4|2,1:0|2:0,0:0:0:0:
34,165,7746,1,0,2:0:0:0:
164,128,7953,1,0,2:0:0:0:
84,96,8160,2,0,P|84:65|100:12,2,85,0|2|0,2:0|2:0|2:0,0:0:0:0:
180,216,8780,6,0,L|264:232,1,85,4|0,1:0|2:0,0:0:0:0:
324,92,9194,2,0,L|240:76,1,85,2|0,2:0|2:0,0:0:0:0:
344,256,9608,2,0,L|360:172,2,85,0|0|2,2:0|2:0|2:0,0:0:0:0:
328,340,10229,1,0,2:0:0:0:
512,212,10436,6,0,P|496:280|396:308,1,170,4|2,1:0|2:0,0:0:0:0:
344,256,11056,1,0,2:0:0:0:
304,100,11263,2,0,P|320:32|420:4,1,170,4|2,1:0|2:0,0:0:0:0:
472,56,11884,1,0,2:0:0:0:
308,184,12091,5,4,1:0:0:0:
380,140,12298,1,0,1:0:0:0:
460,168,12505,1,8,1:2:0:0:
484,248,12711,1,0,1:0:0:0:
276,352,12918,6,0,P|270:361|267:372,2,21.25,2|0|2,1:0|1:0|1:0,0:0:0:0:
276,304,13125,1,2,1:0:0:0:
236,280,13229,1,2,1:0:0:0:
192,300,13332,1,0,1:0:0:0:
172,296,13436,1,0,1:0:0:0:
152,292,13539,1,0,1:0:0:0:
132,288,13642,1,0,1:0:0:0:
112,284,13746,6,0,P|119:313|103:377,1,85,4|0,1:0|2:0,0:0:0:0:
12,200,14160,2,0,P|28:152|76:144,1,85,10|0,1:2|2:0,0:0:0:0:
86,210,14470,1,0,2:0:0:0:
86,210,14573,2,0,P|36:220|5:182,1,85,0|0,1:2|2:0,0:0:0:0:
28,0,14987,2,0,P|76:0|100:76,1,127.5,10|0,1:2|2:0,0:0:0:0:
144,144,15401,6,0,P|174:156|232:148,1,85,0|0,1:0|2:0,0:0:0:0:
380,92,15815,2,0,P|332:108|324:156,1,85,10|0,1:2|2:0,0:0:0:0:
390,166,16125,1,0,2:0:0:0:
390,166,16229,2,0,P|400:116|362:85,1,85,0|0,1:0|2:0,0:0:0:0:
268,4,16642,2,0,P|220:4|196:80,1,127.5,10|0,1:2|2:0,0:0:0:0:
225,150,17056,6,0,P|224:196|217:242,1,85,4|0,1:0|2:0,0:0:0:0:
60,312,17470,2,0,L|152:308,1,85,10|0,1:2|2:0,0:0:0:0:
272,376,17884,2,0,P|273:330|280:284,1,85,0|0,1:0|2:0,0:0:0:0:
348,240,18194,1,0,2:0:0:0:
348,240,18298,2,0,L|432:236,1,85,10|0,1:2|2:0,0:0:0:0:
340,72,18711,6,0,P|360:109|366:150,1,85,4|0,1:0|2:0,0:0:0:0:
145,233,19125,2,0,P|151:274|172:312,1,85,10|0,1:2|2:0,0:0:0:0:
360,336,19539,2,0,L|400:332,2,21.25,2|0|0,1:2|1:0|1:0,0:0:0:0:
284,344,19746,1,0,1:0:0:0:
432,235,19953,1,10,1:0:0:0:
192,152,20160,1,8,1:2:0:0:
404,16,20367,5,2,2:0:0:0:
412,92,20573,1,0,2:0:0:0:
340,64,20780,1,2,2:0:0:0:
268,84,20987,1,0,2:0:0:0:
192,76,21194,6,0,P|120:55|56:52,2,127.5,2|0|0,2:0|2:0|2:0,0:0:0:0:
16,108,22022,2,0,P|33:180|63:237,2,127.5,2|0|0,2:0|2:0|2:0,0:0:0:0:
132,244,22849,2,0,P|186:192|220:138,2,127.5,2|0|0,2:0|2:0|2:0,0:0:0:0:
0,360,23677,5,2,2:0:0:0:
72,336,23884,1,0,2:0:0:0:
144,356,24091,1,2,2:0:0:0:
196,300,24298,1,0,2:0:0:0:
219,371,24505,2,0,P|283:370|346:362,2,127.5,2|0|0,2:0|2:0|2:0,0:0:0:0:
276,292,25332,6,0,B|260:212|300:204|285:123,2,170,2|0|2,2:0|2:0|2:0,0:0:0:0:
512,352,26573,1,0,2:0:0:0:
436,364,26780,1,0,2:0:0:0:
392,300,26987,6,0,P|363:254|232:200,1,170,2|0,2:0|2:0,0:0:0:0:
263,201,28022,1,0,2:0:0:0:
332,236,28229,1,2,2:0:0:0:
392,188,28436,1,0,2:0:0:0:
368,116,28642,6,0,P|376:81|396:32,1,85,0|0,2:0|2:0,0:0:0:0:
264,0,29056,2,0,P|255:34|236:84,1,85,2|0,2:0|2:0,0:0:0:0:
180,132,29470,1,0,2:0:0:0:
144,384,29884,1,2,2:0:0:0:
4,348,30091,1,0,2:0:0:0:
80,344,30298,6,0,P|99:222|109:-18,1,340,2|0,2:0|2:0,0:0:0:0:
180,132,31332,1,2,2:0:0:0:
176,208,31539,1,0,2:0:0:0:
280,308,31746,1,2,2:0:0:0:
276,384,31953,1,0,2:0:0:0:
256,192,32056,12,0,32884,2:0:0:0:
308,148,32987,6,0,P|414:149|303:162,1,340,0|0,3:0|2:0,0:0:0:0:
104,36,33608,5,4,1:0:0:0:
60,108,33815,1,0,2:0:0:0:
64,192,34022,1,8,1:2:0:0:
112,260,34229,1,0,2:0:0:0:
192,280,34436,2,0,P|242:271|364:264,1,140.25,0|0,1:0|2:0,0:0:0:0:
360,280,34849,1,8,1:2:0:0:
276,360,35056,1,0,2:0:0:0:
264,184,35263,5,0,1:0:0:0:
336,140,35470,1,0,2:0:0:0:
420,144,35677,1,8,1:2:0:0:
488,192,35884,1,0,2:0:0:0:
508,271,36091,2,0,P|508:312|495:403,1,93.5,0|0,1:0|2:0,0:0:0:0:
472,376,36401,1,0,1:0:0:0:
264,184,36711,1,0,1:0:0:0:
408,36,36918,5,4,1:0:0:0:
452,108,37125,1,0,2:0:0:0:
448,192,37332,1,8,1:2:0:0:
400,260,37539,1,0,2:0:0:0:
320,280,37746,2,0,P|270:271|148:264,1,140.25,0|0,1:0|2:0,0:0:0:0:
152,280,38160,1,8,1:2:0:0:
236,360,38367,1,0,2:0:0:0:
248,184,38573,5,4,1:0:0:0:
320,140,38780,1,0,2:0:0:0:
404,144,38987,1,8,1:2:0:0:
472,192,39194,1,0,2:0:0:0:
480,108,39401,2,0,P|480:67|493:-24,1,93.5,4|0,1:0|2:0,0:0:0:0:
456,0,39711,1,0,1:0:0:0:
244,96,40022,1,0,1:0:0:0:
136,4,40229,6,0,B|96:-21|59:0|74:18|41:40|8:23,1,140.25,4|0,1:0|2:0,0:0:0:0:
0,100,40642,2,0,P|44:104|96:84,1,93.5,14|0,1:2|2:0,0:0:0:0:
176,244,41056,2,0,P|140:272|100:360,1,140.25,0|0,1:0|2:0,0:0:0:0:
172,380,41470,2,0,P|204:347|221:303,1,93.5,14|0,1:2|2:0,0:0:0:0:
0,176,41884,6,0,L|160:180,1,140.25,0|0,1:0|2:0,0:0:0:0:
216,180,42298,2,0,P|212:148|228:88,1,93.5,14|0,1:2|2:0,0:0:0:0:
480,8,42711,2,0,P|478:74|404:72,1,140.25,0|0,1:0|2:0,0:0:0:0:
344,60,43125,2,0,P|343:106|369:143,1,93.5,14|0,1:2|2:0,0:0:0:0:
455,316,43539,5,4,1:0:0:0:
383,360,43746,1,0,2:0:0:0:
299,356,43953,1,8,1:2:0:0:
231,308,44160,1,0,2:0:0:0:
211,228,44367,2,0,P|220:178|227:56,1,140.25,0|0,1:0|2:0,0:0:0:0:
211,60,44780,1,8,1:2:0:0:
131,144,44987,1,0,2:0:0:0:
312,168,45194,5,4,1:0:0:0:
120,232,45401,1,0,1:0:0:0:
227,88,45608,1,0,1:0:0:0:
291,280,45815,1,0,1:0:0:0:
396,136,46022,1,4,1:0:0:0:
436,212,46229,1,2,3:1:0:0:
456,216,46332,1,0,1:0:0:0:
476,220,46436,1,2,1:2:0:0:
372,268,46642,1,2,2:1:0:0:
228,336,46849,5,4,3:2:0:0:
148,312,47056,2,0,L|104:316,2,42.5,0|0|0,1:2|1:2|1:2,0:0:0:0:
252,124,47470,1,0,1:0:0:0:
44,72,47677,1,0,1:0:0:0:
47,57,47884,6,0,P|153:58|42:71,1,340,0|0,1:0|2:0,0:0:0:0:
235,327,48505,5,6,1:3:0:0:
248,238,48711,1,2,2:0:0:0:
187,171,48918,1,8,1:0:0:0:
96,176,49125,1,2,2:0:0:0:
24,128,49332,2,0,P|0:56|49:0,2,159.375,2|2|2,1:3|2:0|2:0,0:0:0:0:
96,176,50160,5,2,1:3:0:0:
0,368,50470,1,2,2:0:0:0:
264,328,50780,1,2,2:0:0:0:
204,260,50987,2,0,P|127:274|87:340,2,159.375,2|2|2,1:3|2:0|2:0,0:0:0:0:
264,328,51815,5,2,1:3:0:0:
176,348,52022,1,2,2:0:0:0:
243,168,52229,2,0,P|209:208|204:261,1,106.25,8|2,1:3|2:0,0:0:0:0:
348,364,52642,2,0,P|416:345|525:328,1,159.375,2|0,1:3|2:0,0:0:0:0:
503,330,53056,2,0,P|484:278|477:225,1,106.25,8|2,1:0|2:0,0:0:0:0:
328,80,53470,6,0,P|384:141|375:248,1,191.25,2|0,1:3|2:0,0:0:0:0:
316,310,53884,2,0,P|235:329|147:266,1,191.25,10|0,1:3|2:0,0:0:0:0:
123,185,54298,2,0,P|147:105|245:60,1,191.25,2|0,1:3|2:0,0:0:0:0:
328,80,54711,1,8,1:2:0:0:
256,192,54918,1,0,1:0:0:0:
378,244,55125,6,0,P|442:197|477:51,1,212.5,6|8,1:3|1:0,0:0:0:0:
372,0,55746,1,0,2:0:0:0:
328,80,55953,2,0,P|276:85|225:72,1,106.25,2|2,1:3|2:0,0:0:0:0:
92,0,56367,2,0,P|123:43|137:94,1,106.25,8|2,1:2|2:0,0:0:0:0:
60,260,56780,5,2,1:3:0:0:
149,273,56987,1,2,2:0:0:0:
216,212,57194,1,8,1:3:0:0:
211,121,57401,1,2,2:0:0:0:
259,49,57608,1,2,1:3:0:0:
259,49,58022,2,0,P|324:44|387:74,1,106.25,10|2,1:3|2:0,0:0:0:0:
512,124,58436,6,0,P|433:135|355:154,1,159.375,6|0,1:3|2:0,0:0:0:0:
356,154,58849,2,0,P|367:203|369:273,1,106.25,10|0,1:3|2:0,0:0:0:0:
196,268,59263,1,2,1:3:0:0:
160,372,59470,1,2,2:0:0:0:
112,296,59677,2,0,P|54:274|0:260,1,106.25,10|2,1:3|2:0,0:0:0:0:
125,190,60091,5,6,1:3:0:0:
213,170,60298,1,2,2:1:0:0:
285,225,60505,1,8,1:2:0:0:
288,316,60711,1,2,2:1:0:0:
344,384,60918,1,0,1:0:0:0:
352,384,61022,1,2,2:1:0:0:
360,384,61125,1,2,2:1:0:0:
368,384,61229,1,2,2:0:0:0:
376,384,61332,1,8,1:0:0:0:
384,256,61539,1,0,1:0:0:0:
265,299,61746,5,6,1:3:0:0:
252,210,61953,1,2,2:0:0:0:
313,143,62160,1,8,1:0:0:0:
404,148,62367,1,2,2:0:0:0:
488,128,62573,2,0,P|512:56|463:0,2,159.375,2|2|2,1:3|2:0|2:0,0:0:0:0:
404,148,63401,5,2,1:3:0:0:
512,368,63711,1,2,2:0:0:0:
248,328,64022,1,2,2:0:0:0:
392,228,64229,2,0,P|398:307|373:382,2,159.375,2|2|2,1:3|2:0|2:0,0:0:0:0:
200,256,65056,5,2,1:3:0:0:
164,360,65263,1,2,2:0:0:0:
116,284,65470,2,0,P|118:227|148:184,1,106.25,8|2,1:3|2:0,0:0:0:0:
263,59,65884,1,2,1:3:0:0:
263,59,66194,1,2,2:0:0:0:
263,59,66298,2,0,P|308:61|370:128,1,106.25,8|2,1:0|2:0,0:0:0:0:
368,264,66711,6,0,P|307:320|200:311,1,191.25,2|0,1:3|2:0,0:0:0:0:
138,252,67125,2,0,P|119:171|182:83,1,191.25,10|0,1:3|2:0,0:0:0:0:
263,59,67539,2,0,P|343:83|388:181,1,191.25,2|0,1:3|2:0,0:0:0:0:
368,264,67953,1,8,1:3:0:0:
256,192,68160,1,0,1:0:0:0:
204,313,68367,6,0,P|270:358|419:343,1,212.5,6|8,1:3|1:0,0:0:0:0:
484,320,68987,1,0,2:0:0:0:
368,264,69194,2,0,P|363:212|376:161,1,106.25,2|2,1:3|2:0,0:0:0:0:
476,32,69608,2,0,P|481:84|468:135,1,106.25,8|2,1:2|2:0,0:0:0:0:
368,264,70022,5,2,1:3:0:0:
279,270,70229,1,2,2:0:0:0:
217,203,70436,1,8,1:3:0:0:
230,113,70642,1,2,2:0:0:0:
189,37,70849,1,2,1:3:0:0:
189,37,71263,2,0,P|124:32|61:62,1,106.25,10|2,1:3|2:0,0:0:0:0:
0,184,71677,6,0,P|72:210|148:260,1,159.375,6|0,1:3|2:0,0:0:0:0:
142,254,72091,2,0,L|201:360,1,106.25,10|0,1:3|2:0,0:0:0:0:
352,368,72505,1,2,1:3:0:0:
456,332,72711,1,2,2:0:0:0:
412,236,72918,2,0,P|348:224|293:249,1,106.25,10|2,1:3|2:0,0:0:0:0:
188,352,73332,5,6,1:3:0:0:
152,252,73539,1,2,3:1:0:0:
152,252,73642,1,0,3:0:0:0:
152,252,73746,1,8,1:0:0:0:
88,336,73953,1,2,2:1:0:0:
52,236,74160,1,4,1:2:0:0:
52,220,74263,1,0,3:0:0:0:
56,204,74367,1,0,3:0:0:0:
64,192,74470,1,0,3:0:0:0:
76,184,74573,2,0,P|84:160|84:140,3,42.5,0|0|0|0,1:0|3:0|1:0|3:0,0:0:0:0:
48,76,74987,5,4,1:0:0:0:
216,32,75194,1,2,2:0:0:0:
236,36,75298,1,2,2:0:0:0:
256,40,75401,1,8,1:0:0:0:
132,52,75608,1,2,2:0:0:0:
200,168,75815,2,0,L|172:264,1,85,0|0,1:0|2:0,0:0:0:0:
240,304,76125,1,2,2:0:0:0:
240,304,76229,2,0,L|268:208,1,85,8|2,1:0|2:0,0:0:0:0:
464,96,76642,6,0,L|312:116,1,127.5,0|0,1:0|2:0,0:0:0:0:
332,188,77056,1,8,1:0:0:0:
488,168,77263,1,2,2:0:0:0:
380,276,77470,2,0,L|360:372,1,85,0|2,1:0|2:0,0:0:0:0:
444,360,77780,1,2,2:0:0:0:
444,360,77884,1,8,1:0:0:0:
412,180,78091,1,2,2:0:0:0:
292,324,78298,5,0,1:0:0:0:
124,368,78505,1,2,2:0:0:0:
104,364,78608,1,2,2:0:0:0:
84,360,78711,1,8,1:0:0:0:
208,348,78918,1,2,2:0:0:0:
140,232,79125,2,0,L|178:99,1,127.5,0|0,1:0|2:0,0:0:0:0:
208,28,79539,2,0,L|116:44,1,85,8|2,1:0|2:0,0:0:0:0:
0,132,79953,5,0,1:0:0:0:
112,156,80160,1,2,2:0:0:0:
28,208,80367,1,8,1:0:0:0:
140,232,80573,1,2,2:0:0:0:
60,284,80780,1,0,1:0:0:0:
60,284,80884,2,0,L|64:332,1,42.5,0|0,3:0|3:0,0:0:0:0:
28,208,81194,1,8,1:0:0:0:
184,296,81401,1,0,1:0:0:0:
324,184,81608,5,0,1:0:0:0:
332,268,81815,1,0,2:0:0:0:
252,236,82022,1,10,1:2:0:0:
252,236,82436,5,2,1:2:0:0:
404,220,82642,1,0,2:0:0:0:
416,352,82849,1,8,1:0:0:0:
484,280,83056,1,0,2:0:0:0:
340,296,83263,5,2,1:2:0:0:
404,220,83470,1,2,2:0:0:0:
308,124,83677,1,10,1:2:0:0:
372,48,83884,1,2,2:0:0:0:
152,40,84091,1,2,1:2:0:0:
244,16,84298,1,2,2:0:0:0:
68,152,84505,2,0,L|52:260,1,85,8|2,1:0|2:0,0:0:0:0:
36,368,84918,5,2,1:2:0:0:
36,368,85125,1,0,2:0:0:0:
156,196,85332,2,0,P|187:251|202:313,1,127.5,10|0,1:2|2:0,0:0:0:0:
164,384,85746,1,2,1:2:0:0:
164,384,85953,1,0,2:0:0:0:
268,228,86160,2,0,P|331:231|389:256,1,127.5,10|0,1:2|2:0,0:0:0:0:
456,308,86573,6,0,P|466:266|480:226,1,85,2|0,1:2|2:0,0:0:0:0:
336,20,86987,2,0,P|349:60|360:101,1,85,8|2,1:0|2:0,0:0:0:0:
268,228,87401,1,2,1:2:0:0:
256,248,87505,1,0,3:0:0:0:
244,268,87608,1,0,3:0:0:0:
60,276,87815,2,0,L|88:232,1,42.5,8|0,1:0|2:0,0:0:0:0:
180,224,88022,2,0,L|152:268,1,42.5,0|0,1:0|2:0,0:0:0:0:
104,348,88229,5,4,1:0:0:0:
64,192,88436,1,0,2:0:0:0:
60,276,88642,1,8,1:2:0:0:
112,124,88849,1,0,2:0:0:0:
192,104,89056,2,0,P|242:113|364:120,1,140.25,0|0,1:0|2:0,0:0:0:0:
360,104,89470,1,8,1:2:0:0:
276,24,89677,1,0,2:0:0:0:
264,200,89884,5,0,1:0:0:0:
420,240,90091,1,0,2:0:0:0:
336,244,90298,1,8,1:2:0:0:
488,192,90505,1,0,2:0:0:0:
508,113,90711,2,0,P|508:72|495:-19,1,93.5,0|0,1:0|2:0,0:0:0:0:
472,8,91022,1,0,1:0:0:0:
264,200,91332,1,0,1:0:0:0:
408,348,91539,5,4,1:0:0:0:
448,192,91746,1,0,2:0:0:0:
452,276,91953,1,8,1:2:0:0:
400,124,92160,1,0,2:0:0:0:
320,104,92367,2,0,P|270:113|148:120,1,140.25,0|0,1:0|2:0,0:0:0:0:
152,104,92780,1,8,1:2:0:0:
236,24,92987,1,0,2:0:0:0:
248,200,93194,5,4,1:0:0:0:
404,240,93401,1,0,2:0:0:0:
320,244,93608,1,8,1:2:0:0:
472,192,93815,1,0,2:0:0:0:
480,275,94022,2,0,P|480:298|487:347,1,46.75,4|0,1:0|2:0,0:0:0:0:
364,368,94229,1,0,3:0:0:0:
364,368,94332,1,0,1:0:0:0:
364,368,94436,1,0,2:0:0:0:
248,288,94642,1,0,1:0:0:0:
136,376,94849,6,0,B|96:401|59:380|74:362|41:340|8:357,1,140.25,4|0,1:0|2:0,0:0:0:0:
0,280,95263,2,0,P|44:276|96:296,1,93.5,14|0,1:2|2:0,0:0:0:0:
176,140,95677,2,0,P|140:112|100:24,1,140.25,0|0,1:0|2:0,0:0:0:0:
172,4,96091,2,0,P|204:37|221:81,1,93.5,14|0,1:2|2:0,0:0:0:0:
0,208,96505,6,0,L|160:204,1,140.25,0|0,1:0|2:0,0:0:0:0:
216,204,96918,2,0,P|212:236|228:296,1,93.5,14|0,1:2|2:0,0:0:0:0:
480,376,97332,2,0,P|478:310|404:312,1,140.25,0|0,1:0|2:0,0:0:0:0:
344,324,97746,2,0,P|343:278|369:241,1,93.5,14|0,1:2|2:0,0:0:0:0:
455,68,98160,5,4,1:0:0:0:
299,28,98367,1,0,2:0:0:0:
383,24,98573,1,8,1:2:0:0:
231,76,98780,1,0,2:0:0:0:
211,156,98987,2,0,P|220:206|227:328,1,140.25,0|0,1:0|2:0,0:0:0:0:
211,324,99401,1,8,1:2:0:0:
131,240,99608,1,0,2:0:0:0:
312,216,99815,5,4,1:2:0:0:
120,152,100022,1,0,1:0:0:0:
227,296,100229,1,8,1:0:0:0:
291,104,100436,1,0,1:0:0:0:
396,248,100642,1,4,1:0:0:0:
436,172,100849,1,2,3:1:0:0:
456,168,100953,1,0,1:0:0:0:
476,164,101056,1,2,1:2:0:0:
372,116,101263,1,2,2:1:0:0:
184,24,101470,5,4,3:2:0:0:
208,104,101677,2,0,L|204:148,2,42.5,0|0|0,1:2|1:2|1:2,0:0:0:0:
96,288,102091,1,0,1:0:0:0:
304,340,102298,1,0,1:0:0:0:
296,354,102505,6,0,P|190:353|301:340,1,340,0|0,1:0|2:0,0:0:0:0:
277,57,103125,5,6,1:3:0:0:
416,208,103332,1,2,2:0:0:0:
264,146,103539,1,8,1:0:0:0:
325,213,103746,1,2,2:0:0:0:
236,236,103953,2,0,P|164:260|108:211,2,159.375,2|2|2,1:3|2:0|2:0,0:0:0:0:
104,88,104780,5,2,1:3:0:0:
32,316,105091,1,2,2:0:0:0:
272,324,105401,1,2,2:0:0:0:
236,236,105608,2,0,P|250:159|316:119,2,159.375,2|2|2,1:3|2:0|2:0,0:0:0:0:
116,340,106436,5,2,1:3:0:0:
132,252,106642,1,2,2:0:0:0:
272,324,106849,2,0,P|324:329|363:363,1,106.25,8|2,1:3|2:0,0:0:0:0:
512,128,107263,2,0,P|493:196|476:305,1,159.375,2|0,1:3|2:0,0:0:0:0:
478,283,107677,2,0,P|426:264|373:257,1,106.25,8|2,1:0|2:0,0:0:0:0:
165,289,108091,6,0,P|191:199|144:119,1,191.25,2|0,1:3|2:0,0:0:0:0:
216,64,108505,2,0,P|280:131|374:131,1,191.25,10|0,1:3|2:0,0:0:0:0:
384,220,108918,2,0,P|294:243|248:323,1,191.25,2|0,1:3|2:0,0:0:0:0:
165,289,109332,1,8,1:2:0:0:
256,192,109539,1,0,1:0:0:0:
144,120,109746,6,0,P|227:56|331:54,1,212.5,6|8,1:3|1:0,0:0:0:0:
508,72,110367,1,0,2:0:0:0:
417,89,110573,2,0,P|430:140|425:192,1,106.25,2|2,1:3|2:0,0:0:0:0:
284,320,110987,2,0,P|327:289|378:275,1,106.25,8|2,1:2|2:0,0:0:0:0:
512,356,111401,5,2,1:3:0:0:
425,193,111608,1,2,2:0:0:0:
424,356,111815,1,8,1:3:0:0:
378,275,112022,1,2,2:0:0:0:
288,376,112229,1,2,1:3:0:0:
288,376,112642,2,0,P|237:362|184:368,1,106.25,10|2,1:3|2:0,0:0:0:0:
0,260,113056,6,0,P|79:249|157:230,1,159.375,6|0,1:3|2:0,0:0:0:0:
156,230,113470,2,0,P|145:181|143:111,1,106.25,10|0,1:3|2:0,0:0:0:0:
316,116,113884,1,2,1:3:0:0:
352,12,114091,1,2,2:0:0:0:
460,196,114298,2,0,P|428:238|401:284,1,106.25,10|2,1:3|2:0,0:0:0:0:
262,303,114711,5,6,1:3:0:0:
227,143,114918,1,2,2:1:0:0:
282,215,115125,1,8,1:2:0:0:
136,140,115332,1,2,2:1:0:0:
168,0,115539,1,0,1:0:0:0:
160,0,115642,1,2,2:1:0:0:
152,0,115746,1,2,2:1:0:0:
144,0,115849,1,2,2:0:0:0:
136,0,115953,1,8,1:0:0:0:
24,76,116160,1,0,1:0:0:0:
136,140,116367,5,6,1:3:0:0:
287,1,116573,1,2,2:0:0:0:
225,153,116780,1,8,1:0:0:0:
292,92,116987,1,2,2:0:0:0:
315,181,117194,2,0,P|339:253|290:309,2,159.375,2|2|2,1:3|2:0|2:0,0:0:0:0:
164,308,118022,5,2,1:3:0:0:
392,380,118332,1,2,2:0:0:0:
400,140,118642,1,2,2:0:0:0:
315,181,118849,2,0,P|238:167|198:101,2,159.375,2|2|2,1:3|2:0|2:0,0:0:0:0:
388,232,119677,5,2,1:3:0:0:
296,88,119884,1,2,2:0:0:0:
136,224,120091,2,0,P|176:190|227:187,1,106.25,8|2,1:3|2:0,0:0:0:0:
344,312,120505,1,2,1:3:0:0:
344,312,120815,1,2,2:0:0:0:
344,312,120918,2,0,L|220:352,1,106.25,8|2,1:0|2:0,0:0:0:0:
144,120,121332,6,0,P|236:130|307:70,1,191.25,2|0,1:3|2:0,0:0:0:0:
374,130,121746,2,0,P|319:205|335:296,1,191.25,10|0,1:3|2:0,0:0:0:0:
250,325,122160,2,0,P|212:240|125:208,1,191.25,2|0,1:3|2:0,0:0:0:0:
144,120,122573,1,8,1:3:0:0:
256,192,122780,1,0,1:0:0:0:
307,69,122987,6,0,P|241:114|92:99,1,212.5,6|8,1:3|1:0,0:0:0:0:
28,64,123608,1,0,2:0:0:0:
124,208,123815,2,0,P|129:260|116:311,1,106.25,2|2,1:3|2:0,0:0:0:0:
0,384,124229,2,0,P|-5:332|8:281,1,106.25,8|2,1:2|2:0,0:0:0:0:
272,384,124642,5,2,1:3:0:0:
108,296,124849,1,2,2:0:0:0:
272,296,125056,1,8,1:3:0:0:
191,250,125263,1,2,2:0:0:0:
292,160,125470,1,2,1:3:0:0:
292,160,125884,2,0,P|278:109|284:56,1,106.25,10|2,1:3|2:0,0:0:0:0:
512,32,126298,6,0,P|440:58|364:108,1,159.375,6|0,1:3|2:0,0:0:0:0:
371,103,126711,2,0,L|430:209,1,106.25,10|0,1:3|2:0,0:0:0:0:
352,372,127125,1,2,1:3:0:0:
332,284,127332,1,2,2:0:0:0:
508,364,127539,2,0,P|446:343|411:294,1,106.25,10|2,1:3|2:0,0:0:0:0:
256,192,127953,5,6,1:3:0:0:
160,152,128160,1,2,3:1:0:0:
160,152,128263,1,0,3:0:0:0:
160,152,128367,1,8,1:0:0:0:
244,88,128573,1,2,2:1:0:0:
144,52,128780,1,4,1:2:0:0:
128,52,128884,1,0,3:0:0:0:
112,56,128987,1,0,3:0:0:0:
100,64,129091,1,0,3:0:0:0:
92,76,129194,2,0,P|68:84|48:84,1,42.5,0|0,1:0|3:0,0:0:0:0:
8,196,129401,2,0,P|32:188|52:188,1,42.5,0|0,1:0|3:0,0:0:0:0:
52,284,129608,6,0,P|112:120|228:0,1,340,4|0,2:0|2:0,0:0:0:0:
448,4,130642,1,2,2:0:0:0:
368,52,130849,1,0,2:0:0:0:
352,144,131056,1,2,2:0:0:0:
384,232,131263,6,0,P|401:269|423:307,1,85,2|0,2:0|2:0,0:0:0:0:
304,292,131677,2,0,P|277:342|246:384,1,85,0|2,2:0|2:0,0:0:0:0:
168,352,132091,1,2,2:0:0:0:
168,352,132505,2,0,L|44:364,1,85,0|0,2:0|2:0,0:0:0:0:
254,271,132918,6,0,P|295:121|188:234,1,425,2|0,2:0|2:0,0:0:0:0:
156,332,134160,1,2,2:0:0:0:
256,192,134367,1,0,2:0:0:0:
156,251,134573,6,0,P|323:96|230:304,1,637.5,2|0,2:0|2:0,0:0:0:0:
160,256,136229,6,0,P|162:232|160:208,1,46.75,4|0,1:0|2:0,0:0:0:0:
252,172,136436,2,0,P|250:196|252:220,1,46.75,2|0,2:1|2:0,0:0:0:0:
320,312,136642,2,0,L|368:360,1,46.75,8|0,1:0|2:0,0:0:0:0:
376,244,136849,2,0,L|328:196,1,46.75,2|0,2:1|2:0,0:0:0:0:
448,316,137056,2,0,P|457:272|488:196,1,93.5,0|0,1:0|2:0,0:0:0:0:
424,148,137367,1,2,2:1:0:0:
424,148,137470,2,0,L|412:72,1,46.75,8|0,1:0|2:0,0:0:0:0:
480,36,137677,6,0,P|435:49|320:40,1,140.25,2|0,2:1|2:0,0:0:0:0:
248,36,138091,1,2,2:1:0:0:
248,36,138194,2,0,L|260:112,1,46.75,2|8,2:1|1:0,0:0:0:0:
164,100,138401,2,0,P|152:52|109:18,1,93.5,2|0,2:1|2:0,0:0:0:0:
72,100,138711,2,0,L|56:224,1,93.5,2|0,1:0|2:0,0:0:0:0:
136,244,139022,1,2,1:0:0:0:
136,244,139125,2,0,L|128:306,1,46.75,8|0,2:0|2:0,0:0:0:0:
212,332,139332,2,0,L|204:394,1,46.75,2|0,1:0|2:0,0:0:0:0:
28,376,139539,5,4,1:0:0:0:
80,368,139642,1,2,2:1:0:0:
48,328,139746,2,0,L|-8:336,1,46.75,0|2,2:0|2:0,0:0:0:0:
80,136,139953,1,8,1:0:0:0:
22,144,140056,1,2,2:1:0:0:
58,188,140160,2,0,L|119:179,1,46.75,0|2,2:0|2:0,0:0:0:0:
192,184,140367,2,0,P|236:197|288:244,1,106.25,0|2,1:0|2:1,0:0:0:0:
284,368,140677,1,0,2:0:0:0:
308,328,140780,2,0,P|325:313|356:300,1,53.125,8|0,1:0|2:0,0:0:0:0:
444,328,140987,2,0,P|458:345|472:376,1,53.125,2|0,2:1|2:0,0:0:0:0:
424,240,141194,6,0,P|428:176|480:60,1,191.25,4|0,1:0|2:0,0:0:0:0:
509,215,141608,2,0,P|452:139|372:87,1,191.25,8|2,1:0|2:1,0:0:0:0:
244,8,142022,2,0,P|238:51|216:99,1,85,6|2,1:2|2:1,0:0:0:0:
92,40,142263,2,0,P|95:17|103:0,2,42.5,2|0|2,2:1|1:0|2:1,0:0:0:0:
4,152,142505,1,2,2:1:0:0:
180,212,142642,2,0,P|188:231|191:252,1,42.5,2|2,1:0|2:1,0:0:0:0:
48,376,142849,6,0,L|0:364,1,46.75,4|0,1:0|2:0,0:0:0:0:
44,372,143056,2,0,L|92:384,1,46.75,2|0,2:0|2:0,0:0:0:0:
48,376,143263,2,0,L|0:364,1,46.75,14|0,1:2|2:0,0:0:0:0:
44,372,143470,2,0,L|92:384,1,46.75,2|0,2:0|2:0,0:0:0:0:
48,376,143677,2,0,P|28:312|40:236,1,140.25,0|0,1:0|2:0,0:0:0:0:
67,205,144091,2,0,P|89:214|112:217,1,46.75,12|0,1:2|2:0,0:0:0:0:
204,272,144298,6,0,P|268:252|344:264,1,140.25,2|0,2:1|2:0,0:0:0:0:
436,308,144711,1,2,2:0:0:0:
468,348,144815,1,2,2:1:0:0:
484,300,144918,2,0,P|482:276|474:254,1,46.75,12|0,1:2|2:0,0:0:0:0:
424,172,145125,2,0,P|400:175|377:176,1,46.75,2|0,2:1|2:0,0:0:0:0:
396,24,145332,2,0,P|444:30|488:124,1,140.25,0|0,1:0|2:0,0:0:0:0:
424,172,145746,2,0,P|400:173|377:176,1,46.75,12|0,1:2|2:0,0:0:0:0:
279,108,145953,2,0,P|302:106|325:103,1,46.75,2|0,2:1|2:0,0:0:0:0:
242,184,146160,5,6,1:0:0:0:
207,250,146298,1,2,2:1:0:0:
167,186,146436,1,2,2:0:0:0:
202,119,146573,6,0,P|208:76|231:41,2,73.6666632944744,8|2|2,1:0|2:1|2:0,0:0:0:0:
144,191,146987,5,0,1:0:0:0:
96,286,147125,1,2,2:1:0:0:
39,194,147263,1,2,2:0:0:0:
64,123,147401,6,0,P|54:82|29:48,2,85,8|2|2,1:0|2:1|2:0,0:0:0:0:
4,288,147815,6,0,P|61:278|136:312,1,127.5,4|0,1:0|1:0,0:0:0:0:
200,360,148125,1,2,2:1:0:0:
200,360,148229,2,0,P|208:328|228:288,1,63.75,8|0,1:0|2:0,0:0:0:0:
304,172,148436,2,0,P|296:204|276:244,1,63.75,0|0,1:0|2:0,0:0:0:0:
356,384,148642,6,0,P|344:380|324:376,2,31.875,4|0|0,1:0|1:0|1:0,0:0:0:0:
408,356,148849,1,0,1:0:0:0:
460,328,148953,1,0,1:0:0:0:
512,300,149056,2,0,L|532:210,1,63.75,8|0,1:0|1:0,0:0:0:0:
432,76,149263,1,0,1:0:0:0:
381,102,149367,1,0,1:0:0:0:
409,152,149470,5,4,1:0:0:0:
236,88,156091,6,0,B|282:101|312:71|293:58|319:28|355:36,1,140.25,4|0,1:2|2:0,0:0:0:0:
420,88,156505,2,0,B|437:106|429:131|415:124|407:151|430:173,1,93.5,6|0,0:2|2:0,0:0:0:0:
176,261,156918,2,0,B|166:215|125:204|123:227|84:219|72:184,1,140.25,2|0,2:0|2:0,0:0:0:0:
84,101,157332,2,0,B|92:78|118:73|119:88|146:81|153:50,1,93.5,6|0,0:2|2:0,0:0:0:0:
357,226,157746,6,0,B|322:258|333:300|354:290|367:327|342:355,1,140.25,6|0,1:2|2:0,0:0:0:0:
265,384,158160,2,0,B|241:391|223:371|236:362|216:342|186:351,1,93.5,6|0,0:2|2:0,0:0:0:0:
256,192,158573,2,0,P|295:152|332:141,1,93.5,2|0,2:0|2:0,0:0:0:0:
256,192,158884,1,0,2:0:0:0:
256,192,158987,2,0,P|217:232|180:243,1,93.5,6|0,0:2|2:0,0:0:0:0:
4,332,159401,5,4,1:0:0:0:
191,380,159608,1,0,2:0:0:0:
90,384,159815,1,12,0:2:0:0:
272,322,160022,1,0,2:0:0:0:
301,228,160229,2,0,P|292:178|285:56,1,165.75,4|0,1:0|0:0,0:0:0:0:
296,44,160642,1,8,0:0:0:0:
381,144,160849,1,0,2:0:0:0:
200,168,161056,6,0,P|176:180|144:192,1,59.5,4|0,1:0|2:0,0:0:0:0:
392,232,161263,2,0,P|416:220|448:208,1,59.5,0|0,2:0|2:0,0:0:0:0:
285,88,161470,1,8,0:0:0:0:
232,312,161677,1,0,2:0:0:0:
88,96,161884,2,0,P|74:153|48:208,1,119,4|0,1:0|2:0,0:0:0:0:
52,224,162194,1,12,0:2:0:0:
52,240,162298,2,0,P|92:232|132:236,1,68,8|0,2:0|2:0,0:0:0:0:
216,364,162505,2,0,P|216:323|228:284,1,78.6250000000001,0|0,1:0|2:0,0:0:0:0:
345,263,162711,6,0,B|315:239|321:197|375:102|566:156|584:437|285:514|172:317|256:192|256:192|256:192|256:192|339:66|226:-130|-72:-53|-54:227|136:281|190:186|196:144|166:120,1,1249.49996186829,4|0,1:0|2:0,0:0:0:0:
185,280,164367,6,0,B|209:250|194:210|120:130|-53:225|-8:503|300:510|366:293|256:190|256:190|256:190|256:190|147:86|212:-130|520:-122|566:155|393:250|319:170|303:130|327:100,1,1249.49996186829,4|0,1:0|2:0,0:0:0:0:
184,120,166022,6,0,P|332:258|193:112,1,624.75,4|0,1:0|2:0,0:0:0:0:
154,183,166849,6,0,P|224:287|346:238,1,267.75,4|0,1:0|2:0,0:0:0:0:
357,200,167263,2,0,P|288:97|166:146,1,267.75,4|0,1:0|2:0,0:0:0:0:
36,264,167677,5,4,1:0:0:0:
24,96,167884,2,0,P|28:80|28:48,2,42.5,0|0|0,1:2|1:2|1:2,0:0:0:0:
216,196,168298,1,0,1:0:0:0:
308,4,168505,1,0,1:0:0:0:
193,14,168711,6,0,P|192:120|179:9,1,340,0|0,1:0|2:0,0:0:0:0:
392,236,169332,5,6,1:3:0:0:
300,108,169539,1,2,2:0:0:0:
444,176,169746,1,8,1:0:0:0:
284,184,169953,1,2,2:0:0:0:
404,76,170160,1,2,1:3:0:0:
292,288,170470,1,2,2:0:0:0:
68,208,170780,1,2,2:0:0:0:
108,308,170987,5,2,1:3:0:0:
220,96,171298,1,2,2:0:0:0:
444,176,171608,1,2,2:0:0:0:
324,180,171815,2,0,P|338:103|404:63,2,159.375,2|2|2,1:3|2:0|2:0,0:0:0:0:
404,348,172642,5,2,1:3:0:0:
388,260,172849,1,2,2:0:0:0:
248,332,173056,2,0,P|196:337|157:371,1,106.25,8|2,1:3|2:0,0:0:0:0:
0,128,173470,2,0,P|68:147|177:164,1,159.375,2|0,1:3|2:0,0:0:0:0:
155,162,173884,2,0,P|136:214|129:267,1,106.25,8|2,1:0|2:0,0:0:0:0:
347,289,174298,6,0,P|393:208|367:119,1,191.25,2|0,1:3|2:0,0:0:0:0:
296,64,174711,2,0,P|232:131|138:131,1,191.25,10|0,1:3|2:0,0:0:0:0:
128,220,175125,2,0,P|218:243|264:323,1,191.25,2|0,1:3|2:0,0:0:0:0:
348,312,175539,1,8,1:2:0:0:
280,192,175746,1,0,1:0:0:0:
372,100,175953,6,0,P|435:61|512:24,1,159.375,6|0,1:3|0:0,0:0:0:0:
504,60,176367,1,8,1:0:0:0:
316,24,176573,1,0,2:0:0:0:
368,208,176780,1,2,1:3:0:0:
200,120,176987,1,2,2:0:0:0:
176,208,177194,1,8,1:2:0:0:
112,144,177401,1,2,2:0:0:0:
176,352,177608,5,2,1:3:0:0:
263,189,177815,1,2,2:0:0:0:
264,352,178022,1,8,1:3:0:0:
310,271,178229,1,2,2:0:0:0:
400,372,178436,2,0,P|461:365|488:272,1,159.375,2|0,1:3|0:0,0:0:0:0:
496,244,178849,2,0,P|456:260|392:252,1,106.25,10|2,1:3|2:0,0:0:0:0:
404,8,179263,6,0,P|415:87|434:165,1,159.375,6|0,1:3|2:0,0:0:0:0:
336,123,179677,2,0,P|383:137|445:171,1,106.25,10|0,1:3|2:0,0:0:0:0:
312,32,180091,1,2,1:3:0:0:
512,124,180298,1,2,2:0:0:0:
309,214,180505,2,0,P|278:243|249:302,1,106.25,10|2,1:3|2:0,0:0:0:0:
48,360,180918,6,0,L|68:292,1,53.125,6|0,1:3|0:0,0:0:0:0:
28,232,181125,2,0,L|48:164,1,53.125,2|0,2:1|0:0,0:0:0:0:
112,128,181332,1,8,1:2:0:0:
176,264,181539,1,2,2:1:0:0:
48,360,181746,1,0,1:0:0:0:
52,348,181849,1,2,2:1:0:0:
56,336,181953,1,2,2:1:0:0:
60,324,182056,1,2,2:0:0:0:
64,312,182160,6,0,L|84:244,1,53.125,8|0,1:0|0:0,0:0:0:0:
42,181,182367,2,0,L|62:113,1,53.125,0|0,1:0|0:0,0:0:0:0:
212,328,182573,5,6,1:3:0:0:
340,236,182780,1,2,2:0:0:0:
272,380,182987,1,8,1:0:0:0:
264,220,183194,1,2,2:0:0:0:
372,340,183401,1,2,1:3:0:0:
160,228,183711,1,2,2:0:0:0:
240,4,184022,1,2,2:0:0:0:
140,44,184229,5,2,1:3:0:0:
352,156,184539,1,2,2:0:0:0:
272,380,184849,1,2,2:0:0:0:
268,260,185056,2,0,P|345:274|385:340,2,159.375,2|2|2,1:3|2:0|2:0,0:0:0:0:
176,272,185884,5,2,1:3:0:0:
320,180,186091,1,2,2:0:0:0:
184,20,186298,2,0,P|218:60|221:111,1,106.25,8|2,1:3|2:0,0:0:0:0:
96,228,186711,1,2,1:3:0:0:
96,228,187022,1,2,2:0:0:0:
96,228,187125,2,0,P|98:172|144:108,1,106.25,8|2,1:0|2:0,0:0:0:0:
368,120,187539,6,0,P|297:59|204:69,1,191.25,2|0,1:3|2:0,0:0:0:0:
138,130,187953,2,0,P|193:205|177:296,1,191.25,10|0,1:3|2:0,0:0:0:0:
262,325,188367,2,0,P|300:240|387:208,1,191.25,2|0,1:3|2:0,0:0:0:0:
384,112,188780,1,8,1:3:0:0:
264,172,188987,1,0,1:0:0:0:
200,52,189194,6,0,P|146:23|24:8,1,159.375,6|0,1:3|0:0,0:0:0:0:
32,44,189608,1,8,1:0:0:0:
220,8,189815,1,0,2:0:0:0:
168,192,190022,1,2,1:3:0:0:
368,104,190229,1,2,2:0:0:0:
280,80,190436,1,8,1:2:0:0:
344,16,190642,1,2,2:0:0:0:
300,172,190849,5,2,1:3:0:0:
463,85,191056,1,2,2:0:0:0:
382,219,191263,1,8,1:3:0:0:
464,176,191470,1,2,2:0:0:0:
460,264,191677,2,0,P|520:310|506:384,1,159.375,2|0,1:3|0:0,0:0:0:0:
480,356,192091,2,0,P|440:340|376:348,1,106.25,10|2,1:3|2:0,0:0:0:0:
196,376,192505,6,0,P|185:297|166:219,1,159.375,6|0,1:3|2:0,0:0:0:0:
264,260,192918,2,0,P|217:246|155:212,1,106.25,10|0,1:3|2:0,0:0:0:0:
288,352,193332,1,2,1:3:0:0:
88,260,193539,1,2,2:0:0:0:
291,170,193746,2,0,P|322:141|351:82,1,106.25,10|2,1:3|2:0,0:0:0:0:
170,13,194160,5,6,1:3:0:0:
130,109,194367,1,2,3:1:0:0:
130,109,194470,1,0,3:0:0:0:
130,109,194573,1,8,1:0:0:0:
66,25,194780,1,2,2:1:0:0:
30,125,194987,1,4,1:2:0:0:
30,141,195091,1,0,3:0:0:0:
34,157,195194,1,0,3:0:0:0:
42,169,195298,1,0,3:0:0:0:
54,177,195401,2,0,P|62:201|62:221,1,42.5,0|0,1:0|3:0,0:0:0:0:
174,261,195608,2,0,P|166:237|166:217,1,42.5,0|0,1:0|3:0,0:0:0:0:
4,316,195815,6,0,L|104:304,1,85,4|0,2:1|2:0,0:0:0:0:
168,356,196229,1,2,2:0:0:0:
456,228,196642,1,2,2:0:0:0:
364,240,196849,1,0,2:0:0:0:
420,316,197056,1,2,2:0:0:0:
100,160,197470,5,2,2:0:0:0:
176,196,197677,1,0,2:0:0:0:
108,244,197884,1,2,2:0:0:0:
368,64,198298,1,2,2:0:0:0:
356,140,198505,1,0,2:0:0:0:
428,112,198711,1,2,2:0:0:0:
88,16,199125,6,0,P|80:44|74:78,2,63.7500000000002,2|0|2,2:0|2:0|2:0,0:0:0:0:
424,196,200013,6,0,P|434:226|438:257,2,63.7500000000002,2|0|2,2:0|2:0|2:0,0:0:0:0:
44,264,201424,5,2,2:0:0:0:
100,356,201776,2,0,P|128:348|162:344,1,63.7500000000002,0|0,2:0|2:0,0:0:0:0:
176,236,202482,1,2,2:0:0:0:
476,192,203482,6,0,P|486:110|500:72,1,119.53125,2|0,2:0|2:0,0:0:0:0:
496,48,204266,2,0,L|484:52,2,7.96875000000002,0|2|2,2:0|2:0|2:0,0:0:0:0:
256,192,204462,12,0,209756,2:0:0:0:
