osu file format v14

[General]
AudioFilename: audio.mp3
AudioLeadIn: 0
PreviewTime: 48401
Countdown: 0
SampleSet: Soft
StackLeniency: 0.7
Mode: 0
LetterboxInBreaks: 0
WidescreenStoryboard: 1

[Editor]
Bookmarks: 453,13694,20315,33556,46798,48453,74936,88177,101418,103073,129556,136177,149418,149470,149677,149884,150091,150298,150505,150711,150918,151125,151332,151539,151746,151953,152160,152367,152573,152780,152987,153194,153401,153608,153815,154022,154229,154436,154642,154849,155056,155263,155470,155677,155884,156039,162660,169280,195763,204159
DistanceSpacing: 1
BeatDivisor: 2
GridSize: 16
TimelineZoom: 1.4

[Metadata]
Title:Ashita Chiru Sadame nara
TitleUnicode:明日散る運命なら
Artist:Yuuhei Satellite feat. Marcia
ArtistUnicode:幽閉サテライト feat. Marcia
Creator:Patchouli-R
Version:Normal
Source:東方風神録 ~ Mountain of Faith.
Tags:Iceon 紅葉八朔 京田スズカ かわ 幻想万華鏡 厄神様の通り道 ~ Dark Road ZUN yf_bmp 東方Project Touhou Fuujinroku Kagiyama Hina 鍵山雛 kurukuru 18th 博麗神社例大祭 japanese j-pop jpop pop video game mof th10 wind god chronicles team shanghai alice yakujinsama no toorimichi road of the misfortune god fantasy kaleidoscope gensou mangekyou memories of phantasm 幻想万華鏡
BeatmapID:3812483
BeatmapSetID:1852871

[Difficulty]
HPDrainRate:3
CircleSize:3
OverallDifficulty:4
ApproachRate:5
SliderMultiplier:1.1
SliderTickRate:1

[Events]
//Background and Video events
Video,180,"MV.mp4"
0,0,"BG1.jpg",0,0
//Break Periods
2,149670,154891
//Storyboard Layer 0 (Background)
//Storyboard Layer 1 (Fail)
//Storyboard Layer 2 (Pass)
//Storyboard Layer 3 (Foreground)
//Storyboard Layer 4 (Overlay)
//Storyboard Sound Samples

[TimingPoints]
505,413.793103448276,4,2,1,55,1,0
505,-111.111111111111,4,2,1,55,0,0
918,-100,4,2,1,55,0,0
2160,-111.111111111111,4,2,1,55,0,0
2573,-100,4,2,1,55,0,0
3815,-111.111111111111,4,2,1,55,0,0
4229,-100,4,2,1,55,0,0
7125,-100,4,2,1,60,0,0
13746,-100,4,2,1,65,0,0
20367,-111.111111111111,4,2,1,55,0,0
21194,-100,4,2,1,55,0,0
22022,-111.111111111111,4,2,1,55,0,0
22849,-100,4,2,1,55,0,0
23677,-111.111111111111,4,2,1,55,0,0
24505,-100,4,2,1,55,0,0
30298,-111.111111111111,4,2,1,55,0,0
31125,-100,4,2,1,55,0,0
31953,-111.111111111111,4,2,1,55,0,0
32780,-100,4,2,1,55,0,0
33608,-100,4,2,1,65,0,0
46849,-100,4,2,1,60,0,0
48505,-100,4,2,1,68,0,1
74987,-100,4,2,1,60,0,0
88229,-100,4,2,1,65,0,0
101470,-100,4,2,1,60,0,0
103125,-100,4,2,1,68,0,1
129608,-111.111111111111,4,2,1,60,0,0
136229,-100,4,2,1,65,0,0
149470,-100,4,2,1,60,0,0
159401,-100,4,2,1,65,0,0
169332,-100,4,2,1,68,0,1
195815,-111.111111111111,4,2,1,60,0,0
199125,444.444444444444,4,2,1,50,1,0
199125,-111.111111111111,4,2,1,50,0,0
200013,705.882352941176,4,2,1,50,1,0
200013,-111.111111111111,4,2,1,50,0,0
201424,705.882352941176,4,2,1,50,1,0
201424,-111.111111111111,4,2,1,50,0,0
203482,784.313725490196,4,2,1,50,1,0
203482,-111.111111111111,4,2,1,50,0,0
204462,-100,4,2,1,5,0,0

[Colours]
Combo1 : 0,213,0
Combo2 : 213,0,0
Combo3 : 0,128,255
Combo4 : 255,128,0

[HitObjects]
42,131,505,6,0,L|90:118,1,49.4999984893799,0|0,0:0|0:0,0:0:0:0:
115,70,918,2,0,P|169:68|216:97,1,110,2|0,0:0|0:0,0:0:0:0:
271,191,1746,1,2,0:0:0:0:
175,246,2160,2,0,L|188:294,1,49.4999984893799,0|0,0:0|0:0,0:0:0:0:
160,341,2573,2,0,P|206:369|261:367,1,110,2|0,0:0|0:0,0:0:0:0:
355,311,3401,1,2,0:0:0:0:
300,215,3815,6,0,L|313:168,1,49.4999984893799,0|0,0:0|0:0,0:0:0:0:
368,167,4229,2,0,P|414:139|469:141,1,110,2|0,0:0|0:0,0:0:0:0:
413,44,5056,1,2,0:0:0:0:
306,15,5470,1,0,0:0:0:0:
228,92,5884,2,0,P|257:137|256:192,1,110,2|0,0:0|0:0,0:0:0:0:
65,302,7125,5,4,1:0:0:0:
65,302,8780,5,4,1:0:0:0:
65,302,10436,5,4,1:0:0:0:
8,89,11263,1,4,1:1:0:0:
220,149,12091,2,0,P|273:150|319:121,1,110,4|8,1:0|1:2,0:0:0:0:
290,14,12918,2,0,L|212:-8,1,55,2|2,1:1|1:1,0:0:0:0:
190,28,13332,1,0,1:0:0:0:
83,56,13746,6,0,P|54:101|56:154,1,110,4|10,1:0|1:2,0:0:0:0:
111,251,14573,2,0,P|153:279|208:278,1,110,0|10,1:2|1:2,0:0:0:0:
266,181,15401,2,0,L|343:160,1,55,0|0,1:0|0:0,0:0:0:0:
346,118,15815,2,0,P|390:88|445:89,1,110,10|0,1:2|1:0,0:0:0:0:
497,121,16436,1,0,0:0:0:0:
497,121,16642,1,10,1:2:0:0:
425,204,17056,6,0,L|441:265,1,55,4|0,1:0|0:0,0:0:0:0:
410,304,17470,1,10,1:2:0:0:
314,359,17884,2,0,L|297:296,1,55,0|0,1:0|0:0,0:0:0:0:
250,282,18298,1,10,1:2:0:0:
279,176,18711,2,0,L|217:159,1,55,4|0,1:0|0:0,0:0:0:0:
198,114,19125,1,10,1:2:0:0:
88,114,19539,2,0,L|67:191,1,55,2|10,1:2|1:2,0:0:0:0:
26,197,19953,2,0,L|46:274,1,55,2|10,1:2|1:2,0:0:0:0:
17,294,20367,6,0,P|79:332|152:330,1,148.49999546814,2|0,0:0|0:0,0:0:0:0:
200,357,21194,2,0,P|228:313|227:259,1,110,2|0,0:0|0:0,0:0:0:0:
321,201,22022,2,0,P|323:127|285:65,1,148.49999546814,2|0,0:0|0:0,0:0:0:0:
237,38,22849,1,2,0:0:0:0:
139,89,23263,1,0,0:0:0:0:
29,89,23677,6,0,P|26:162|64:224,1,148.49999546814,2|0,0:0|0:0,0:0:0:0:
65,279,24505,2,0,P|111:306|164:303,1,110,2|0,0:0|0:0,0:0:0:0:
261,247,25332,2,0,P|288:200|287:146,1,110,2|0,0:0|0:0,0:0:0:0:
233,49,26160,1,2,0:0:0:0:
343,49,26573,2,0,L|396:62,1,55,2|0,0:0|0:0,0:0:0:0:
444,34,26987,6,0,P|472:80|470:135,1,110,2|0,0:0|0:0,0:0:0:0:
414,229,27815,1,2,0:0:0:0:
307,257,28229,2,0,L|293:203,1,55,2|0,0:0|0:0,0:0:0:0:
320,155,28642,2,0,P|273:126|219:127,1,110,2|0,0:0|0:0,0:0:0:0:
124,182,29470,1,2,0:0:0:0:
13,182,29884,2,0,L|26:235,1,55,2|0,0:0|0:0,0:0:0:0:
2,286,30298,6,0,P|64:324|137:322,1,148.49999546814,2|0,0:0|0:0,0:0:0:0:
184,350,31125,2,0,P|212:303|210:249,1,110,2|2,0:0|0:0,0:0:0:0:
305,194,31953,2,0,P|307:120|269:58,1,148.49999546814,2|0,0:0|0:0,0:0:0:0:
221,31,32780,2,0,L|130:53,1,55,2|0,0:0|3:0,0:0:0:0:
140,91,33194,1,0,0:0:0:0:
33,64,33608,6,0,P|31:118|59:164,1,110,4|8,1:0|1:2,0:0:0:0:
31,214,34229,1,0,0:0:0:0:
31,214,34436,2,0,L|152:247,1,110,0|8,1:0|1:2,0:0:0:0:
192,336,35263,2,0,P|238:363|292:361,1,110,0|8,1:0|1:2,0:0:0:0:
319,314,35884,1,0,0:0:0:0:
319,314,36091,2,0,P|359:313|394:334,2,82.5,0|0|0,1:1|1:0|1:0,0:0:0:0:
291,266,36918,6,0,P|262:219|262:165,1,110,4|8,1:0|1:2,0:0:0:0:
211,165,37539,1,0,0:0:0:0:
211,165,37746,2,0,L|238:58,1,110,0|8,1:0|1:2,0:0:0:0:
334,6,38573,2,0,P|387:6|433:33,1,110,4|8,1:0|1:2,0:0:0:0:
494,35,39194,1,0,0:0:0:0:
494,35,39401,2,0,L|465:141,1,110,4|8,1:0|1:2,0:0:0:0:
465,251,40229,6,0,L|411:265,1,55,4|0,1:1|0:0,0:0:0:0:
383,311,40642,2,0,L|275:282,1,110,14|0,1:2|1:0,0:0:0:0:
216,190,41470,1,14,1:2:0:0:
311,135,41884,2,0,L|298:79,1,55,0|0,1:0|0:0,0:0:0:0:
326,34,42298,2,0,L|218:5,1,110,14|0,1:2|1:0,0:0:0:0:
124,60,43125,1,14,1:2:0:0:
174,157,43539,6,0,L|120:172,1,55,4|0,1:0|0:0,0:0:0:0:
68,154,43953,2,0,L|38:260,1,110,8|0,1:2|1:0,0:0:0:0:
92,356,44780,1,8,1:2:0:0:
187,301,45194,2,0,P|241:299|287:327,1,110,4|0,1:0|1:0,0:0:0:0:
327,373,45815,1,0,1:0:0:0:
327,373,46022,2,0,L|357:265,1,110,4|2,1:0|1:2,0:0:0:0:
293,176,46849,6,0,P|253:175|218:196,2,82.5,4|0|0,3:2|1:0|1:0,0:0:0:0:
340,148,47677,2,0,L|394:162,1,55,0|0,1:0|1:0,0:0:0:0:
421,210,48091,1,0,0:0:0:0:
498,132,48505,6,0,P|501:79|471:32,1,110,4|8,1:1|1:0,0:0:0:0:
427,63,49125,1,0,2:0:0:0:
427,63,49332,2,0,P|381:34|327:34,1,110,2|8,1:2|1:0,0:0:0:0:
231,90,50160,2,0,P|202:134|204:187,1,110,2|8,1:2|1:0,0:0:0:0:
235,242,50780,1,2,0:2:0:0:
235,242,50987,1,2,1:2:0:0:
330,187,51401,1,8,1:0:0:0:
440,187,51815,6,0,P|468:232|467:286,1,110,0|10,1:0|1:2,0:0:0:0:
498,340,52436,1,0,2:0:0:0:
498,340,52642,2,0,P|451:369|398:367,1,110,0|8,1:0|1:0,0:0:0:0:
319,288,53470,2,0,P|273:259|219:260,1,110,2|10,1:2|1:2,0:0:0:0:
122,315,54298,1,2,1:2:0:0:
36,246,54711,2,0,L|14:168,1,55,8|0,1:0|1:0,0:0:0:0:
66,161,55125,6,0,P|65:106|93:60,1,110,4|8,1:0|1:0,0:0:0:0:
187,5,55953,2,0,L|264:25,1,55,2|0,1:2|0:0,0:0:0:0:
294,6,56367,2,0,L|305:61,1,55,8|0,1:2|2:0,0:0:0:0:
353,87,56780,2,0,P|355:140|326:187,1,110,2|10,1:2|1:2,0:0:0:0:
230,242,57608,1,2,1:2:0:0:
175,146,58022,2,0,L|122:161,1,55,10|0,1:2|2:0,0:0:0:0:
71,137,58436,6,0,P|42:183|44:237,1,110,4|10,1:0|1:2,0:0:0:0:
14,285,59056,1,0,0:0:0:0:
14,285,59263,2,0,P|60:316|114:316,1,110,2|8,1:2|1:2,0:0:0:0:
207,371,60091,2,0,P|235:323|219:235,1,110,4|8,1:0|1:2,0:0:0:0:
261,223,60711,1,2,2:1:0:0:
261,223,60918,2,0,L|339:202,1,55,0|2,1:0|2:1,0:0:0:0:
362,235,61332,1,8,1:0:0:0:
362,345,61746,6,0,P|416:346|461:317,1,110,4|8,1:1|1:0,0:0:0:0:
489,271,62366,1,0,2:0:0:0:
489,271,62573,2,0,P|490:217|462:170,1,110,2|8,1:2|1:0,0:0:0:0:
490,63,63401,2,0,P|444:35|390:36,1,110,2|8,1:2|1:0,0:0:0:0:
343,62,64021,1,0,0:2:0:0:
343,62,64229,1,2,1:2:0:0:
343,172,64642,1,8,1:0:0:0:
248,228,65056,6,0,P|194:230|147:202,1,110,0|8,1:0|1:2,0:0:0:0:
100,229,65677,1,0,0:0:0:0:
100,229,65884,2,0,P|71:183|72:129,1,110,0|8,1:0|1:0,0:0:0:0:
17,32,66711,2,0,P|62:2|116:3,1,110,2|10,1:2|1:2,0:0:0:0:
211,58,67539,1,2,1:2:0:0:
156,153,67953,2,0,L|102:168,1,55,8|0,1:0|1:0,0:0:0:0:
55,139,68367,6,0,P|27:185|27:240,1,110,4|8,1:0|1:0,0:0:0:0:
81,334,69194,2,0,L|158:313,1,55,2|0,1:2|0:0,0:0:0:0:
188,331,69608,2,0,L|202:278,1,55,8|0,1:2|2:0,0:0:0:0:
174,230,70022,2,0,P|220:202|275:202,1,110,2|10,1:2|1:2,0:0:0:0:
369,256,70849,1,2,1:2:0:0:
479,256,71263,2,0,L|492:202,1,55,10|0,1:2|2:0,0:0:0:0:
463,156,71677,6,0,P|465:103|436:57,1,110,4|10,1:0|1:2,0:0:0:0:
384,57,72298,1,0,0:0:0:0:
384,57,72505,2,0,P|336:27|265:44,1,110,2|8,1:2|1:2,0:0:0:0:
229,127,73332,2,0,P|173:128|117:76,1,110,4|8,1:0|1:2,0:0:0:0:
106,54,73953,1,2,2:1:0:0:
106,54,74160,2,0,L|45:37,1,55,0|0,1:0|0:0,0:0:0:0:
5,66,74573,1,8,1:0:0:0:
44,168,74987,6,0,P|44:224|15:270,1,110,4|8,1:0|1:0,0:0:0:0:
48,320,75608,1,0,0:0:0:0:
48,320,75815,2,0,P|92:350|145:347,1,110,2|8,1:2|1:0,0:0:0:0:
241,291,76642,2,0,P|270:243|268:188,1,110,0|8,1:0|1:0,0:0:0:0:
272,140,77263,1,0,0:0:0:0:
272,140,77470,2,0,P|320:113|373:117,1,110,2|8,1:2|1:0,0:0:0:0:
470,174,78298,6,0,P|501:126|499:72,1,110,0|8,1:0|1:0,0:0:0:0:
475,32,78918,1,0,0:0:0:0:
475,32,79125,2,0,P|430:4|376:5,1,110,2|8,1:2|1:0,0:0:0:0:
264,5,79953,2,0,P|235:52|237:106,1,110,0|8,1:0|1:0,0:0:0:0:
291,200,80780,1,0,1:0:0:0:
386,145,81194,2,0,L|439:158,1,55,8|0,1:0|1:0,0:0:0:0:
466,206,81608,6,0,P|469:260|441:305,1,110,0|10,1:0|1:2,0:0:0:0:
344,361,82436,1,2,1:2:0:0:
234,361,82849,2,0,L|220:308,1,55,8|0,1:0|0:0,0:0:0:0:
173,280,83263,2,0,P|171:227|200:181,1,110,2|10,1:2|1:2,0:0:0:0:
296,125,84091,1,2,1:2:0:0:
242,29,84505,2,0,L|188:14,1,55,10|0,1:2|0:0,0:0:0:0:
149,52,84918,6,0,P|93:49|47:78,1,110,2|10,1:2|1:2,0:0:0:0:
0,174,85746,2,0,P|-2:228|25:275,1,110,2|10,1:2|1:2,0:0:0:0:
120,330,86573,2,0,P|174:331|221:304,1,110,2|10,1:2|1:2,0:0:0:0:
276,208,87401,2,0,L|254:130,1,55,2|0,1:2|3:0,0:0:0:0:
213,128,87815,1,10,1:2:0:0:
134,204,88229,6,0,P|105:157|105:103,1,110,4|8,1:0|1:2,0:0:0:0:
81,60,88849,1,0,0:0:0:0:
81,60,89056,2,0,L|219:22,1,110,0|8,1:0|1:2,0:0:0:0:
282,85,89884,2,0,P|336:82|383:109,1,110,0|8,1:0|1:2,0:0:0:0:
438,90,90505,1,0,0:0:0:0:
438,90,90712,2,0,P|458:55|458:15,2,82.5,0|0|0,1:1|1:0|1:0,0:0:0:0:
485,117,91539,6,0,P|487:171|459:218,1,110,4|8,1:0|1:2,0:0:0:0:
489,270,92160,1,0,0:0:0:0:
489,270,92367,2,0,L|365:303,1,110,0|8,1:0|1:2,0:0:0:0:
302,373,93194,2,0,P|274:326|275:272,1,110,4|8,1:0|1:2,0:0:0:0:
304,227,93815,1,0,0:0:0:0:
304,227,94022,2,0,L|164:189,1,110,4|8,1:0|1:2,0:0:0:0:
119,275,94849,6,0,L|58:291,1,55,4|0,1:1|0:0,0:0:0:0:
27,249,95263,2,0,L|54:142,1,110,14|0,1:2|1:0,0:0:0:0:
0,46,96091,1,14,1:2:0:0:
109,46,96505,2,0,L|187:66,1,55,0|0,1:0|0:0,0:0:0:0:
191,107,96918,2,0,L|329:70,1,110,14|0,1:2|1:0,0:0:0:0:
374,0,97746,1,14,1:2:0:0:
480,28,98160,6,0,L|494:80,1,55,4|0,1:0|0:0,0:0:0:0:
467,129,98573,2,0,L|438:234,1,110,8|0,1:2|1:0,0:0:0:0:
359,312,99401,1,8,1:2:0:0:
328,206,99815,2,0,P|280:178|226:180,1,110,4|0,1:0|1:0,0:0:0:0:
184,154,100436,1,0,1:0:0:0:
184,154,100642,2,0,L|151:278,1,110,4|2,1:0|1:2,0:0:0:0:
210,356,101470,6,0,P|250:357|285:336,2,82.5,4|0|0,3:2|1:0|1:0,0:0:0:0:
163,384,102298,2,0,L|109:370,1,55,0|0,1:0|1:0,0:0:0:0:
82,322,102712,1,0,0:0:0:0:
4,244,103125,6,0,P|0:191|30:144,1,110,4|8,1:1|1:0,0:0:0:0:
34,93,103745,1,0,2:0:0:0:
34,93,103953,2,0,P|79:63|133:64,1,110,2|8,1:2|1:0,0:0:0:0:
228,9,104780,2,0,P|257:54|256:108,1,110,2|8,1:2|1:0,0:0:0:0:
227,157,105401,1,2,0:2:0:0:
227,157,105608,1,2,1:2:0:0:
131,212,106022,1,8,1:0:0:0:
186,307,106436,6,0,P|231:336|285:335,1,110,0|10,1:0|1:2,0:0:0:0:
312,289,107056,1,0,2:0:0:0:
312,289,107263,2,0,P|366:292|412:264,1,110,0|8,1:0|1:0,0:0:0:0:
467,167,108091,2,0,P|468:112|438:67,1,110,2|10,1:2|1:2,0:0:0:0:
342,12,108918,1,2,1:2:0:0:
246,67,109332,2,0,L|260:119,1,55,8|0,1:0|1:0,0:0:0:0:
233,167,109746,6,0,P|278:196|332:195,1,110,4|8,1:0|1:0,0:0:0:0:
428,140,110573,2,0,L|442:193,1,55,2|0,1:2|0:0,0:0:0:0:
489,222,110987,2,0,L|472:283,1,55,8|0,1:2|2:0,0:0:0:0:
502,323,111401,2,0,P|455:351|401:348,1,110,2|10,1:2|1:2,0:0:0:0:
305,292,112229,1,2,1:2:0:0:
194,292,112642,2,0,L|131:308,1,55,10|0,1:2|2:0,0:0:0:0:
92,333,113056,6,0,P|63:287|65:233,1,110,4|10,1:0|1:2,0:0:0:0:
39,191,113676,1,0,0:0:0:0:
39,191,113883,2,0,P|85:160|138:160,1,110,2|8,1:2|1:2,0:0:0:0:
234,215,114711,2,0,P|262:167|246:79,1,110,4|8,1:0|1:2,0:0:0:0:
237,71,115331,1,2,2:1:0:0:
237,71,115539,2,0,L|159:50,1,55,0|2,1:0|2:1,0:0:0:0:
156,9,115953,1,8,1:0:0:0:
53,47,116367,6,0,P|24:93|25:147,1,110,4|8,1:1|1:0,0:0:0:0:
55,200,116987,1,0,2:0:0:0:
55,200,117194,2,0,P|101:228|153:227,1,110,2|8,1:2|1:0,0:0:0:0:
251,281,118022,2,0,P|279:236|277:181,1,110,2|8,1:2|1:0,0:0:0:0:
251,139,118641,1,0,0:2:0:0:
251,139,118848,1,2,1:2:0:0:
306,43,119263,1,8,1:0:0:0:
416,43,119677,6,0,P|444:87|442:142,1,110,0|8,1:0|1:2,0:0:0:0:
472,195,120298,1,0,0:0:0:0:
472,195,120505,2,0,P|424:222|371:220,1,110,0|8,1:0|1:0,0:0:0:0:
289,145,121332,2,0,P|260:190|261:245,1,110,2|10,1:2|1:2,0:0:0:0:
316,340,122160,1,2,1:2:0:0:
426,340,122573,2,0,L|446:263,1,55,8|0,1:0|1:0,0:0:0:0:
478,247,122987,6,0,P|432:217|378:217,1,110,4|8,1:0|1:0,0:0:0:0:
271,244,123815,2,0,L|256:190,1,55,2|0,1:2|0:0,0:0:0:0:
209,162,124229,2,0,L|223:108,1,55,8|0,1:2|2:0,0:0:0:0:
200,58,124642,2,0,P|153:28|99:30,1,110,2|10,1:2|1:2,0:0:0:0:
5,84,125470,1,2,1:2:0:0:
5,194,125884,2,0,L|58:207,1,55,10|0,1:2|2:0,0:0:0:0:
105,178,126298,6,0,P|134:222|132:278,1,110,4|10,1:0|1:2,0:0:0:0:
103,326,126918,1,0,0:0:0:0:
103,326,127125,2,0,P|146:355|202:353,1,110,2|8,1:2|1:2,0:0:0:0:
297,298,127953,2,0,P|326:254|324:198,1,110,4|8,1:0|1:2,0:0:0:0:
276,185,128573,1,2,2:1:0:0:
276,185,128780,2,0,L|254:108,1,55,0|0,1:0|0:0,0:0:0:0:
213,103,129194,2,0,L|228:49,1,55,8|0,1:0|0:0,0:0:0:0:
276,22,129608,6,0,P|324:19|365:46,1,98.9999969787599,4|0,0:0|0:0,0:0:0:0:
461,20,130436,2,0,P|487:60|484:109,1,98.9999969787599,2|0,0:0|0:0,0:0:0:0:
398,158,131263,2,0,P|371:198|374:247,1,98.9999969787599,2|0,0:0|0:0,0:0:0:0:
423,332,132091,1,2,0:0:0:0:
324,332,132505,2,0,L|269:346,1,49.4999984893799,2|0,0:0|0:0,0:0:0:0:
233,319,132918,6,0,P|184:316|143:343,1,98.9999969787599,2|0,0:0|0:0,0:0:0:0:
72,272,133746,2,0,P|69:223|96:182,1,98.9999969787599,2|0,0:0|0:0,0:0:0:0:
70,86,134573,2,0,P|110:59|159:62,1,98.9999969787599,2|0,0:0|0:0,0:0:0:0:
252,28,135401,2,0,L|267:80,1,49.4999984893799,2|0,0:0|0:0,0:0:0:0:
238,124,135815,1,2,0:0:0:0:
132,156,136229,6,0,P|130:211|159:256,1,110,4|8,1:0|1:0,0:0:0:0:
183,311,136849,1,2,0:1:0:0:
183,311,137056,2,2,P|143:310|108:330,2,82.5,0|2|2,1:0|0:1|0:1,0:0:0:0:
278,369,138091,2,2,P|318:369|353:348,1,82.5,2|2,1:1|0:1,0:0:0:0:
425,307,138711,2,2,P|460:326|480:362,2,82.5,2|2|2,1:1|1:0|1:1,0:0:0:0:
397,259,139539,6,0,P|394:205|422:159,1,110,4|8,1:0|1:0,0:0:0:0:
472,131,140160,1,0,0:0:0:0:
472,131,140367,1,0,1:0:0:0:
471,22,140780,2,0,L|409:5,1,55,8|2,1:0|0:1,0:0:0:0:
369,34,141194,2,2,P|314:31|268:59,1,110,4|8,1:0|1:0,0:0:0:0:
268,168,142022,2,0,P|221:195|167:193,1,110,12|0,1:2|1:0,0:0:0:0:
121,219,142642,1,2,0:1:0:0:
121,219,142849,6,0,P|92:173|95:119,1,110,4|8,1:0|1:0,0:0:0:0:
120,73,143469,1,2,0:1:0:0:
120,73,143677,2,2,P|80:74|45:53,2,82.5,0|2|2,1:0|0:1|0:1,0:0:0:0:
215,16,144711,2,2,P|255:15|290:36,1,82.5,2|2,1:1|0:1,0:0:0:0:
348,95,145332,2,2,P|383:75|403:39,2,82.5,2|2|2,1:1|1:0|1:1,0:0:0:0:
300,123,146160,6,0,L|312:169,2,36.6666666666667,6|2|2,1:1|0:1|0:0,0:0:0:0:
264,114,146573,1,8,1:0:0:0:
209,209,146987,2,0,L|221:255,2,36.6666666666667,0|2|2,1:0|0:1|0:0,0:0:0:0:
173,200,147400,1,8,1:0:0:0:
118,295,147815,2,0,P|77:296|42:275,2,82.5,4|2|0,1:0|1:1|1:0,0:0:0:0:
95,345,148642,2,0,P|60:367|20:365,2,82.5,4|2|0,1:0|1:0|1:0,0:0:0:0:
143,373,149470,5,4,1:0:0:0:
25,86,156091,6,0,L|78:100,1,55,4|0,1:0|0:0,0:0:0:0:
105,145,156505,2,0,L|213:116,1,110,14|0,1:2|1:0,0:0:0:0:
265,21,157332,1,14,1:2:0:0:
360,76,157746,2,0,L|414:92,1,55,4|0,1:0|0:0,0:0:0:0:
462,66,158160,2,0,L|490:174,1,110,14|2,1:2|1:2,0:0:0:0:
434,267,158987,1,14,1:2:0:0:
327,238,159401,6,0,L|312:292,1,55,4|0,1:0|0:0,0:0:0:0:
340,339,159815,2,0,L|233:366,1,110,14|4,1:2|1:0,0:0:0:0:
139,311,160642,1,14,1:2:0:0:
194,215,161056,2,0,P|148:186|94:187,1,110,4|8,1:0|1:0,0:0:0:0:
51,162,161677,1,0,0:0:0:0:
51,162,161884,2,0,L|21:270,1,110,4|8,1:0|1:0,0:0:0:0:
54,320,162505,1,0,0:0:0:0:
54,320,162711,5,4,1:0:0:0:
256,192,162918,12,4,167677,1:0:0:0:
86,65,169332,6,0,P|129:35|185:37,1,110,4|8,1:1|1:0,0:0:0:0:
235,11,169952,1,0,2:0:0:0:
235,11,170160,2,0,P|265:56|264:110,1,110,2|8,1:2|1:0,0:0:0:0:
316,207,170987,2,0,P|271:236|217:235,1,110,2|8,1:2|1:0,0:0:0:0:
181,199,171608,1,2,0:2:0:0:
181,199,171815,1,2,1:2:0:0:
85,144,172229,1,8,1:0:0:0:
30,239,172643,6,0,P|27:292|55:338,1,110,0|10,1:0|1:2,0:0:0:0:
108,369,173263,1,0,2:0:0:0:
108,369,173470,2,0,P|161:372|207:344,1,110,0|8,1:0|1:0,0:0:0:0:
263,247,174298,2,0,P|264:191|234:147,1,110,2|10,1:2|1:2,0:0:0:0:
140,92,175125,1,2,1:2:0:0:
234,34,175539,2,0,L|295:51,1,55,8|0,1:0|1:0,0:0:0:0:
334,20,175953,6,0,P|387:17|433:45,1,110,4|8,1:0|1:0,0:0:0:0:
489,141,176780,2,0,L|436:155,1,55,2|0,1:2|0:0,0:0:0:0:
408,203,177194,2,0,L|355:188,1,55,8|0,1:2|2:0,0:0:0:0:
306,160,177608,2,0,P|276:205|277:259,1,110,2|10,1:2|1:2,0:0:0:0:
332,354,178436,1,2,1:2:0:0:
442,354,178849,2,0,L|459:292,1,55,10|0,1:2|2:0,0:0:0:0:
483,253,179263,6,0,P|437:224|383:226,1,110,4|10,1:0|1:2,0:0:0:0:
357,184,179883,1,0,0:0:0:0:
357,184,180090,2,0,P|301:180|255:206,1,110,2|8,1:2|1:2,0:0:0:0:
177,283,180918,2,0,P|147:238|148:184,1,110,4|8,1:0|1:2,0:0:0:0:
123,141,181538,1,2,2:1:0:0:
123,141,181746,2,0,L|44:120,1,55,0|2,1:0|2:1,0:0:0:0:
42,79,182160,1,8,1:0:0:0:
137,24,182574,6,0,P|191:23|237:51,1,110,4|8,1:1|1:0,0:0:0:0:
286,24,183194,1,0,2:0:0:0:
286,24,183401,2,0,P|314:70|313:122,1,110,2|8,1:2|1:0,0:0:0:0:
367,219,184229,2,0,P|321:248|267:246,1,110,2|8,1:2|1:0,0:0:0:0:
225,221,184848,1,0,0:2:0:0:
225,221,185055,1,2,1:2:0:0:
147,142,185470,1,8,1:0:0:0:
40,170,185884,6,0,P|11:213|13:267,1,110,0|8,1:0|1:2,0:0:0:0:
44,322,186505,1,0,0:0:0:0:
44,322,186712,2,0,P|92:349|145:347,1,110,0|8,1:0|1:0,0:0:0:0:
200,251,187539,2,0,P|246:223|300:225,1,110,2|10,1:2|1:2,0:0:0:0:
378,303,188367,1,2,1:2:0:0:
484,274,188780,2,0,L|497:220,1,55,8|0,1:0|1:0,0:0:0:0:
470,173,189194,6,0,P|472:118|445:71,1,110,4|8,1:0|1:0,0:0:0:0:
342,30,190022,2,0,L|289:44,1,55,2|0,1:2|0:0,0:0:0:0:
235,29,190436,2,0,L|221:83,1,55,8|0,1:2|2:0,0:0:0:0:
173,109,190849,2,0,P|170:164|199:210,1,110,2|10,1:2|1:2,0:0:0:0:
304,237,191677,1,2,1:2:0:0:
274,343,192091,2,0,L|221:356,1,55,10|0,1:2|2:0,0:0:0:0:
173,328,192505,6,0,P|120:331|72:301,1,110,4|10,1:0|1:2,0:0:0:0:
50,257,193125,1,0,0:0:0:0:
50,257,193332,2,0,P|46:205|76:157,1,110,2|8,1:2|1:2,0:0:0:0:
76,47,194160,2,0,P|120:18|176:20,1,110,4|8,1:0|1:2,0:0:0:0:
208,71,194780,1,2,2:1:0:0:
208,71,194987,2,0,L|286:90,1,55,0|0,1:0|0:0,0:0:0:0:
309,56,195401,2,0,L|363:42,1,55,8|0,1:0|0:0,0:0:0:0:
411,69,195815,6,0,P|438:111|436:159,1,98.9999969787599,4|0,0:0|0:0,0:0:0:0:
386,245,196642,2,0,P|346:271|297:269,1,98.9999969787599,2|0,0:0|0:0,0:0:0:0:
247,182,197470,2,0,P|207:156|158:158,1,98.9999969787599,2|0,0:0|0:0,0:0:0:0:
87,229,198298,1,2,0:0:0:0:
112,324,198711,2,0,L|166:339,1,49.4999984893799,2|0,0:0|0:0,0:0:0:0:
199,360,199125,6,0,P|225:320|223:271,1,98.9999969787599,2|0,0:0|0:0,0:0:0:0:
196,174,200013,6,0,L|212:113,2,49.4999984893799,2|0|0,0:0|0:0|0:0,0:0:0:0:
292,149,201424,6,0,L|308:88,2,49.4999984893799,2|0|0,0:0|0:0|0:0,0:0:0:0:
316,191,202482,1,2,0:0:0:0:
441,178,203482,6,0,P|443:226|416:267,1,98.9999969787599,2|0,0:0|0:0,0:0:0:0:
256,192,204462,12,0,209756,0:0:0:0:
