osu file format v14

[General]
AudioFilename: audio.mp3
AudioLeadIn: 0
PreviewTime: 48401
Countdown: 0
SampleSet: Soft
StackLeniency: 0.7
Mode: 0
LetterboxInBreaks: 0
WidescreenStoryboard: 1

[Editor]
Bookmarks: 453,13694,20315,33556,46798,48453,74936,88177,101418,103073,129556,136177,149418,149884,150298,150711,151125,151539,151953,152367,152780,153194,153608,154022,154436,154849,155263,155677,156039,162660,169280,195763,204159
DistanceSpacing: 2
BeatDivisor: 4
GridSize: 4
TimelineZoom: 1.399999

[Metadata]
Title:Ashita Chiru Sadame nara
TitleUnicode:明日散る運命なら
Artist:Yuuhei Satellite feat. Marcia
ArtistUnicode:幽閉サテライト feat. Marcia
Creator:Patchouli-R
Version:Hard
Source:東方風神録 ~ Mountain of Faith.
Tags:Iceon 紅葉八朔 京田スズカ かわ 幻想万華鏡 厄神様の通り道 ~ Dark Road ZUN yf_bmp 東方Project Touhou Fuujinroku Kagiyama Hina 鍵山雛 kurukuru 18th 博麗神社例大祭 japanese j-pop jpop pop video game mof th10 wind god chronicles team shanghai alice yakujinsama no toorimichi road of the misfortune god fantasy kaleidoscope gensou mangekyou memories of phantasm 幻想万華鏡
BeatmapID:3807184
BeatmapSetID:1852871

[Difficulty]
HPDrainRate:5.5
CircleSize:3.5
OverallDifficulty:6.6
ApproachRate:7.7
SliderMultiplier:1.3
SliderTickRate:1

[Events]
//Background and Video events
Video,180,"MV.mp4"
0,0,"BG1.jpg",0,0
//Break Periods
2,149670,155296
//Storyboard Layer 0 (Background)
//Storyboard Layer 1 (Fail)
//Storyboard Layer 2 (Pass)
//Storyboard Layer 3 (Foreground)
//Storyboard Layer 4 (Overlay)
//Storyboard Sound Samples

[TimingPoints]
505,413.793103448276,4,2,1,55,1,0
505,-125,4,2,1,55,0,0
7125,-100,4,2,1,60,0,0
13746,-90.9090909090909,4,2,1,65,0,0
20367,-111.111111111111,4,2,1,55,0,0
33608,-100,4,2,1,65,0,0
46849,-111.111111111111,4,2,1,60,0,0
48505,-90.9090909090909,4,2,1,68,0,1
74987,-111.111111111111,4,2,1,60,0,0
88229,-100,4,2,1,65,0,0
101470,-111.111111111111,4,2,1,60,0,0
103125,-90.9090909090909,4,2,1,68,0,1
129608,-125,4,2,1,60,0,0
136229,-100,4,2,1,65,0,0
137987,-100,4,2,1,25,0,0
138091,-100,4,2,1,65,0,0
138298,-100,4,2,1,25,0,0
138401,-100,4,2,1,65,0,0
138608,-100,4,2,1,25,0,0
138711,-100,4,2,1,65,0,0
144608,-100,4,2,1,25,0,0
144711,-100,4,2,1,65,0,0
144918,-100,4,2,1,25,0,0
145022,-100,4,2,1,65,0,0
145229,-100,4,2,1,25,0,0
145332,-100,4,2,1,65,0,0
149470,-100,4,2,1,60,0,0
159401,-90.9090909090909,4,2,1,65,0,0
167677,-111.111111111111,4,2,1,60,0,0
169332,-90.9090909090909,4,2,1,68,0,1
195815,-125,4,2,1,60,0,0
199125,444.444444444444,4,2,1,50,1,0
199125,-125,4,2,1,50,0,0
200013,705.882352941176,4,2,1,50,1,0
200013,-125,4,2,1,50,0,0
201424,705.882352941176,4,2,1,50,1,0
201424,-125,4,2,1,50,0,0
203482,784.313725490196,4,2,1,50,1,0
203482,-125,4,2,1,50,0,0
204462,-100,4,2,1,5,0,0

[Colours]
Combo1 : 0,213,0
Combo2 : 213,0,0
Combo3 : 0,128,255
Combo4 : 255,128,0

[HitObjects]
74,198,505,6,0,L|86:147,1,52,0|0,0:0|0:0,0:0:0:0:
47,79,918,2,0,P|90:51|141:53,1,104,2|0,0:0|0:0,0:0:0:0:
209,92,1539,1,0,0:0:0:0:
277,54,1746,1,2,0:0:0:0:
209,195,2160,6,0,L|197:246,1,52,0|0,0:0|0:0,0:0:0:0:
236,312,2573,2,0,P|279:339|330:337,1,104,2|0,0:0|0:0,0:0:0:0:
399,299,3194,1,0,0:0:0:0:
467,337,3401,1,2,0:0:0:0:
467,180,3815,6,0,L|416:168,1,52,0|0,0:0|0:0,0:0:0:0:
347,206,4229,2,0,P|320:164|322:112,1,104,2|0,0:0|0:0,0:0:0:0:
361,45,4849,1,0,0:0:0:0:
439,45,5056,1,2,0:0:0:0:
338,226,5470,5,0,0:0:0:0:
156,120,5884,2,0,P|129:162|129:214,1,104,2|0,0:0|0:0,0:0:0:0:
140,232,7125,5,4,1:0:0:0:
140,232,8780,5,4,1:0:0:0:
140,232,10436,5,4,1:0:0:0:
151,250,11263,1,4,1:1:0:0:
162,268,12091,6,0,L|254:242,1,65,4|0,1:0|1:0,0:0:0:0:
306,272,12505,2,0,L|330:178,1,65,8|0,1:2|1:0,0:0:0:0:
364,135,12918,1,2,1:1:0:0:
343,108,13022,1,2,1:1:0:0:
318,88,13124,1,2,1:1:0:0:
287,78,13228,1,2,1:1:0:0:
256,76,13332,2,0,L|224:83,2,32.5,0|0|0,1:0|1:0|1:0,0:0:0:0:
196,190,13746,6,0,P|160:187|128:171,1,71.5000021820069,4|0,1:0|0:0,0:0:0:0:
38,195,14160,2,0,L|17:117,1,71.5000021820069,10|0,1:2|0:0,0:0:0:0:
66,45,14573,2,0,P|97:28|133:26,1,71.5000021820069,0|0,1:2|0:0,0:0:0:0:
213,72,14987,2,0,L|282:89,1,71.5000021820069,10|0,1:2|0:0,0:0:0:0:
333,173,15401,5,0,1:0:0:0:
333,173,15608,1,0,0:0:0:0:
281,249,15815,2,0,P|283:284|298:316,1,71.5000021820069,10|0,1:2|0:0,0:0:0:0:
383,367,16229,1,0,1:0:0:0:
383,367,16436,1,0,0:0:0:0:
431,287,16642,2,0,L|500:268,1,71.5000021820069,10|0,1:2|0:0,0:0:0:0:
439,178,17056,6,0,P|423:145|421:110,1,71.5000021820069,4|0,1:0|0:0,0:0:0:0:
430,75,17367,1,2,0:0:0:0:
439,41,17470,2,0,L|364:21,1,71.5000021820069,10|0,1:2|0:0,0:0:0:0:
289,69,17884,2,0,P|253:66|221:50,1,71.5000021820069,0|0,1:0|0:0,0:0:0:0:
195,75,18194,1,2,0:0:0:0:
170,101,18298,2,0,L|194:193,1,71.5000021820069,10|0,1:2|0:0,0:0:0:0:
257,239,18711,5,4,1:0:0:0:
257,239,18918,1,0,0:0:0:0:
224,326,19125,2,0,P|192:342|156:344,1,71.5000021820069,10|0,1:2|0:0,0:0:0:0:
75,298,19539,1,2,1:2:0:0:
39,295,19642,1,0,1:0:0:0:
7,279,19745,1,0,1:0:0:0:
64,205,19953,2,0,L|46:135,1,71.5000021820069,10|8,1:1|1:2,0:0:0:0:
109,73,20367,6,0,L|123:16,2,58.4999982147217,2|0|2,0:0|0:0|0:0,0:0:0:0:
131,157,20987,1,0,0:0:0:0:
46,135,21194,2,0,P|24:97|24:53,2,87.7499973220826,2|0|0,0:0|0:0|0:0,0:0:0:0:
83,214,22022,2,0,P|45:235|1:235,2,87.7499973220826,2|0|0,0:0|0:0|0:0,0:0:0:0:
162,177,22849,2,0,P|183:215|183:259,2,87.7499973220826,2|0|0,0:0|0:0|0:0,0:0:0:0:
206,100,23677,6,0,L|263:86,1,58.4999982147217,2|0,0:0|0:0,0:0:0:0:
308,10,24091,2,0,L|365:24,1,58.4999982147217,2|0,0:0|0:0,0:0:0:0:
428,84,24505,2,0,P|450:46|451:3,2,87.7499973220826,2|0|0,0:0|0:0|0:0,0:0:0:0:
326,142,25332,6,0,P|294:189|294:247,1,116.999996429443,2|0,0:0|0:0,0:0:0:0:
294,247,26160,1,2,0:0:0:0:
422,375,26573,1,0,0:0:0:0:
484,313,26780,1,0,0:0:0:0:
459,228,26987,6,0,L|475:165,1,58.4999982147217,2|0,0:0|0:0,0:0:0:0:
429,94,27401,2,0,P|382:62|324:62,1,116.999996429443,0|0,0:0|0:0,0:0:0:0:
238,39,28022,1,0,0:0:0:0:
258,124,28229,2,0,L|243:180,1,58.4999982147217,2|0,0:0|0:0,0:0:0:0:
273,293,28642,6,0,P|246:305|217:308,1,58.4999982147217,0|0,0:0|0:0,0:0:0:0:
141,352,29056,2,0,P|112:349|85:336,1,58.4999982147217,2|0,0:0|0:0,0:0:0:0:
41,260,29470,1,0,0:0:0:0:
86,90,29884,1,2,0:0:0:0:
23,152,30091,1,0,0:0:0:0:
108,175,30298,6,0,P|155:207|213:207,2,116.999996429443,2|0|0,0:0|0:0|0:0,0:0:0:0:
86,90,31332,1,0,0:0:0:0:
149,28,31539,2,0,L|205:43,1,58.4999982147217,2|0,0:0|0:0,0:0:0:0:
293,43,31953,6,0,P|340:11|398:11,2,116.999996429443,2|0|0,0:0|0:0|0:0,0:0:0:0:
249,119,32987,1,0,3:0:0:0:
325,162,33194,2,0,P|344:201|344:244,1,87.7499973220826,0|0,0:0|0:0,0:0:0:0:
327,272,33608,5,4,1:0:0:0:
349,353,33815,1,0,0:0:0:0:
430,374,34022,1,8,1:2:0:0:
489,314,34229,1,0,0:0:0:0:
466,233,34436,2,0,P|444:189|445:141,1,97.5,0|0,1:0|0:0,0:0:0:0:
472,125,34849,2,0,L|455:62,1,65,8|0,1:2|0:0,0:0:0:0:
381,20,35263,6,0,L|318:37,1,65,0|0,1:0|0:0,0:0:0:0:
236,14,35677,2,0,L|215:91,1,65,8|0,1:2|0:0,0:0:0:0:
261,150,36091,2,0,P|259:198|235:239,2,97.5,0|0|0,1:1|1:0|1:0,0:0:0:0:
219,77,36918,5,4,1:0:0:0:
145,35,37125,1,0,0:0:0:0:
74,78,37332,1,8,1:2:0:0:
74,161,37539,1,0,0:0:0:0:
148,203,37746,2,0,P|169:247|168:295,1,97.5,0|0,1:0|0:0,0:0:0:0:
176,327,38160,2,0,L|113:344,1,65,8|0,1:2|0:0,0:0:0:0:
39,384,38573,6,0,L|22:321,1,65,4|0,1:0|0:0,0:0:0:0:
65,248,38987,2,0,L|80:185,1,65,8|0,1:2|0:0,0:0:0:0:
60,103,39401,2,0,P|88:88|120:85,1,65,4|0,1:0|0:0,0:0:0:0:
138,57,39711,1,0,1:0:0:0:
154,28,39815,2,0,P|186:29|215:43,1,65,0|0,0:0|1:0,0:0:0:0:
215,174,40229,6,0,P|259:195|307:194,1,97.5,4|0,1:1|0:0,0:0:0:0:
323,221,40642,2,0,L|386:204,1,65,14|0,1:2|0:0,0:0:0:0:
471,204,41056,2,0,P|495:162|499:114,1,97.5,0|0,1:0|0:0,0:0:0:0:
471,97,41470,2,0,L|454:34,1,65,14|0,1:2|0:0,0:0:0:0:
371,55,41884,6,0,P|329:30|281:26,1,97.5,0|0,1:0|0:0,0:0:0:0:
253,43,42298,2,0,L|236:105,1,65,14|0,1:2|0:0,0:0:0:0:
279,178,42711,2,0,P|327:181|368:206,1,97.5,0|0,1:0|0:0,0:0:0:0:
401,207,43125,2,0,L|417:269,1,65,14|0,1:2|0:0,0:0:0:0:
383,352,43539,5,4,1:0:0:0:
302,373,43746,1,0,0:0:0:0:
243,313,43953,1,8,1:2:0:0:
266,232,44160,1,0,0:0:0:0:
206,172,44367,2,0,P|164:147|116:143,1,97.5,0|0,1:0|0:0,0:0:0:0:
100,114,44780,2,0,L|37:130,1,65,8|0,1:2|0:0,0:0:0:0:
65,210,45195,6,0,L|47:272,1,65,4|0,1:0|1:0,0:0:0:0:
89,345,45608,2,0,L|151:361,1,65,0|0,1:0|1:0,0:0:0:0:
225,319,46022,2,0,P|240:291|242:259,1,65,4|2,1:0|3:1,0:0:0:0:
271,241,46332,1,0,1:0:0:0:
300,225,46436,2,0,P|299:193|285:164,1,65,2|2,1:2|0:1,0:0:0:0:
203,164,46849,6,0,L|130:145,1,58.4999982147217,4|0,3:2|0:0,0:0:0:0:
132,175,47160,2,0,L|75:190,1,58.4999982147217,0|0,1:0|0:0,0:0:0:0:
50,174,47469,1,0,1:0:0:0:
22,99,47677,1,0,1:0:0:0:
22,99,47884,1,0,1:0:0:0:
82,46,48091,2,0,P|121:65|164:64,1,87.7499973220826,0|0,3:0|0:0,0:0:0:0:
195,46,48505,5,4,1:1:0:0:
275,92,48711,1,0,2:0:0:0:
356,46,48918,2,0,L|448:21,1,71.5000021820069,8|0,1:0|2:0,0:0:0:0:
488,97,49332,2,0,P|472:128|469:164,1,71.5000021820069,2|0,1:2|0:0,0:0:0:0:
471,200,49642,1,2,0:2:0:0:
486,232,49746,1,8,1:0:0:0:
426,304,49953,1,2,0:2:0:0:
346,232,50160,6,0,P|314:216|278:213,1,71.5000021820069,2|0,1:2|0:0,0:0:0:0:
243,215,50470,1,2,0:2:0:0:
211,230,50573,1,8,1:0:0:0:
211,323,50780,1,2,0:2:0:0:
130,369,50987,2,0,P|94:366|62:351,1,71.5000021820069,2|0,1:2|0:0,0:0:0:0:
32,332,51297,1,2,0:2:0:0:
12,302,51401,2,0,L|31:233,1,71.5000021820069,8|2,1:0|0:2,0:0:0:0:
3,143,51815,5,0,1:0:0:0:
93,164,52022,1,0,2:0:0:0:
117,253,52229,2,0,L|209:228,1,71.5000021820069,10|0,1:2|2:0,0:0:0:0:
232,153,52642,2,0,P|229:117|213:85,1,71.5000021820069,0|0,1:0|0:0,0:0:0:0:
232,54,52952,1,2,0:0:0:0:
249,23,53056,2,0,P|216:7|180:5,1,71.5000021820069,8|0,1:0|2:0,0:0:0:0:
105,80,53470,6,0,L|37:99,1,71.5000021820069,2|0,1:2|0:0,0:0:0:0:
12,189,53884,2,0,L|63:238,1,71.5000021820069,10|0,1:2|0:0,0:0:0:0:
153,215,54298,2,0,L|170:146,1,71.5000021820069,2|0,1:2|0:0,0:0:0:0:
251,99,54711,1,8,1:0:0:0:
374,170,54918,1,0,1:0:0:0:
251,243,55125,6,0,P|226:290|227:343,1,107.25000327301,4|0,1:0|0:0,0:0:0:0:
257,365,55539,2,0,P|316:326|386:327,1,143.000004364014,8|2,1:0|1:2,0:0:0:0:
467,373,56160,1,0,2:0:0:0:
467,280,56367,2,0,L|450:210,1,71.5000021820069,8|0,1:2|2:0,0:0:0:0:
498,132,56780,5,2,1:2:0:0:
498,132,56987,1,0,2:0:0:0:
409,132,57194,1,10,1:2:0:0:
409,132,57401,1,0,2:0:0:0:
363,50,57608,2,0,L|294:31,1,71.5000021820069,2|0,1:2|0:0,0:0:0:0:
213,78,58022,1,10,1:2:0:0:
213,171,58229,1,0,2:0:0:0:
294,216,58436,6,0,P|291:269|264:314,1,107.25000327301,4|0,1:0|2:0,0:0:0:0:
228,315,58849,2,0,P|169:354|99:353,1,143.000004364014,10|2,1:2|1:2,0:0:0:0:
33,286,59470,1,0,2:0:0:0:
53,195,59677,2,0,L|121:175,1,71.5000021820069,8|0,1:2|2:0,0:0:0:0:
230,176,60091,6,0,P|257:130|259:77,1,107.25000327301,4|0,1:0|0:0,0:0:0:0:
242,46,60505,2,0,L|171:28,1,71.5000021820069,8|2,1:2|2:1,0:0:0:0:
92,74,60918,2,0,P|76:106|74:142,1,71.5000021820069,0|2,1:0|2:1,0:0:0:0:
99,167,61229,1,2,2:2:0:0:
125,191,61332,2,0,P|127:226|142:258,1,71.5000021820069,8|0,1:0|1:0,0:0:0:0:
235,258,61746,5,4,1:1:0:0:
316,212,61953,1,0,2:0:0:0:
316,119,62160,2,0,L|408:94,1,71.5000021820069,8|0,1:0|2:0,0:0:0:0:
459,44,62573,2,0,P|475:75|476:111,1,71.5000021820069,2|0,1:2|0:0,0:0:0:0:
479,147,62884,1,2,0:2:0:0:
469,181,62987,1,8,1:0:0:0:
408,251,63194,1,2,0:2:0:0:
469,339,63401,6,0,P|437:355|402:358,1,71.5000021820069,2|0,1:2|0:0,0:0:0:0:
366,358,63711,1,2,0:2:0:0:
334,343,63815,1,8,1:0:0:0:
287,262,64022,1,2,0:2:0:0:
334,182,64229,2,0,P|302:165|266:163,1,71.5000021820069,2|0,1:2|0:0,0:0:0:0:
231,165,64539,1,2,0:2:0:0:
199,180,64642,2,0,L|178:249,1,71.5000021820069,8|2,1:0|0:2,0:0:0:0:
106,190,65056,5,0,1:0:0:0:
40,256,65262,1,0,2:0:0:0:
65,345,65470,2,0,L|143:365,1,71.5000021820069,10|0,1:2|2:0,0:0:0:0:
215,316,65884,2,0,P|230:283|233:248,1,71.5000021820069,0|0,1:0|0:0,0:0:0:0:
264,230,66194,1,2,0:0:0:0:
295,212,66298,2,0,P|292:176|277:143,1,71.5000021820069,8|0,1:0|2:0,0:0:0:0:
170,143,66711,6,0,L|101:162,1,71.5000021820069,2|0,1:2|0:0,0:0:0:0:
39,91,67125,2,0,L|57:20,1,71.5000021820069,10|0,1:2|0:0,0:0:0:0:
151,5,67539,2,0,L|200:55,1,71.5000021820069,2|0,1:2|0:0,0:0:0:0:
170,143,67953,1,8,1:0:0:0:
170,286,68159,1,0,1:0:0:0:
293,214,68367,6,0,P|346:215|391:243,1,107.25000327301,4|0,1:0|0:0,0:0:0:0:
421,225,68780,2,0,P|460:166|459:96,1,143.000004364014,8|2,1:0|1:2,0:0:0:0:
412,14,69401,1,0,2:0:0:0:
331,60,69608,2,0,L|263:41,1,71.5000021820069,8|0,1:2|2:0,0:0:0:0:
198,108,70022,5,2,1:2:0:0:
198,108,70229,1,0,2:0:0:0:
219,203,70436,1,10,1:2:0:0:
219,203,70642,1,0,2:0:0:0:
306,170,70849,2,0,L|375:188,1,71.5000021820069,2|0,1:2|0:0,0:0:0:0:
465,164,71263,1,10,1:2:0:0:
486,254,71470,1,0,2:0:0:0:
417,316,71677,6,0,P|370:341|317:340,1,107.25000327301,4|0,1:0|2:0,0:0:0:0:
299,308,72091,2,0,P|228:307|169:345,1,143.000004364014,10|2,1:2|1:2,0:0:0:0:
79,368,72711,1,0,2:0:0:0:
98,277,72918,2,0,L|71:176,1,71.5000021820069,8|0,1:2|2:0,0:0:0:0:
24,114,73332,6,0,P|71:89|124:90,1,107.25000327301,4|0,1:0|0:0,0:0:0:0:
141,58,73746,2,0,L|210:76,1,71.5000021820069,8|2,1:2|2:1,0:0:0:0:
291,30,74160,1,0,1:0:0:0:
305,62,74263,1,0,3:0:0:0:
310,97,74366,1,0,3:0:0:0:
304,132,74470,1,0,3:0:0:0:
289,165,74573,2,0,P|274:198|271:233,1,71.5000021820069,8|0,1:0|0:0,0:0:0:0:
315,309,74987,6,0,P|362:341|420:341,1,116.999996429443,4|8,1:0|1:0,0:0:0:0:
504,317,75608,1,2,0:0:0:0:
441,254,75815,2,0,L|467:153,1,87.7499973220826,0|0,1:0|0:0,0:0:0:0:
488,154,76229,2,0,L|507:80,1,58.4999982147217,8|2,1:0|0:0,0:0:0:0:
441,35,76642,6,0,P|403:13|360:10,1,87.7499973220826,0|0,1:0|0:0,0:0:0:0:
345,35,77056,2,0,P|318:22|289:19,1,58.4999982147217,8|2,1:0|0:0,0:0:0:0:
213,62,77470,2,0,L|188:161,1,87.7499973220826,0|0,1:0|0:0,0:0:0:0:
212,168,77884,2,0,L|192:241,1,58.4999982147217,8|2,1:0|0:0,0:0:0:0:
244,304,78298,5,0,1:0:0:0:
244,304,78505,1,2,0:0:0:0:
168,344,78711,1,8,1:0:0:0:
168,344,78919,1,2,0:0:0:0:
124,268,79125,2,0,P|86:246|43:243,1,87.7499973220826,0|0,1:0|0:0,0:0:0:0:
28,217,79539,2,0,P|31:188|44:161,1,58.4999982147217,8|2,1:0|0:0,0:0:0:0:
48,44,79953,6,0,L|104:59,1,58.4999982147217,0|2,1:0|0:0,0:0:0:0:
189,36,80367,2,0,L|209:108,1,58.4999982147217,8|2,1:0|0:0,0:0:0:0:
160,169,80781,1,0,1:0:0:0:
209,337,81194,1,8,1:0:0:0:
271,275,81401,1,0,1:0:0:0:
358,275,81608,6,0,L|375:212,1,58.4999982147217,0|0,1:0|0:0,0:0:0:0:
449,174,82022,2,0,P|453:117|424:67,1,116.999996429443,10|2,1:2|1:2,0:0:0:0:
335,67,82643,1,0,0:0:0:0:
291,142,82850,2,0,L|209:163,1,58.4999982147217,8|0,1:0|0:0,0:0:0:0:
137,222,83263,6,0,P|108:218|81:206,1,58.4999982147217,2|0,1:2|0:0,0:0:0:0:
37,131,83677,2,0,P|40:102|53:75,1,58.4999982147217,10|0,1:2|0:0,0:0:0:0:
127,30,84091,1,2,1:2:0:0:
303,30,84505,1,10,1:2:0:0:
228,75,84711,1,0,0:0:0:0:
304,118,84918,6,0,P|336:165|336:223,2,116.999996429443,2|10|2,1:2|1:2|1:2,0:0:0:0:
228,75,85953,1,0,0:0:0:0:
151,118,86160,2,0,L|134:174,1,58.4999982147217,10|0,1:2|0:0,0:0:0:0:
72,235,86573,6,0,P|72:292|104:340,2,116.999996429443,2|8|2,1:2|1:0|1:2,0:0:0:0:
50,149,87608,1,0,3:0:0:0:
134,174,87815,2,0,L|211:153,1,58.4999982147217,8|0,1:0|1:0,0:0:0:0:
282,250,88229,5,4,1:0:0:0:
304,331,88436,1,0,0:0:0:0:
374,285,88642,1,8,1:2:0:0:
396,366,88849,1,0,0:0:0:0:
466,320,89056,2,0,P|487:276|487:228,1,97.5,0|0,1:0|0:0,0:0:0:0:
459,212,89470,2,0,L|476:149,1,65,8|0,1:2|0:0,0:0:0:0:
433,75,89884,6,0,L|370:58,1,65,0|0,1:0|0:0,0:0:0:0:
296,100,90298,2,0,L|233:116,1,65,8|0,1:2|0:0,0:0:0:0:
191,190,90711,2,0,P|191:238|212:281,2,97.5,0|0|0,1:1|1:0|1:0,0:0:0:0:
233,116,91539,5,4,1:0:0:0:
190,42,91746,1,0,0:0:0:0:
117,84,91952,1,8,1:2:0:0:
74,11,92159,1,0,0:0:0:0:
1,53,92367,2,0,P|22:97|22:145,1,97.5,0|0,1:0|0:0,0:0:0:0:
50,160,92780,2,0,L|33:223,1,65,8|0,1:2|0:0,0:0:0:0:
76,296,93194,6,0,L|139:312,1,65,4|0,1:0|0:0,0:0:0:0:
212,269,93608,2,0,L|228:205,1,65,8|0,1:2|0:0,0:0:0:0:
207,123,94022,2,0,P|235:108|267:105,1,65,4|0,1:0|0:0,0:0:0:0:
285,77,94332,1,0,1:0:0:0:
301,48,94436,2,0,P|333:49|362:63,1,65,0|0,0:0|1:0,0:0:0:0:
362,193,94849,6,0,P|405:213|453:213,1,97.5,4|0,1:1|0:0,0:0:0:0:
471,241,95263,2,0,L|454:303,1,65,14|0,1:2|0:0,0:0:0:0:
394,363,95677,2,0,P|345:363|301:343,1,97.5,0|0,1:0|0:0,0:0:0:0:
269,343,96091,2,0,L|252:280,1,65,14|0,1:2|0:0,0:0:0:0:
313,220,96505,6,0,P|316:171|341:130,1,97.5,0|0,1:0|0:0,0:0:0:0:
377,151,96918,2,0,L|444:133,1,65,14|0,1:2|0:0,0:0:0:0:
482,60,97332,2,0,P|440:35|392:31,1,97.5,0|0,1:0|0:0,0:0:0:0:
376,3,97746,2,0,L|313:19,1,65,14|0,1:2|0:0,0:0:0:0:
271,92,98160,5,4,1:0:0:0:
293,173,98367,1,0,0:0:0:0:
212,149,98573,1,8,1:2:0:0:
131,171,98780,1,0,0:0:0:0:
49,149,98987,2,0,P|23:107|20:59,1,97.5,0|0,1:0|0:0,0:0:0:0:
36,31,99401,2,0,L|98:14,1,65,8|0,1:2|0:0,0:0:0:0:
172,57,99815,6,0,L|188:119,1,65,4|0,1:0|1:0,0:0:0:0:
270,141,100229,2,0,L|253:203,1,65,0|0,1:0|1:0,0:0:0:0:
179,245,100642,2,0,P|151:230|119:227,1,65,4|2,1:0|3:1,0:0:0:0:
101,199,100952,1,0,1:0:0:0:
85,170,101056,2,0,P|53:171|24:185,1,65,2|2,1:2|0:1,0:0:0:0:
24,268,101470,6,0,L|5:341,1,58.4999982147217,4|0,3:2|0:0,0:0:0:0:
39,354,101781,2,0,L|96:339,1,58.4999982147217,0|0,1:0|0:0,0:0:0:0:
131,360,102091,1,0,1:0:0:0:
193,306,102298,1,0,1:0:0:0:
193,306,102505,1,0,1:0:0:0:
166,226,102711,2,0,P|205:207|248:208,1,87.7499973220826,0|0,3:0|0:0,0:0:0:0:
279,226,103125,5,4,1:1:0:0:
326,306,103332,1,0,2:0:0:0:
419,305,103539,2,0,L|441:220,1,71.5000021820069,8|0,1:0|2:0,0:0:0:0:
502,168,103953,2,0,P|500:133|484:100,1,71.5000021820069,2|0,1:2|0:0,0:0:0:0:
465,71,104263,1,2,0:2:0:0:
436,50,104367,1,8,1:0:0:0:
346,67,104573,1,2,0:2:0:0:
346,174,104780,6,0,P|315:189|279:193,1,71.5000021820069,2|0,1:2|0:0,0:0:0:0:
243,189,105091,1,2,0:2:0:0:
211,175,105194,1,8,1:0:0:0:
211,81,105401,1,2,0:2:0:0:
131,34,105608,2,0,P|96:35|63:51,1,71.5000021820069,2|0,1:2|0:0,0:0:0:0:
34,70,105918,1,2,0:2:0:0:
13,100,106022,2,0,L|30:168,1,71.5000021820069,8|2,1:0|0:2,0:0:0:0:
6,259,106436,5,0,1:0:0:0:
96,280,106642,1,0,2:0:0:0:
118,370,106850,2,0,L|186:351,1,71.5000021820069,10|0,1:2|2:0,0:0:0:0:
233,270,107263,2,0,P|265:254|301:252,1,71.5000021820069,0|0,1:0|0:0,0:0:0:0:
319,220,107573,1,2,0:0:0:0:
337,190,107677,2,0,P|373:192|405:208,1,71.5000021820069,8|0,1:0|2:0,0:0:0:0:
449,306,108091,6,0,L|466:375,1,71.5000021820069,2|0,1:2|0:0,0:0:0:0:
369,349,108505,2,0,L|300:329,1,71.5000021820069,10|0,1:2|0:0,0:0:0:0:
371,258,108918,2,0,L|422:208,1,71.5000021820069,2|0,1:2|0:0,0:0:0:0:
512,232,109332,1,8,1:0:0:0:
476,93,109539,1,0,1:0:0:0:
337,130,109746,6,0,P|283:130|237:105,1,107.25000327301,4|0,1:0|0:0,0:0:0:0:
201,106,110160,2,0,P|162:165|163:235,1,143.000004364014,8|2,1:0|1:2,0:0:0:0:
229,301,110781,1,0,2:0:0:0:
163,367,110988,2,0,L|93:384,1,71.5000021820069,8|0,1:2|2:0,0:0:0:0:
32,321,111401,5,2,1:2:0:0:
32,321,111608,1,0,2:0:0:0:
49,232,111815,1,10,1:2:0:0:
49,232,112022,1,0,2:0:0:0:
140,251,112229,2,0,L|208:233,1,71.5000021820069,2|0,1:2|0:0,0:0:0:0:
290,279,112642,1,10,1:2:0:0:
333,196,112850,1,0,2:0:0:0:
252,149,113056,6,0,P|251:95|276:49,1,107.25000327301,4|0,1:0|2:0,0:0:0:0:
250,24,113470,2,0,P|191:63|120:62,1,143.000004364014,10|2,1:2|1:2,0:0:0:0:
30,38,114091,1,0,2:0:0:0:
6,128,114298,2,0,L|25:194,1,71.5000021820069,8|0,1:2|2:0,0:0:0:0:
119,250,114711,6,0,P|172:250|219:225,1,107.25000327301,4|0,1:0|0:0,0:0:0:0:
239,195,115125,2,0,L|219:124,1,71.5000021820069,8|2,1:2|2:1,0:0:0:0:
267,45,115539,2,0,P|299:29|335:27,1,71.5000021820069,0|2,1:0|2:1,0:0:0:0:
360,52,115849,1,2,2:2:0:0:
386,77,115953,2,0,P|421:79|453:94,1,71.5000021820069,8|0,1:0|1:0,0:0:0:0:
478,184,116367,5,4,1:1:0:0:
388,208,116574,1,0,2:0:0:0:
408,298,116780,2,0,L|389:367,1,71.5000021820069,8|0,1:0|2:0,0:0:0:0:
314,310,117194,2,0,P|282:294|246:291,1,71.5000021820069,2|0,1:2|0:0,0:0:0:0:
211,293,117505,1,2,0:2:0:0:
179,308,117608,1,8,1:0:0:0:
113,375,117815,1,2,0:2:0:0:
28,308,118022,6,0,P|12:276|9:240,1,71.5000021820069,2|0,1:2|0:0,0:0:0:0:
11,205,118332,1,2,0:2:0:0:
26,172,118436,1,8,1:0:0:0:
94,109,118642,1,2,0:2:0:0:
140,189,118849,2,0,P|175:187|208:171,1,71.5000021820069,2|0,1:2|0:0,0:0:0:0:
237,151,119160,1,2,0:2:0:0:
258,122,119263,2,0,L|238:52,1,71.5000021820069,8|2,1:0|0:2,0:0:0:0:
157,6,119677,5,0,1:0:0:0:
65,30,119884,1,0,2:0:0:0:
14,108,120091,2,0,L|33:177,1,71.5000021820069,10|0,1:2|2:0,0:0:0:0:
113,223,120505,2,0,P|149:219|180:204,1,71.5000021820069,0|0,1:0|0:0,0:0:0:0:
212,222,120815,1,2,0:0:0:0:
242,241,120918,2,0,P|271:220|292:190,1,71.5000021820069,8|0,1:0|2:0,0:0:0:0:
339,93,121332,6,0,L|322:24,1,71.5000021820069,2|0,1:2|0:0,0:0:0:0:
419,51,121746,2,0,L|488:71,1,71.5000021820069,10|0,1:2|0:0,0:0:0:0:
417,142,122160,2,0,L|366:192,1,71.5000021820069,2|0,1:2|0:0,0:0:0:0:
276,168,122573,1,8,1:0:0:0:
237,306,122780,1,0,1:0:0:0:
376,343,122987,6,0,P|430:343|476:318,1,107.25000327301,4|0,1:0|0:0,0:0:0:0:
492,286,123401,2,0,P|453:227|454:157,1,143.000004364014,8|2,1:0|1:2,0:0:0:0:
501,76,124022,1,0,2:0:0:0:
421,28,124229,2,0,L|352:47,1,71.5000021820069,8|0,1:2|2:0,0:0:0:0:
266,25,124642,5,2,1:2:0:0:
266,25,124850,1,0,2:0:0:0:
201,91,125056,1,10,1:2:0:0:
201,91,125263,1,0,2:0:0:0:
266,157,125470,2,0,L|285:225,1,71.5000021820069,2|0,1:2|0:0,0:0:0:0:
351,291,125884,1,10,1:2:0:0:
285,357,126091,1,0,2:0:0:0:
219,291,126298,6,0,P|165:290|119:315,1,107.25000327301,4|0,1:0|2:0,0:0:0:0:
93,340,126711,2,0,P|54:281|55:211,1,143.000004364014,10|2,1:2|1:2,0:0:0:0:
31,120,127332,1,0,2:0:0:0:
121,141,127539,2,0,L|190:121,1,71.5000021820069,8|0,1:2|2:0,0:0:0:0:
242,28,127953,6,0,P|295:29|340:57,1,107.25000327301,4|0,1:0|0:0,0:0:0:0:
376,57,128367,2,0,L|394:125,1,71.5000021820069,8|2,1:2|2:1,0:0:0:0:
475,172,128780,1,0,1:0:0:0:
489,204,128883,1,0,3:0:0:0:
494,239,128986,1,0,3:0:0:0:
488,274,129090,1,0,3:0:0:0:
473,307,129194,2,0,L|403:325,1,71.5000021820069,8|2,1:0|0:0,0:0:0:0:
335,285,129608,6,0,P|283:283|240:311,2,104,4|0|0,0:0|0:0|0:0,0:0:0:0:
403,324,130642,1,0,0:0:0:0:
403,245,130849,2,0,L|416:194,1,52,2|0,0:0|0:0,0:0:0:0:
376,126,131263,6,0,P|420:98|470:100,2,104,2|0|0,0:0|0:0|0:0,0:0:0:0:
240,48,132505,2,0,L|189:62,1,52,2|0,0:0|0:0,0:0:0:0:
121,100,132918,6,0,P|94:56|96:5,2,104,2|0|0,0:0|0:0|0:0,0:0:0:0:
189,140,133953,1,0,0:0:0:0:
121,179,134160,2,0,L|107:230,1,52,2|0,0:0|0:0,0:0:0:0:
39,268,134573,6,0,P|12:313|13:362,2,104,2|0|0,0:0|0:0|0:0,0:0:0:0:
107,229,135608,1,0,0:0:0:0:
175,268,135815,2,0,P|213:269|246:249,1,78,2|0,0:0|0:0,0:0:0:0:
279,249,136229,6,0,L|300:170,1,65,4|2,1:0|0:1,0:0:0:0:
369,145,136642,2,0,L|432:162,1,65,8|2,1:0|0:1,0:0:0:0:
474,88,137056,2,2,L|412:71,1,65,0|0,1:0|0:0,0:0:0:0:
395,41,137367,1,2,0:1:0:0:
379,13,137470,1,8,1:0:0:0:
281,13,137677,6,2,P|260:57|260:105,1,97.5,2|0,0:1|0:0,0:0:0:0:
228,113,138091,2,0,L|245:175,1,65,2|8,0:1|1:0,0:0:0:0:
236,207,138401,2,2,L|299:223,1,65,2|0,0:1|0:0,0:0:0:0:
307,254,138711,2,2,L|370:236,1,65,2|0,1:1|0:0,0:0:0:0:
386,208,139022,1,2,1:0:0:0:
402,180,139125,1,8,0:0:0:0:
487,180,139332,1,2,1:1:0:0:
487,310,139539,6,0,L|457:302,3,32.5,4|2|0|2,1:0|0:1|0:0|0:0,0:0:0:0:
413,326,139953,2,0,L|422:357,3,32.5,8|2|0|2,1:0|0:1|0:0|0:1,0:0:0:0:
373,349,140367,2,0,L|307:330,1,65,0|2,1:0|0:1,0:0:0:0:
294,303,140677,1,0,0:0:0:0:
278,275,140780,2,0,L|295:209,1,65,8|2,1:0|0:1,0:0:0:0:
356,97,141194,6,2,P|312:76|264:75,1,97.5,4|0,1:0|0:0,0:0:0:0:
248,47,141607,2,2,L|184:63,1,65,8|0,1:0|0:0,0:0:0:0:
90,37,142022,2,0,L|71:100,1,65,12|2,1:2|0:1,0:0:0:0:
42,115,142332,2,0,L|60:178,1,65,0|2,1:0|0:1,0:0:0:0:
88,193,142642,1,0,1:0:0:0:
110,273,142849,6,0,L|172:290,1,65,4|2,1:0|0:1,0:0:0:0:
136,367,143263,2,0,L|198:384,1,65,8|2,1:0|0:1,0:0:0:0:
272,342,143677,2,2,L|288:279,1,65,0|0,1:0|0:0,0:0:0:0:
272,250,143987,1,2,0:1:0:0:
256,222,144091,1,8,1:0:0:0:
256,124,144298,6,2,P|300:103|348:103,1,97.5,2|0,0:1|0:0,0:0:0:0:
355,71,144712,2,0,L|417:88,1,65,2|8,0:1|1:0,0:0:0:0:
449,79,145022,2,2,L|465:142,1,65,2|0,0:1|0:0,0:0:0:0:
496,150,145332,2,2,L|478:213,1,65,2|0,1:1|0:0,0:0:0:0:
450,229,145643,1,2,1:0:0:0:
422,245,145746,1,8,0:0:0:0:
401,327,145953,1,2,1:1:0:0:
303,327,146160,6,0,L|313:368,2,43.3333333333333,6|2|2,1:1|0:1|0:0,0:0:0:0:
239,310,146573,2,0,L|193:354,2,43.3333333333333,8|2|2,1:0|0:1|0:0,0:0:0:0:
222,246,146987,2,0,L|159:229,2,43.3333333333333,0|2|2,1:0|0:1|0:0,0:0:0:0:
268,199,147401,2,0,L|251:136,2,43.3333333333333,8|2|2,1:0|0:1|0:2,0:0:0:0:
331,215,147815,6,0,L|394:234,1,65,4|0,1:0|0:0,0:0:0:0:
409,263,148125,2,0,L|472:245,1,65,2|0,1:1|0:0,0:0:0:0:
487,217,148436,1,0,1:0:0:0:
447,142,148642,1,4,1:0:0:0:
430,113,148746,2,0,L|438:81,1,32.5,0|0,1:0|0:0,0:0:0:0:
421,53,148953,2,0,L|358:36,1,65,0|0,1:0|0:0,0:0:0:0:
330,53,149263,1,0,1:0:0:0:
203,83,149470,5,4,1:0:0:0:
48,91,156091,6,0,P|91:71|139:71,1,97.5,4|0,1:0|0:0,0:0:0:0:
157,43,156505,2,0,L|219:60,1,65,14|0,1:2|0:0,0:0:0:0:
301,38,156918,2,0,P|325:80|330:128,1,97.5,0|0,1:0|0:0,0:0:0:0:
306,151,157332,2,0,L|290:214,1,65,14|0,1:2|0:0,0:0:0:0:
241,298,157747,6,0,P|284:319|332:318,1,97.5,4|0,1:0|0:0,0:0:0:0:
350,345,158160,2,0,L|412:328,1,65,14|0,1:2|0:0,0:0:0:0:
454,254,158573,2,0,P|430:212|425:164,1,97.5,2|0,1:2|0:0,0:0:0:0:
449,141,158987,2,0,L|464:77,1,65,14|0,1:2|0:0,0:0:0:0:
388,1,159401,5,4,1:0:0:0:
297,21,159608,1,0,0:0:0:0:
269,109,159815,1,8,1:0:0:0:
178,129,160022,1,0,0:0:0:0:
85,75,160229,2,0,P|61:122|61:175,1,107.25000327301,4|0,1:0|0:0,0:0:0:0:
92,193,160642,2,0,L|110:263,1,71.5000021820069,8|0,1:0|0:0,0:0:0:0:
64,343,161056,6,0,L|133:362,1,71.5000021820069,4|0,1:0|0:0,0:0:0:0:
214,315,161470,2,0,L|283:295,1,71.5000021820069,8|0,1:0|0:0,0:0:0:0:
373,319,161884,2,0,P|388:287|390:251,1,71.5000021820069,4|0,1:0|0:0,0:0:0:0:
416,226,162194,1,4,1:2:0:0:
440,200,162298,2,0,P|441:164|429:130,1,71.5000021820069,8|0,0:0|1:0,0:0:0:0:
256,192,162711,5,4,1:0:0:0:
256,192,162918,12,4,166022,1:1:0:0:
256,192,166849,5,4,1:1:0:0:
267,210,167263,1,4,1:1:0:0:
278,228,167677,6,0,L|351:247,1,58.4999982147217,4|0,1:0|0:0,0:0:0:0:
349,217,167987,2,0,L|406:202,1,58.4999982147217,0|0,1:2|0:0,0:0:0:0:
430,219,168298,1,0,1:0:0:0:
476,292,168505,1,0,1:0:0:0:
476,292,168711,1,0,1:0:0:0:
431,361,168918,2,0,P|392:342|349:343,1,87.7499973220826,0|0,3:0|0:0,0:0:0:0:
330,312,169332,5,4,1:1:0:0:
249,358,169539,1,0,2:0:0:0:
203,277,169746,2,0,L|111:252,1,71.5000021820069,8|0,1:0|2:0,0:0:0:0:
60,315,170160,2,0,P|43:283|41:247,1,71.5000021820069,2|0,1:2|0:0,0:0:0:0:
43,212,170470,1,2,0:2:0:0:
58,180,170572,1,8,1:0:0:0:
139,134,170780,1,2,0:2:0:0:
76,46,170987,6,0,P|107:29|143:27,1,71.5000021820069,2|0,1:2|0:0,0:0:0:0:
179,29,171297,1,2,0:2:0:0:
211,44,171401,1,8,1:0:0:0:
262,122,171608,1,2,0:2:0:0:
262,214,171815,2,0,P|293:229|329:233,1,71.5000021820069,2|0,1:2|0:0,0:0:0:0:
366,229,172126,1,2,0:2:0:0:
398,214,172229,2,0,L|417:144,1,71.5000021820069,8|2,1:0|0:2,0:0:0:0:
491,202,172642,5,0,1:0:0:0:
511,111,172850,1,0,2:0:0:0:
445,46,173056,2,0,L|377:27,1,71.5000021820069,10|0,1:2|2:0,0:0:0:0:
295,74,173470,2,0,P|279:106|277:142,1,71.5000021820069,0|0,1:0|0:0,0:0:0:0:
302,167,173781,1,2,0:0:0:0:
328,191,173884,2,0,P|330:226|345:258,1,71.5000021820069,8|0,1:0|2:0,0:0:0:0:
433,321,174298,6,0,L|483:371,1,71.5000021820069,2|0,1:2|0:0,0:0:0:0:
458,231,174711,2,0,L|477:160,1,71.5000021820069,10|0,1:2|0:0,0:0:0:0:
367,253,175125,2,0,L|296:271,1,71.5000021820069,2|0,1:2|0:0,0:0:0:0:
251,352,175539,1,8,1:0:0:0:
113,312,175746,1,0,1:0:0:0:
79,173,175953,6,0,P|126:148|179:149,1,107.25000327301,4|0,1:0|0:0,0:0:0:0:
210,166,176367,2,0,P|249:107|248:37,1,143.000004364014,8|2,1:0|1:2,0:0:0:0:
157,12,176988,1,0,2:0:0:0:
88,74,177194,2,0,L|18:91,1,71.5000021820069,8|0,1:2|2:0,0:0:0:0:
0,185,177608,5,2,1:2:0:0:
0,185,177815,1,0,2:0:0:0:
69,254,178022,1,10,1:2:0:0:
69,254,178229,1,0,2:0:0:0:
159,230,178436,2,0,L|228:247,1,71.5000021820069,2|0,1:2|0:0,0:0:0:0:
295,181,178850,1,10,1:2:0:0:
268,91,179057,1,0,2:0:0:0:
334,26,179263,6,0,P|387:25|433:50,1,107.25000327301,4|0,1:0|2:0,0:0:0:0:
470,50,179677,2,0,P|506:110|501:180,1,143.000004364014,10|2,1:2|1:2,0:0:0:0:
455,261,180298,1,0,2:0:0:0:
375,213,180505,2,0,L|307:232,1,71.5000021820069,8|0,1:2|2:0,0:0:0:0:
213,178,180918,6,0,P|188:224|188:277,1,107.25000327301,4|0,1:0|0:0,0:0:0:0:
206,309,181332,2,0,L|274:328,1,71.5000021820069,8|2,1:2|2:1,0:0:0:0:
355,374,181746,2,0,P|371:342|373:306,1,71.5000021820069,0|2,1:0|2:1,0:0:0:0:
404,288,182057,1,2,2:2:0:0:
435,270,182160,2,0,P|433:235|418:203,1,71.5000021820069,8|0,1:0|1:0,0:0:0:0:
464,122,182573,5,4,1:1:0:0:
464,28,182781,1,0,2:0:0:0:
383,74,182988,2,0,L|314:55,1,71.5000021820069,8|0,1:0|2:0,0:0:0:0:
234,102,183401,2,0,P|201:85|166:83,1,71.5000021820069,2|0,1:2|0:0,0:0:0:0:
131,85,183711,1,2,0:2:0:0:
99,100,183814,1,8,1:0:0:0:
5,100,184022,1,2,0:2:0:0:
52,197,184229,6,0,P|68:228|71:264,1,71.5000021820069,2|0,1:2|0:0,0:0:0:0:
69,300,184539,1,2,0:2:0:0:
54,332,184641,1,8,1:0:0:0:
142,364,184849,1,2,0:2:0:0:
183,281,185056,2,0,P|218:278|250:263,1,71.5000021820069,2|0,1:2|0:0,0:0:0:0:
282,245,185367,1,2,0:2:0:0:
302,216,185469,2,0,L|282:147,1,71.5000021820069,8|2,1:0|0:2,0:0:0:0:
329,66,185884,5,0,1:0:0:0:
417,38,186091,1,0,2:0:0:0:
495,88,186298,2,0,L|512:157,1,71.5000021820069,10|0,1:2|2:0,0:0:0:0:
466,237,186711,2,0,P|434:253|398:255,1,71.5000021820069,0|0,1:0|0:0,0:0:0:0:
380,286,187022,1,2,0:0:0:0:
362,317,187125,2,0,P|327:315|295:300,1,71.5000021820069,8|0,1:0|2:0,0:0:0:0:
186,308,187539,6,0,L|117:326,1,71.5000021820069,2|0,1:2|0:0,0:0:0:0:
210,217,187952,2,0,L|229:146,1,71.5000021820069,10|0,1:2|0:0,0:0:0:0:
277,282,188366,2,0,L|329:333,1,71.5000021820069,2|0,1:2|0:0,0:0:0:0:
422,333,188780,1,8,1:0:0:0:
493,209,188987,1,0,1:0:0:0:
422,85,189194,6,0,P|375:60|322:61,1,107.25000327301,4|0,1:0|0:0,0:0:0:0:
291,42,189608,2,0,P|252:101|253:171,1,143.000004364014,8|2,1:0|1:2,0:0:0:0:
300,251,190229,1,0,2:0:0:0:
207,251,190436,2,0,L|138:268,1,71.5000021820069,8|0,1:2|2:0,0:0:0:0:
93,352,190849,5,2,1:2:0:0:
93,352,191057,1,0,2:0:0:0:
17,307,191263,1,10,1:2:0:0:
17,307,191470,1,0,2:0:0:0:
59,224,191677,2,0,L|41:155,1,71.5000021820069,2|0,1:2|0:0,0:0:0:0:
87,73,192091,1,10,1:2:0:0:
167,119,192298,1,0,2:0:0:0:
260,119,192505,6,0,P|285:166|284:219,1,107.25000327301,4|0,1:0|2:0,0:0:0:0:
266,250,192919,2,0,P|325:289|395:288,1,143.000004364014,10|2,1:2|1:2,0:0:0:0:
485,311,193539,1,0,2:0:0:0:
460,220,193746,2,0,L|478:150,1,71.5000021820069,8|0,1:2|2:0,0:0:0:0:
423,57,194160,6,0,P|376:32|323:33,1,107.25000327301,4|0,1:0|0:0,0:0:0:0:
292,50,194573,2,0,L|273:119,1,71.5000021820069,8|2,1:2|2:1,0:0:0:0:
273,213,194987,1,0,1:0:0:0:
241,227,195090,1,0,3:0:0:0:
206,232,195193,1,0,3:0:0:0:
171,226,195297,1,0,3:0:0:0:
138,211,195401,2,0,L|120:141,1,71.5000021820069,8|2,1:0|0:0,0:0:0:0:
52,102,195815,6,0,P|24:57|27:6,2,104,4|0|0,0:0|0:0|0:0,0:0:0:0:
120,141,196849,1,0,0:0:0:0:
188,102,197056,2,0,L|239:115,1,52,2|0,0:0|0:0,0:0:0:0:
306,75,197470,6,0,P|333:118|330:169,2,104,2|0|0,0:0|0:0|0:0,0:0:0:0:
174,159,198712,2,0,L|123:173,1,52,2|0,0:0|0:0,0:0:0:0:
84,240,199125,6,0,P|82:291|109:334,1,104,2|0,0:0|0:0,0:0:0:0:
241,250,200013,6,0,L|290:264,2,52,2|0|0,0:0|0:0|0:0,0:0:0:0:
313,111,201424,6,0,L|362:125,2,52,2|0|0,0:0|0:0|0:0,0:0:0:0:
274,44,202482,1,2,0:0:0:0:
322,194,203482,6,0,P|323:245|296:288,1,104,2|0,0:0|0:0,0:0:0:0:
256,192,204462,12,0,209756,0:0:0:0:
