osu file format v14

[General]
AudioFilename: The Memories of Phantasm.mp3
AudioLeadIn: 1000
PreviewTime: 61010
Countdown: 0
SampleSet: Soft
StackLeniency: 0.7
Mode: 0
LetterboxInBreaks: 1
WidescreenStoryboard: 0

[Editor]
DistanceSpacing: 0.9
BeatDivisor: 4
GridSize: 4
TimelineZoom: 1

[Metadata]
Title:Iro wa Nio e do Chiri Nuru o (OPver.1.2)
TitleUnicode:色は匂へど 散りぬるを (OPver.1.2)
Artist:Yuuhei Satellite
ArtistUnicode:幽閉サテライト
Creator:Crimmi
Version:Normal
Source:東方Project
Tags:Touhou iceon Starving Trancer Yusuke Ceo Kamase-tora Mayumi Morinaga senya ZUN Team Shanghai Alice Memories of Phantasm Nitori's Theme Even the Blossoming Flowers Will Eventually Scatter The Gensokyo the Gods Loved Fuujinroku Mountain of Faith SOUND VOLTEX BOOTH SDVX
BeatmapID:232286
BeatmapSetID:82326

[Difficulty]
HPDrainRate:5
CircleSize:3
OverallDifficulty:5
ApproachRate:5
SliderMultiplier:1.3
SliderTickRate:1

[Events]
//Background and Video events
0,0,"Touhou.jpg",0,0
Video,1382,"vid.avi"
//Break Periods
2,18166,30679
//Storyboard Layer 0 (Background)
//Storyboard Layer 1 (Fail)
//Storyboard Layer 2 (Pass)
//Storyboard Layer 3 (Foreground)
//Storyboard Sound Samples

[TimingPoints]
1880,434.782608695652,4,2,0,50,1,0
14053,-133.333333333333,4,2,0,50,0,0
17532,-133.333333333333,4,2,0,5,0,0
17966,434.782608695652,4,2,0,50,1,0
52748,-100,4,1,0,50,0,0
59705,-100,4,2,0,50,0,0
60139,-100,4,2,0,35,0,0
60574,-100,4,2,0,25,0,0
61444,-100,4,1,0,50,0,1
74922,-100,4,1,0,50,0,0
75357,-100,4,1,0,50,0,1
87531,-100,4,2,0,50,0,0

[Colours]
Combo1 : 128,128,255
Combo2 : 128,255,255
Combo3 : 255,128,255
Combo4 : 128,255,25

[HitObjects]
416,320,1880,6,0,P|464:300|392:160,1,260,2|2,0:0|0:0,0:0:0:0:
324,248,3184,1,0,0:0:0:0:
268,248,3401,1,0,0:0:0:0:
208,244,3619,2,0,P|176:196|320:148,1,260,0|2,0:0|0:0,0:0:0:0:
408,72,4923,1,0,0:0:0:0:
448,116,5140,1,0,0:0:0:0:
488,160,5358,6,0,P|368:160|336:28,1,260,0|2,0:0|0:0,0:0:0:0:
220,36,6662,1,0,0:0:0:0:
232,92,6879,1,0,0:0:0:0:
240,148,7097,2,0,P|256:200|248:292,1,130
136,296,7966,1,2,0:0:0:0:
80,192,8401,1,0,0:0:0:0:
112,144,8619,1,0,0:0:0:0:
140,92,8836,6,0,P|252:44|380:104,1,260,0|2,0:0|0:0,0:0:0:0:
348,148,9923,1,0,0:0:0:0:
320,192,10140,1,0,0:0:0:0:
288,240,10358,1,0,0:0:0:0:
256,288,10575,2,0,P|192:320|144:176,1,260,0|2,0:0|0:0,0:0:0:0:
92,76,11879,1,0,0:0:0:0:
148,68,12097,1,0,0:0:0:0:
208,72,12314,6,0,P|256:104|352:104,1,130,0|2,0:0|0:0,0:0:0:0:
380,84,12966,1,0,0:0:0:0:
436,108,13184,2,0,P|484:172|484:236,1,130,0|2,0:0|0:0,0:0:0:0:
444,256,13836,1,0,0:0:0:0:
400,272,14053,6,0,P|304:336|384:64,1,780.00002975464
388,168,17966,1,4,0:0:0:0:
48,192,31879,5,4,0:0:0:0:
204,112,32532,1,0,0:0:0:0:
204,112,32749,2,0,P|236:160|332:160,1,130,0|2,0:0|0:0,0:0:0:0:
348,136,33400,1,0,0:0:0:0:
396,100,33619,2,0,P|412:180|284:276,1,260
208,232,34814,6,0,L|116:308,1,97.5,0|2,0:0|0:0,0:0:0:0:
96,332,35358,2,0,P|32:268|128:140,1,260
172,44,36662,1,2,0:0:0:0:
172,44,36879,1,0,0:0:0:0:
172,44,37097,2,0,P|204:108|444:28,1,390,0|2,0:0|0:0,0:0:0:0:
492,140,38836,6,0,P|443:198|155:182,1,390,0|2,0:0|0:0,0:0:0:0:
108,156,40358,1,0,0:0:0:0:
108,156,40575,2,0,P|44:204|124:332,1,260
188,276,41771,1,2,0:0:0:0:
276,288,42097,1,0,0:0:0:0:
276,288,42314,6,0,L|404:224,1,130,0|2,0:0|0:0,0:0:0:0:
444,204,42966,1,0,0:0:0:0:
444,204,43184,2,0,P|444:140|284:108,1,260
268,164,44271,1,0,0:0:0:0:
252,220,44488,1,2,0:0:0:0:
236,276,44706,1,0,0:0:0:0:
216,332,44923,1,2,0:0:0:0:
116,272,45358,1,0,0:0:0:0:
144,160,45793,6,0,L|64:64,2,97.5,4|2|2,0:0|0:0|0:0,0:0:0:0:
200,140,46662,2,0,L|168:44,2,97.5,0|2|2,0:0|0:0|0:0,0:0:0:0:
260,132,47532,2,0,P|324:164|388:148,1,130,0|2,0:0|0:0,0:0:0:0:
432,128,48184,1,0,0:0:0:0:
432,128,48401,2,0,L|464:256,1,130,0|2,0:0|0:0,0:0:0:0:
356,300,49271,6,0,P|276:332|228:332,1,130,0|2,0:0|0:0,0:0:0:0:
176,320,49923,1,0,0:0:0:0:
176,320,50140,2,0,P|128:272|128:192,1,130,0|2,0:0|0:0,0:0:0:0:
140,156,50793,1,0,0:0:0:0:
180,112,51010,2,0,P|260:80|436:128,1,260,0|2,0:0|0:0,0:0:0:0:
460,228,52314,1,0,0:0:0:0:
344,228,52749,6,0,L|200:228,2,130,4|8|0,0:0|0:0|0:0,0:0:0:0:
444,288,54053,1,8,0:0:0:0:
464,232,54271,1,0,0:0:0:0:
444,176,54488,2,0,P|396:96|236:128,1,260,4|0,0:0|0:0,0:0:0:0:
192,192,55684,1,0,0:0:0:0:
124,248,56010,1,0,0:0:0:0:
124,248,56226,6,0,P|160:280|276:216,1,195,4|0,0:0|0:0,0:0:0:0:
328,244,57096,2,0,L|220:128,1,130,4|0,0:0|0:0,0:0:0:0:
204,108,57748,1,0,0:0:0:0:
204,108,57965,2,0,B|264:92|264:92|344:96,2,130
160,340,59705,5,0,0:0:0:0:
60,276,60139,1,2,0:0:0:0:
76,164,60575,2,0,P|124:120|200:124,1,130,2|8,0:0|0:0,0:0:0:0:
296,152,61445,6,0,L|424:104,2,130,4|8|0,0:0|0:0|0:0,0:0:0:0:
240,136,62532,1,0,0:0:0:0:
180,136,62749,1,8,0:0:0:0:
124,152,62966,1,0,0:0:0:0:
80,192,63184,2,0,P|64:256|201:171,1,390,4|8,0:0|0:0,0:0:0:0:
328,240,64923,6,0,L|376:112,1,130,0|8,0:0|0:0,0:0:0:0:
264,172,65793,2,0,L|312:44,1,130,0|8,0:0|0:0,0:0:0:0:
196,16,66662,2,0,P|116:48|196:288,1,390,4|8,0:0|0:0,0:0:0:0:
292,312,68401,6,0,L|340:248,1,65,4|0,0:0|0:0,0:0:0:0:
368,216,68836,1,8,0:0:0:0:
404,172,69053,1,0,0:0:0:0:
440,124,69271,1,4,0:0:0:0:
328,84,69706,1,8,0:0:0:0:
220,40,70140,2,0,L|172:120,1,65,4|0,0:0|0:0,0:0:0:0:
156,148,70575,2,0,L|108:228,1,65,8|0,0:0|0:0,0:0:0:0:
88,252,71010,1,4,0:0:0:0:
176,332,71445,5,8,0:0:0:0:
176,332,71662,1,0,0:0:0:0:
176,332,71879,2,0,P|256:284|400:348,1,260,4|8,0:0|0:0,0:0:0:0:
452,324,72966,1,0,0:0:0:0:
492,284,73184,1,0,0:0:0:0:
488,228,73401,6,4,L|376:148,1,130
288,84,74271,1,0,0:0:0:0:
288,84,74488,2,4,L|188:204,1,130
164,228,75139,1,0,0:0:0:0:
128,272,75358,6,0,P|176:320|352:256,1,260,4|0,0:0|0:0,0:0:0:0:
376,232,76445,1,0,0:0:0:0:
408,184,76662,1,8,0:0:0:0:
440,136,76879,1,0,0:0:0:0:
472,88,77097,2,0,P|408:24|232:184,1,390,4|8,0:0|0:0,0:0:0:0:
264,228,78618,1,0,0:0:0:0:
288,280,78836,6,0,P|208:312|48:248,1,260,4|0,0:0|0:0,0:0:0:0:
16,208,79923,1,0,0:0:0:0:
44,156,80140,1,8,0:0:0:0:
80,112,80358,1,0,0:0:0:0:
112,64,80575,2,0,P|240:32|384:80,1,260,4|0,0:0|0:0,0:0:0:0:
464,128,81879,2,0,L|400:192,1,65,8|0,0:0|0:0,0:0:0:0:
372,212,82314,6,4,P|292:276|164:212,1,260
268,160,83619,1,8,0:0:0:0:
300,112,83836,1,0,0:0:0:0:
332,64,84053,2,4,P|428:64|428:208,1,260
332,252,85358,1,8,0:0:0:0:
284,284,85574,1,0,0:0:0:0:
232,308,85793,6,0,P|152:292|136:180,1,195,4|0,0:0|0:0,0:0:0:0:
188,192,86662,2,0,P|252:144|172:80,1,195,4|0,0:0|0:0,0:0:0:0:
256,192,87532,12,2,93510,0:0:0:0:
