osu file format v14

[General]
AudioFilename: The Memories of Phantasm.mp3
AudioLeadIn: 1000
PreviewTime: 61010
Countdown: 0
SampleSet: Soft
StackLeniency: 0.7
Mode: 0
LetterboxInBreaks: 1
WidescreenStoryboard: 0

[Editor]
DistanceSpacing: 0.9
BeatDivisor: 4
GridSize: 8
TimelineZoom: 1.8

[Metadata]
Title:Iro wa Nio e do Chiri Nuru o (OPver.1.2)
TitleUnicode:色は匂へど 散りぬるを (OPver.1.2)
Artist:Yuuhei Satellite
ArtistUnicode:幽閉サテライト
Creator:Crimmi
Version:Insane
Source:東方Project
Tags:Touhou iceon Starving Trancer Yusuke Ceo Kamase-tora Mayumi Morinaga senya ZUN Team Shanghai Alice Memories of Phantasm Nitori's Theme Even the Blossoming Flowers Will Eventually Scatter The Gensokyo the Gods Loved Fuujinroku Mountain of Faith SOUND VOLTEX BOOTH SDVX
BeatmapID:232288
BeatmapSetID:82326

[Difficulty]
HPDrainRate:8
CircleSize:4
OverallDifficulty:7.5
ApproachRate:8.5
SliderMultiplier:1.7
SliderTickRate:1

[Events]
//Background and Video events
0,0,"Touhou.jpg",0,0
Video,1382,"vid.avi"
//Break Periods
//Storyboard Layer 0 (Background)
//Storyboard Layer 1 (Fail)
//Storyboard Layer 2 (Pass)
//Storyboard Layer 3 (Foreground)
//Storyboard Sound Samples

[TimingPoints]
1880,434.782608695652,4,2,0,50,1,0
14053,-133.333333333333,4,2,0,50,0,0
17532,-133.333333333333,4,2,0,5,0,0
17966,434.782608695652,4,2,0,50,1,0
52748,-100,4,1,0,50,0,0
59705,-100,4,2,0,50,0,0
60139,-100,4,2,0,35,0,0
60574,-100,4,2,0,25,0,0
61444,-100,4,1,0,50,0,1
74922,-100,4,1,0,50,0,0
75357,-100,4,1,0,50,0,1
87531,-100,4,2,0,50,0,0

[Colours]
Combo1 : 128,128,255
Combo2 : 128,255,255
Combo3 : 255,128,255
Combo4 : 128,255,25

[HitObjects]
116,192,1880,6,0,B|96:144|96:144|100:96,1,85,4|0,0:0|0:0,0:0:0:0:
256,48,2314,2,0,B|304:32|304:32|352:32,1,85,2|0,0:0|0:0,0:0:0:0:
400,192,2749,2,0,B|416:240|416:240|416:288,1,85
256,336,3184,2,0,B|208:352|208:352|160:352,1,85,2|0,0:0|0:0,0:0:0:0:
256,192,3619,5,0,0:0:0:0:
256,108,3836,1,0,0:0:0:0:
196,256,4053,1,2,0:0:0:0:
312,256,4271,1,0,0:0:0:0:
176,148,4488,1,0,0:0:0:0:
340,148,4706,1,0,0:0:0:0:
256,192,4923,1,2,0:0:0:0:
256,292,5140,1,0,0:0:0:0:
352,304,5358,6,0,P|432:272|496:176,1,170
400,160,6010,1,0,0:0:0:0:
256,192,6227,1,2,0:0:0:0:
256,192,6445,1,0,0:0:0:0:
352,304,6662,1,2,0:0:0:0:
256,192,6879,1,0,0:0:0:0:
160,304,7097,6,0,P|80:272|16:176,1,170,0|2,0:0|0:0,0:0:0:0:
112,160,7749,1,0,0:0:0:0:
256,48,7966,1,0,0:0:0:0:
256,48,8184,1,0,0:0:0:0:
400,160,8401,1,2,0:0:0:0:
400,160,8619,1,0,0:0:0:0:
112,160,8836,6,0,B|128:224|128:224|128:272,1,85,4|0,0:0|0:0,0:0:0:0:
384,243,9271,2,0,B|384:224|384:224|400:160,1,85,2|0,0:0|0:0,0:0:0:0:
256,48,9706,2,0,L|256:240,1,170,2|0,0:0|0:0,0:0:0:0:
256,336,10358,1,0,0:0:0:0:
384,240,10575,6,0,B|320:224|320:224|288:208,1,85
128,240,11010,2,0,B|192:224|192:224|224:208,1,85,2|0,0:0|0:0,0:0:0:0:
256,336,11445,2,0,L|256:144,1,170,2|0,0:0|0:0,0:0:0:0:
256,64,12097,1,0,0:0:0:0:
384,64,12314,6,0,P|352:128|320:160,1,85,2|0,0:0|0:0,0:0:0:0:
256,208,12749,1,0,0:0:0:0:
256,64,12966,1,0,0:0:0:0:
128,64,13184,2,0,P|160:128|192:160,1,85,2|0,0:0|0:0,0:0:0:0:
257,214,13619,1,0,0:0:0:0:
256,64,13836,1,0,0:0:0:0:
256,208,14053,5,4,0:0:0:0:
352,304,14271,1,0,0:0:0:0:
256,208,14488,1,2,0:0:0:0:
256,320,14706,1,0,0:0:0:0:
256,208,14923,1,0,0:0:0:0:
160,304,15140,1,0,0:0:0:0:
256,208,15358,1,2,0:0:0:0:
160,208,15575,1,0,0:0:0:0:
352,208,15793,6,0,P|369:171|169:220,1,510.000019454957
256,144,17966,5,4,0:0:0:0:
256,336,18184,1,0,0:0:0:0:
256,240,18401,1,2,0:0:0:0:
256,144,18619,1,0,0:0:0:0:
256,144,18727,1,0,0:0:0:0:
256,144,18836,1,2,0:0:0:0:
336,96,19053,2,0,P|352:160|336:208,2,85,0|2|0,0:0|0:0|0:0,0:0:0:0:
176,192,19706,5,0,0:0:0:0:
336,96,19923,1,0,0:0:0:0:
176,96,20140,1,2,0:0:0:0:
336,192,20358,1,0,0:0:0:0:
176,192,20575,2,0,P|128:256|32:256,1,170,0|2,0:0|0:0,0:0:0:0:
80,176,21227,1,0,0:0:0:0:
176,96,21445,5,4,0:0:0:0:
336,96,21662,1,0,0:0:0:0:
176,192,21879,1,2,0:0:0:0:
336,192,22097,1,0,0:0:0:0:
336,192,22314,2,0,P|384:256|480:256,1,170,0|2,0:0|0:0,0:0:0:0:
432,176,22966,1,0,0:0:0:0:
336,96,23184,6,0,P|288:112|256:144,1,85,0|2,0:0|0:0,0:0:0:0:
176,288,23619,2,0,P|224:272|256:240,1,85,0|2,0:0|0:0,0:0:0:0:
112,144,24053,2,0,P|160:160|192:192,1,85,0|2,0:0|0:0,0:0:0:0:
416,256,24488,2,0,P|368:240|336:208,1,85,0|2,0:0|0:0,0:0:0:0:
256,64,24923,6,0,L|256:160,1,85,4|0,0:0|0:0,0:0:0:0:
256,320,25358,2,0,L|256:224,1,85,2|0,0:0|0:0,0:0:0:0:
416,192,25793,2,0,L|320:192,1,85
96,192,26227,2,0,L|192:192,1,85,2|0,0:0|0:0,0:0:0:0:
144,96,26662,5,4,0:0:0:0:
144,288,26879,1,0,0:0:0:0:
368,288,27097,1,0,0:0:0:0:
368,96,27314,1,2,0:0:0:0:
256,336,27532,5,0,0:0:0:0:
96,192,27749,1,0,0:0:0:0:
416,192,27966,1,0,0:0:0:0:
256,64,28184,1,2,0:0:0:0:
365,248,28401,6,0,P|248:348|125:243,1,340,4|0,0:0|0:0,0:0:0:0:
256,192,29488,1,0,0:0:0:0:
256,64,29706,1,2,0:0:0:0:
160,128,29923,1,0,0:0:0:0:
160,240,30140,5,4,0:0:0:0:
165,251,30249,1,0,0:0:0:0:
172,262,30358,1,0,0:0:0:0:
180,272,30466,1,0,0:0:0:0:
189,281,30575,1,4,0:0:0:0:
199,289,30684,1,0,0:0:0:0:
209,296,30793,1,0,0:0:0:0:
220,302,30901,1,0,0:0:0:0:
232,307,31010,5,4,0:0:0:0:
244,311,31119,1,0,0:0:0:0:
257,313,31227,1,0,0:0:0:0:
270,314,31336,1,0,0:0:0:0:
282,314,31445,1,4,0:0:0:0:
295,312,31553,1,0,0:0:0:0:
308,310,31662,1,0,0:0:0:0:
320,306,31771,1,0,0:0:0:0:
330,299,31879,6,0,P|362:267|336:144,1,170,4|0,0:0|0:0,0:0:0:0:
260,160,32532,1,0,0:0:0:0:
176,192,32749,1,2,0:0:0:0:
64,144,33075,1,0,0:0:0:0:
144,48,33401,1,2,0:0:0:0:
256,112,33619,2,0,P|336:96|416:256,1,255
320,192,34488,1,2,0:0:0:0:
192,144,34814,1,0,0:0:0:0:
224,272,35140,1,0,0:0:0:0:
224,272,35358,6,0,P|144:288|80:80,1,340
160,160,36445,1,0,0:0:0:0:
272,160,36662,1,2,0:0:0:0:
384,160,36879,1,0,0:0:0:0:
496,160,37097,2,0,P|448:240|368:256,1,170
166,257,37749,2,0,P|96:240|48:160,1,170,2|0,0:0|0:0,0:0:0:0:
47,159,38401,1,0,0:0:0:0:
144,160,38619,1,0,0:0:0:0:
96,80,38836,6,0,P|176:64|232:212,1,255,0|2,0:0|0:0,0:0:0:0:
284,260,39705,1,0,0:0:0:0:
396,280,40031,1,2,0:0:0:0:
368,176,40358,1,0,0:0:0:0:
336,80,40575,2,0,L|160:80,1,170,0|2,0:0|0:0,0:0:0:0:
80,80,41227,1,0,0:0:0:0:
80,80,41444,2,0,P|112:144|192:160,2,127.5
65,204,42314,6,0,P|117:235|160:238,1,85,4|0,0:0|0:0,0:0:0:0:
448,208,42749,2,0,P|383:188|336:192,1,85,2|0,0:0|0:0,0:0:0:0:
256,368,43184,2,0,P|288:304|272:256,1,85
256,16,43619,2,0,P|224:80|240:128,1,85,2|0,0:0|0:0,0:0:0:0:
256,192,44053,5,4,0:0:0:0:
304,120,44271,1,0,0:0:0:0:
356,56,44488,1,2,0:0:0:0:
388,132,44706,1,0,0:0:0:0:
340,204,44923,1,4,0:0:0:0:
280,268,45140,1,0,0:0:0:0:
256,192,45358,1,2,0:0:0:0:
204,264,45575,1,0,0:0:0:0:
144,192,45793,6,0,L|16:192,2,127.5,4|2|0,0:0|0:0|0:0,0:0:0:0:
352,192,46662,2,0,L|480:192,2,127.5,0|2|0,0:0|0:0|0:0,0:0:0:0:
352,192,47532,2,0,P|326:117|148:213,1,340
256,320,48619,1,0,0:0:0:0:
352,200,48836,1,2,0:0:0:0:
144,200,49053,1,0,0:0:0:0:
256,80,49271,5,0,0:0:0:0:
256,80,49488,1,0,0:0:0:0:
352,192,49706,2,0,L|384:272,1,85,2|0,0:0|0:0,0:0:0:0:
256,320,50140,1,0,0:0:0:0:
256,320,50358,1,0,0:0:0:0:
112,272,50575,2,0,L|143:193,1,85,2|0,0:0|0:0,0:0:0:0:
96,112,51010,5,2,0:0:0:0:
192,48,51227,1,0,0:0:0:0:
320,48,51445,1,2,0:0:0:0:
400,112,51662,1,0,0:0:0:0:
400,208,51879,1,2,0:0:0:0:
320,272,52097,1,0,0:0:0:0:
192,272,52314,1,2,0:0:0:0:
96,208,52532,1,0,0:0:0:0:
400,208,52748,5,4,0:0:0:0:
256,112,53075,1,0,0:0:0:0:
96,208,53401,1,0,0:0:0:0:
96,208,53619,1,4,0:0:0:0:
256,304,53945,1,0,0:0:0:0:
400,208,54271,1,0,0:0:0:0:
256,112,54488,2,0,P|215:151|244:45,1,340
400,32,55684,5,0,0:0:0:0:
256,112,56010,1,0,0:0:0:0:
400,208,56227,2,4,P|336:256|288:256,1,127.5
256,112,56879,1,4,0:0:0:0:
128,208,57097,2,4,P|64:256|16:304,2,127.5
160,320,57966,2,0,P|208:272|224:240,1,85
352,64,58401,2,0,P|304:112|288:144,1,85
256,192,58836,1,4,0:0:0:0:
352,320,59706,6,2,P|304:272|288:240,1,85,2|0,0:0|0:0,0:0:0:0:
160,64,60140,2,2,P|208:112|224:144,1,85,2|0,0:0|0:0,0:0:0:0:
256,192,60575,1,2,0:0:0:0:
64,280,60793,1,2,0:0:0:0:
192,224,61010,1,0,0:0:0:0:
32,144,61227,1,2,0:0:0:0:
32,144,61445,6,0,P|80:112|192:128,1,170,4|8,0:0|0:0,0:0:0:0:
176,16,62097,1,0,0:0:0:0:
256,64,62314,2,0,P|304:144|256:224,1,170,0|8,0:0|0:0,0:0:0:0:
192,256,62966,1,0,0:0:0:0:
88,264,63183,2,0,P|104:312|144:344,1,85
192,256,63618,2,0,L|288:272,1,85
376,288,64052,1,0,0:0:0:0:
456,224,64270,1,0,0:0:0:0:
360,184,64487,1,8,0:0:0:0:
303,270,64705,1,0,0:0:0:0:
303,270,64923,6,0,P|224:256|192:160,1,170,4|0,0:0|0:0,0:0:0:0:
96,112,65575,1,0,0:0:0:0:
96,112,65684,1,0,0:0:0:0:
96,112,65793,2,0,P|144:80|192:64,1,85
256,112,66227,2,0,P|304:128|352:112,1,85,8|0,0:0|0:0,0:0:0:0:
416,64,66662,2,0,P|448:128|256:208,1,340,4|0,0:0|0:0,0:0:0:0:
160,176,67749,1,0,0:0:0:0:
48,176,67966,2,0,P|64:240|112:272,1,85,8|0,0:0|0:0,0:0:0:0:
160,176,68401,6,4,P|208:144|336:192,1,170
256,256,69053,1,0,0:0:0:0:
352,256,69271,2,4,P|400:320|480:256,1,170,4|12,0:0|0:0,0:0:0:0:
480,192,69923,1,0,0:0:0:0:
480,192,70140,2,4,P|416:128|208:208,1,340
112,240,71227,1,0,0:0:0:0:
208,288,71445,1,8,0:0:0:0:
304,336,71662,1,0,0:0:0:0:
304,336,71879,6,0,P|336:304|288:208,1,170,4|0,0:0|0:0,0:0:0:0:
208,144,72532,1,0,0:0:0:0:
208,144,72640,1,0,0:0:0:0:
208,144,72749,1,0,0:0:0:0:
208,144,72966,2,0,L|128:224,1,85,0|8,0:0|0:0,0:0:0:0:
64,272,73401,5,0,0:0:0:0:
64,272,73619,2,4,P|128:320|304:256,1,255
368,336,74488,2,0,P|384:272|368:240,1,85
448,192,74923,2,0,P|400:176|352:176,1,85,4|0,0:0|0:0,0:0:0:0:
272,160,75358,6,0,P|224:208|112:200,1,170,4|8,0:0|0:0,0:0:0:0:
176,128,76009,1,0,0:0:0:0:
176,128,76227,2,0,L|224:304,1,170
304,256,76879,1,0,0:0:0:0:
276,168,77097,1,0,0:0:0:0:
256,80,77314,1,0,0:0:0:0:
352,128,77531,2,0,P|400:192|368:272,1,170
320,208,78183,1,0,0:0:0:0:
320,208,78401,2,0,P|272:224|224:224,1,85,8|0,0:0|0:0,0:0:0:0:
172,287,78836,6,0,P|144:224|208:144,1,170
185,69,79487,1,0,0:0:0:0:
185,69,79596,1,0,0:0:0:0:
185,69,79706,2,0,P|256:96|272:192,1,170,0|8,0:0|0:0,0:0:0:0:
256,272,80358,1,0,0:0:0:0:
368,272,80575,6,0,L|336:192,1,85
144,272,81010,2,0,L|176:192,1,85
256,64,81445,1,0,0:0:0:0:
256,160,81662,1,0,0:0:0:0:
336,112,81879,1,8,0:0:0:0:
176,112,82097,1,0,0:0:0:0:
256,160,82314,6,0,P|288:192|416:160,2,170,4|0|4,0:0|0:0|0:0,0:0:0:0:
256,64,83401,1,0,0:0:0:0:
256,160,83619,1,8,0:0:0:0:
256,256,83836,1,0,0:0:0:0:
256,160,84053,2,0,P|224:192|96:160,2,170,4|0|4,0:0|0:0|0:0,0:0:0:0:
176,112,85140,1,0,0:0:0:0:
256,48,85358,1,8,0:0:0:0:
336,112,85575,1,0,0:0:0:0:
408,72,85792,6,0,P|416:120|400:168,1,85,4|0,0:0|0:0,0:0:0:0:
336,112,86226,2,0,L|248:152,1,85
176,176,86661,2,0,P|208:216|320:208,1,170,4|0,0:0|0:0,0:0:0:0:
376,272,87313,1,0,0:0:0:0:
256,192,87531,12,2,93509,0:0:0:0:
