osu file format v14

[General]
AudioFilename: The Memories of Phantasm.mp3
AudioLeadIn: 1000
PreviewTime: 61010
Countdown: 0
SampleSet: Soft
StackLeniency: 0.7
Mode: 0
LetterboxInBreaks: 1
WidescreenStoryboard: 1

[Editor]
DistanceSpacing: 1
BeatDivisor: 4
GridSize: 4
TimelineZoom: 1.6

[Metadata]
Title:Iro wa Nio e do Chiri Nuru o (OPver.1.2)
TitleUnicode:色は匂へど 散りぬるを (OPver.1.2)
Artist:Yuuhei Satellite
ArtistUnicode:幽閉サテライト
Creator:Crimmi
Version:Hard
Source:東方Project
Tags:Touhou iceon Starving Trancer Yusuke Ceo Kamase-tora Mayumi Morinaga senya ZUN Team Shanghai Alice Memories of Phantasm Nitori's Theme Even the Blossoming Flowers Will Eventually Scatter The Gensokyo the Gods Loved Fuujinroku Mountain of Faith SOUND VOLTEX BOOTH SDVX
BeatmapID:790232
BeatmapSetID:82326

[Difficulty]
HPDrainRate:7
CircleSize:4
OverallDifficulty:6.3
ApproachRate:7
SliderMultiplier:1.7
SliderTickRate:1

[Events]
//Background and Video events
0,0,"Touhou.jpg",0,0
Video,1382,"vid.avi"
//Break Periods
2,18166,24022
//Storyboard Layer 0 (Background)
//Storyboard Layer 1 (Fail)
//Storyboard Layer 2 (Pass)
//Storyboard Layer 3 (Foreground)
//Storyboard Sound Samples

[TimingPoints]
1880,434.782608695652,4,2,0,50,1,0
14053,-133.333333333333,4,2,0,50,0,0
17532,-133.333333333333,4,2,0,5,0,0
17966,434.782608695652,4,2,0,50,1,0
52748,-100,4,1,0,50,0,0
59705,-100,4,2,0,50,0,0
60139,-100,4,2,0,35,0,0
60574,-100,4,2,0,25,0,0
61444,-100,4,1,0,50,0,1
74922,-100,4,1,0,50,0,0
75357,-100,4,1,0,50,0,1
87531,-100,4,2,0,50,0,0

[Colours]
Combo1 : 128,128,255
Combo2 : 128,255,255
Combo3 : 255,128,255
Combo4 : 128,255,25

[HitObjects]
24,96,1880,6,0,P|72:72|192:104,1,170,2|0,0:0|0:0,0:0:0:0:
240,152,2532,1,0,0:0:0:0:
263,71,2749,2,0,P|303:95|327:159,1,85,2|0,0:0|0:0,0:0:0:0:
240,152,3184,1,0,0:0:0:0:
323,128,3401,1,0,0:0:0:0:
400,96,3619,2,0,P|400:152|376:192,1,85
323,128,4053,2,0,L|328:40,2,85,0|0|2,0:0|0:0|0:0,0:0:0:0:
320,216,4706,1,0,0:0:0:0:
248,176,4923,2,0,P|240:224|256:264,1,85
320,216,5358,6,0,L|144:120,2,170,0|0|2,0:0|0:0|0:0,0:0:0:0:
392,256,6445,1,0,0:0:0:0:
464,296,6662,1,0,0:0:0:0:
432,216,6879,1,0,0:0:0:0:
408,136,7097,2,0,L|328:200,1,85
256,208,7532,1,0,0:0:0:0:
288,128,7749,2,0,P|344:184|320:272,1,170,2|0,0:0|0:0,0:0:0:0:
256,208,8401,1,2,0:0:0:0:
176,232,8619,1,0,0:0:0:0:
176,232,8836,6,0,P|200:272|248:296,1,85
311,271,9271,2,0,P|333:234|336:192,1,85
278,126,9706,2,0,P|237:124|199:143,2,85,2|0|0,0:0|0:0|0:0,0:0:0:0:
332,180,10358,1,0,0:0:0:0:
408,164,10575,2,0,P|384:120|324:100,1,85
332,180,11010,2,0,P|363:235|411:251,1,85
468,240,11445,2,0,P|452:308|364:340,1,170,2|0,0:0|0:0,0:0:0:0:
385,257,12097,1,0,0:0:0:0:
468,240,12314,6,0,L|284:280,1,170,2|0,0:0|0:0,0:0:0:0:
220,292,12966,1,0,0:0:0:0:
284,352,13184,2,0,P|224:280|280:204,1,170,2|0,0:0|0:0,0:0:0:0:
304,152,13836,1,0,0:0:0:0:
256,192,14053,12,4,17966,0:0:0:0:
36,64,24922,6,0,P|96:56|144:72,1,85,4|0,0:0|0:0,0:0:0:0:
200,84,25357,2,0,P|260:96|300:72,1,85,2|0,0:0|0:0,0:0:0:0:
360,56,25792,2,0,L|448:48,2,85,0|0|2,0:0|0:0|0:0,0:0:0:0:
284,92,26444,1,0,0:0:0:0:
356,136,26661,6,0,P|308:168|248:156,1,85
284,92,27096,1,2,0:0:0:0:
364,60,27313,2,0,L|348:264,1,170
344,316,27965,1,2,0:0:0:0:
344,316,28183,1,0,0:0:0:0:
416,360,28400,6,0,P|424:296|268:272,1,255
212,320,29270,1,0,0:0:0:0:
344,316,29487,1,0,0:0:0:0:
276,264,29705,1,2,0:0:0:0:
208,216,29922,1,0,0:0:0:0:
276,264,30139,6,0,P|284:216|280:204,3,42.5,0|0|2|0,0:0|0:0|0:0|0:0,0:0:0:0:
272,180,30574,2,0,P|248:160|224:152,3,42.5,0|0|2|0,0:0|0:0|0:0|0:0,0:0:0:0:
196,144,31009,2,0,P|160:164|144:180,3,42.5,2|0|2|0,0:0|0:0|0:0|0:0,0:0:0:0:
132,196,31444,2,0,P|132:240|144:264,3,42.5,0|2|0|2,0:0|0:0|0:0|0:0,0:0:0:0:
96,260,31879,6,0,P|184:304|232:256,1,170,4|0,0:0|0:0,0:0:0:0:
272,192,32531,1,0,0:0:0:0:
336,248,32748,2,0,P|356:200|308:116,2,127.5,2|0|0,0:0|0:0|0:0,0:0:0:0:
272,192,33618,2,0,P|328:168|392:312,1,255
320,340,34487,2,0,L|468:352,2,127.5,2|0|0,0:0|0:0|0:0,0:0:0:0:
264,276,35357,6,0,B|228:324|244:368|244:368|140:336,1,170
96,320,36009,1,0,0:0:0:0:
24,364,36226,2,0,P|12:308|32:264,1,85,2|0,0:0|0:0,0:0:0:0:
89,238,36661,2,0,P|102:278|96:320,1,85
24,364,37096,2,0,L|176:280,1,170
224,348,37748,2,0,P|252:296|200:208,1,170,2|0,0:0|0:0,0:0:0:0:
116,212,38400,2,0,L|220:208,1,85
276,244,38835,6,0,B|300:168|228:136|228:136|360:124,1,255
416,176,39705,2,0,P|432:120|376:48,2,127.5,2|0|0,0:0|0:0|0:0,0:0:0:0:
500,180,40574,2,0,L|312:184,1,170
244,184,41226,1,0,0:0:0:0:
160,184,41444,2,0,P|176:128|244:96,2,127.5,2|0|0,0:0|0:0|0:0,0:0:0:0:
244,184,42313,6,0,L|48:188,2,170,0|0|2,0:0|0:0|0:0,0:0:0:0:
416,180,43618,1,0,0:0:0:0:
316,316,44052,2,0,L|424:168,1,170,0|2,0:0|0:0,0:0:0:0:
492,220,44705,1,0,0:0:0:0:
492,220,44922,2,0,P|496:152|396:104,1,170,0|2,0:0|0:0,0:0:0:0:
336,124,45574,1,0,0:0:0:0:
296,48,45792,6,0,P|264:88|268:176,2,127.5,4|0|2,0:0|0:0|0:0,0:0:0:0:
336,124,46661,2,0,L|192:200,1,127.5
108,236,47313,1,2,0:0:0:0:
108,236,47531,2,0,P|144:288|152:352,2,127.5,0|0|2,0:0|0:0|0:0,0:0:0:0:
52,300,48400,2,0,P|28:248|84:152,1,170
191,225,49052,1,2,0:0:0:0:
108,236,49270,6,0,P|160:224|220:232,1,85
272,256,49705,2,0,P|328:264|368:248,1,85,2|0,0:0|0:0,0:0:0:0:
440,244,50139,2,0,P|496:268|520:304,2,85,0|0|2,0:0|0:0|0:0,0:0:0:0:
436,328,50792,1,0,0:0:0:0:
440,244,51009,2,0,B|352:268|360:344|360:344|224:292,1,255
180,344,51879,2,0,P|172:288|276:224,1,170,0|2,0:0|0:0,0:0:0:0:
324,268,52531,1,0,0:0:0:0:
251,221,52748,6,0,L|131:145,2,127.5,4|8|0,0:0|0:0|0:0,0:0:0:0:
324,268,53618,2,0,L|264:132,2,127.5,0|8|0,0:0|0:0|0:0,0:0:0:0:
392,320,54487,2,0,P|344:348|244:296,2,170,0|8|0,0:0|0:0|0:0,0:0:0:0:
472,220,55683,1,0,0:0:0:0:
344,236,56009,1,0,0:0:0:0:
472,220,56226,5,4,0:0:0:0:
372,140,56552,1,4,0:0:0:0:
336,264,56879,1,4,0:0:0:0:
292,192,57096,2,0,P|256:244|268:312,2,127.5
336,264,57965,2,0,L|492:344,2,170,4|0|4,0:0|0:0|0:0,0:0:0:0:
48,80,59705,5,0,0:0:0:0:
184,180,60139,1,2,0:0:0:0:
112,132,60574,2,0,P|156:104|264:144,1,170
312,208,61226,1,2,0:0:0:0:
348,124,61444,6,0,P|392:160|384:264,1,170,4|8,0:0|0:0,0:0:0:0:
312,208,62096,1,0,0:0:0:0:
383,264,62313,2,0,L|232:144,1,170,0|8,0:0|0:0,0:0:0:0:
184,104,62965,1,0,0:0:0:0:
240,40,63183,2,0,P|188:20|144:28,1,85
104,88,63618,2,0,P|108:136|136:168,1,85,8|0,0:0|0:0,0:0:0:0:
212,176,64052,2,0,P|252:140|260:108,2,85,0|0|8,0:0|0:0|0:0,0:0:0:0:
136,216,64705,1,0,0:0:0:0:
60,256,64922,6,0,P|140:216|208:280,1,170,0|8,0:0|0:0,0:0:0:0:
244,328,65574,1,0,0:0:0:0:
316,268,65792,2,0,L|336:352,2,85,0|0|8,0:0|0:0|0:0,0:0:0:0:
244,328,66444,1,0,0:0:0:0:
236,244,66661,2,8,P|264:204|376:216,1,170,0|8,0:0|0:0,0:0:0:0:
316,268,67313,1,0,0:0:0:0:
316,268,67531,2,0,P|380:292|448:212,1,170,0|8,0:0|0:0,0:0:0:0:
480,152,68183,1,0,0:0:0:0:
396,132,68400,6,0,P|340:128|296:140,1,85,4|0,0:0|0:0,0:0:0:0:
151,172,68835,2,0,P|193:177|236:171,1,85,8|0,0:0|0:0,0:0:0:0:
280,244,69270,2,0,P|312:200|260:100,1,170,4|8,0:0|0:0,0:0:0:0:
196,60,69922,1,0,0:0:0:0:
269,103,70139,2,0,P|325:95|373:103,1,85,4|0,0:0|0:0,0:0:0:0:
496,156,70574,2,0,P|454:163|412:160,1,85,8|0,0:0|0:0,0:0:0:0:
352,98,71009,2,0,P|332:160|400:240,1,170,4|8,0:0|0:0,0:0:0:0:
472,264,71661,1,0,0:0:0:0:
391,237,71879,6,0,P|324:224|212:240,1,170,4|8,0:0|0:0,0:0:0:0:
144,264,72531,1,0,0:0:0:0:
64,296,72748,2,0,P|60:240|80:204,2,85,8|0|8,0:0|0:0|0:0,0:0:0:0:
144,264,73400,2,2,P|208:252|320:272,1,170
388,300,74052,1,4,0:0:0:0:
460,188,74270,1,8,0:0:0:0:
364,204,74487,1,4,0:0:0:0:
488,288,74705,1,12,0:0:0:0:
364,204,74922,2,12,L|284:144,1,85
320,72,75357,6,0,P|256:80|220:188,1,170,4|8,0:0|0:0,0:0:0:0:
160,232,76009,1,0,0:0:0:0:
244,236,76226,2,0,L|200:308,2,85,0|0|8,0:0|0:0|0:0,0:0:0:0:
160,232,76879,1,0,0:0:0:0:
244,236,77096,2,0,B|292:232|292:232|340:264|388:240|388:240|440:220,1,170,0|8,0:0|0:0,0:0:0:0:
344,176,77748,2,0,P|332:236|408:324,1,170
460,368,78400,2,0,P|472:320|468:272,1,85,8|0,0:0|0:0,0:0:0:0:
484,204,78835,6,0,P|424:216|408:332,1,170,4|8,0:0|0:0,0:0:0:0:
476,284,79487,1,0,0:0:0:0:
476,284,79705,2,0,L|304:296,1,170
220,300,80357,1,0,0:0:0:0:
220,300,80574,2,0,P|192:248|140:220,1,85
136,304,81009,1,8,0:0:0:0:
220,300,81226,2,0,L|336:296,1,85
388,292,81661,1,0,0:0:0:0:
468,332,81879,2,0,P|472:280|460:244,1,85,8|0,0:0|0:0,0:0:0:0:
476,164,82313,6,0,P|424:180|376:208,1,85,4|0,0:0|0:0,0:0:0:0:
320,228,82748,1,8,0:0:0:0:
324,144,82965,1,0,0:0:0:0:
324,144,83183,2,0,P|264:160|264:280,1,170,4|8,0:0|0:0,0:0:0:0:
320,228,83835,1,0,0:0:0:0:
324,144,84052,2,0,P|272:140|216:164,1,85,4|0,0:0|0:0,0:0:0:0:
82,180,84487,2,0,P|123:193|168:176,1,85,8|0,0:0|0:0,0:0:0:0:
124,108,84922,2,0,P|88:168|144:264,1,170,4|8,0:0|0:0,0:0:0:0:
192,316,85574,1,0,0:0:0:0:
244,248,85792,6,0,P|276:292|288:328,1,85,4|0,0:0|0:0,0:0:0:0:
352,264,86226,2,0,L|296:184,2,85,8|0|4,0:0|0:0|0:0,0:0:0:0:
396,336,86879,1,0,0:0:0:0:
428,212,87096,1,8,0:0:0:0:
484,296,87313,1,0,0:0:0:0:
344,256,87531,1,4,0:0:0:0:
256,192,87639,12,2,93509,0:0:0:0:
