osu file format v14

[General]
AudioFilename: The Memories of Phantasm.mp3
AudioLeadIn: 1000
PreviewTime: 61010
Countdown: 0
SampleSet: Soft
StackLeniency: 0.7
Mode: 0
LetterboxInBreaks: 1
WidescreenStoryboard: 0

[Editor]
DistanceSpacing: 0.9
BeatDivisor: 4
GridSize: 4
TimelineZoom: 1

[Metadata]
Title:Iro wa Nio e do Chiri Nuru o (OPver.1.2)
TitleUnicode:色は匂へど 散りぬるを (OPver.1.2)
Artist:Yuuhei Satellite
ArtistUnicode:幽閉サテライト
Creator:Crimmi
Version:Easy
Source:東方Project
Tags:Touhou iceon Starving Trancer Yusuke Ceo Kamase-tora Mayumi Morinaga senya ZUN Team Shanghai Alice Memories of Phantasm Nitori's Theme Even the Blossoming Flowers Will Eventually Scatter The Gensokyo the Gods Loved Fuujinroku Mountain of Faith SOUND VOLTEX BOOTH SDVX
BeatmapID:227886
BeatmapSetID:82326

[Difficulty]
HPDrainRate:3
CircleSize:2
OverallDifficulty:3
ApproachRate:3
SliderMultiplier:1
SliderTickRate:1

[Events]
//Background and Video events
0,0,"Touhou.jpg",0,0
Video,1382,"vid.avi"
//Break Periods
2,18166,30439
//Storyboard Layer 0 (Background)
//Storyboard Layer 1 (Fail)
//Storyboard Layer 2 (Pass)
//Storyboard Layer 3 (Foreground)
//Storyboard Sound Samples

[TimingPoints]
1880,434.782608695652,4,2,0,50,1,0
14053,-133.333333333333,4,2,0,50,0,0
17532,-133.333333333333,4,2,0,5,0,0
17966,434.782608695652,4,2,0,50,1,0
52748,-100,4,1,0,50,0,0
59705,-100,4,2,0,50,0,0
60139,-100,4,2,0,35,0,0
60574,-100,4,2,0,25,0,0
61444,-100,4,1,0,50,0,1
74922,-100,4,1,0,50,0,0
75357,-100,4,1,0,50,0,1
87531,-100,4,2,0,50,0,0

[Colours]
Combo1 : 128,128,255
Combo2 : 128,255,255
Combo3 : 255,128,255
Combo4 : 128,255,25

[HitObjects]
100,224,1880,6,0,P|189:319|404:216,1,400,2|0,0:0|0:0,0:0:0:0:
256,112,4488,1,2,0:0:0:0:
436,112,5358,1,0,0:0:0:0:
344,268,6227,1,2,0:0:0:0:
256,112,7097,1,0,0:0:0:0:
344,268,7966,1,2,0:0:0:0:
164,268,8836,6,0,P|132:316|84:156,2,400,0|2|0,0:0|0:0|0:0,0:0:0:0:
344,288,13184,1,2,0:0:0:0:
476,320,14053,6,0,P|311:84|145:330,1,675.000025749208,0|4,0:0|0:0,0:0:0:0:
160,272,31879,6,0,P|92:269|164:136,1,300,4|2,0:0|0:0,0:0:0:0:
240,172,33618,1,0,0:0:0:0:
104,44,34487,1,2,0:0:0:0:
104,44,35358,6,0,B|72:108|72:108|88:124|88:124|56:140|56:140|72:156|72:156|40:172|40:172|56:188|56:188|24:204|24:204|40:220|40:220|8:236|8:236|24:252|24:252|72:316,1,400,0|2,0:0|0:0,0:0:0:0:
232,236,37966,1,0,0:0:0:0:
296,300,38401,1,2,0:0:0:0:
336,220,38835,6,0,P|312:172|176:148,2,200,0|2|0,0:0|0:0|0:0,0:0:0:0:
172,296,41445,1,2,0:0:0:0:
44,168,42314,6,0,P|108:136|216:200,1,200,0|2,0:0|0:0,0:0:0:0:
260,268,43619,1,0,0:0:0:0:
304,188,44052,2,0,P|376:112|464:144,1,200,0|2,0:0|0:0,0:0:0:0:
396,204,45358,1,0,0:0:0:0:
416,292,45793,6,0,P|352:324|320:324,1,100,4|2,0:0|0:0,0:0:0:0:
256,264,46662,1,0,0:0:0:0:
188,324,47097,2,0,P|161:324|97:292,2,100,2|0|2,0:0|0:0|0:0,0:0:0:0:
256,264,48401,2,0,L|256:152,1,100,0|2,0:0|0:0,0:0:0:0:
176,120,49271,6,0,P|256:72|344:144,2,200,0|2|0,0:0|0:0|0:0,0:0:0:0:
256,280,51879,1,2,0:0:0:0:
436,284,52749,6,0,L|464:180,1,100,4|8,0:0|0:0,0:0:0:0:
388,136,53619,1,0,0:0:0:0:
308,176,54052,1,0,0:0:0:0:
228,212,54487,1,0,0:0:0:0:
144,244,54922,1,0,0:0:0:0:
60,212,55357,2,0,P|60:272|96:320,1,100
164,332,56226,5,0,0:0:0:0:
212,160,57096,1,0,0:0:0:0:
48,232,57965,1,0,0:0:0:0:
132,196,58401,1,0,0:0:0:0:
188,268,58836,1,4,0:0:0:0:
352,344,59706,5,0,0:0:0:0:
284,284,60140,1,2,0:0:0:0:
196,308,60575,1,0,0:0:0:0:
128,248,61010,1,0,0:0:0:0:
68,180,61445,6,0,P|20:148|164:132,1,400,4|0,0:0|0:0,0:0:0:0:
176,216,63619,1,8,0:0:0:0:
252,264,64053,1,0,0:0:0:0:
328,216,64488,1,8,0:0:0:0:
328,124,64923,6,0,P|475:148|427:180,2,400,4|0|4,0:0|0:0|0:0,0:0:0:0:
284,204,68836,6,0,P|236:220|172:204,1,100,8|0,0:0|0:0,0:0:0:0:
100,192,69706,2,0,L|68:128,2,50,8|0|4,0:0|0:0|0:0,0:0:0:0:
88,280,70575,2,0,P|152:296|200:280,1,100,8|0,0:0|0:0,0:0:0:0:
272,268,71445,1,8,0:0:0:0:
352,224,71879,5,4,0:0:0:0:
428,272,72314,1,8,0:0:0:0:
480,196,72749,2,0,L|504:128,2,50,0|0|8,0:0|0:0|0:0,0:0:0:0:
404,144,73619,2,4,P|368:120|256:88,2,150,4|4|12,0:0|0:0|0:0,0:0:0:0:
364,224,75358,6,0,B|332:272|332:272|284:304|284:304|220:304|220:304|172:272|172:272|140:208,1,300,4|8,0:0|0:0,0:0:0:0:
200,148,77097,1,4,0:0:0:0:
256,76,77532,1,8,0:0:0:0:
340,40,77966,1,0,0:0:0:0:
424,76,78401,1,8,0:0:0:0:
488,140,78836,6,0,B|413:198|344:124|344:124|200:124,1,300,4|8,0:0|0:0,0:0:0:0:
116,124,80575,1,4,0:0:0:0:
80,208,81010,1,8,0:0:0:0:
120,288,81445,1,0,0:0:0:0:
208,284,81879,1,8,0:0:0:0:
208,192,82314,6,0,P|256:144|388:276,1,300,4|8,0:0|0:0,0:0:0:0:
480,292,84053,2,0,P|336:340|308:220,1,300,4|8,0:0|0:0,0:0:0:0:
360,160,85793,5,4,0:0:0:0:
256,308,86662,1,4,0:0:0:0:
256,192,87531,12,2,93509,0:0:0:0:
