osu file format v14

[General]
AudioFilename: audio.ogg
AudioLeadIn: 0
PreviewTime: 205383
Countdown: 0
SampleSet: Soft
StackLeniency: 0.7
Mode: 0
LetterboxInBreaks: 0
WidescreenStoryboard: 1

[Editor]
Bookmarks: 7280,13280,22280,34280,46280,58280,71780,172655,174061,180717,241936
DistanceSpacing: 0.6
BeatDivisor: 4
GridSize: 4
TimelineZoom: 1.9

[Metadata]
Title:Hatenaki Kaze no Kiseki sae ~Ha~
TitleUnicode:果てなき風の軌跡さえ~破~
Artist:Yuuhei Satellite
ArtistUnicode:幽閉サテライト
Creator:Dailycare
Version:GimBab's Lunatic
Source:東方風神録 ~ Mountain of Faith.
Tags:Enon GimBab senya Marcia Iceon ZUN 東方Project Touhou Project MoF Fuujinroku TH10 Team Shanghai Alice 信仰は儚き人間の為に Shinkou wa hakanaki ningen no tame ni Faith Is for the Transient People Japanese Video Game
BeatmapID:3778704
BeatmapSetID:1822334

[Difficulty]
HPDrainRate:5
CircleSize:4
OverallDifficulty:7
ApproachRate:8.5
SliderMultiplier:1.7
SliderTickRate:1

[Events]
//Background and Video events
0,0,"2=).jpg",0,0
//Break Periods
2,130677,135427
2,192177,196927
//Storyboard Layer 0 (Background)
//Storyboard Layer 1 (Fail)
//Storyboard Layer 2 (Pass)
//Storyboard Layer 3 (Foreground)
//Storyboard Layer 4 (Overlay)
//Storyboard Sound Samples

[TimingPoints]
-23,375,4,2,1,40,1,0
2977,-250,4,2,1,40,0,0
8977,-166.666666666667,4,2,1,50,0,0
17039,-125,4,2,1,60,0,0
17602,-83.3333333333333,4,2,1,80,0,0
17977,-100,4,2,1,80,0,1
18070,-100,4,2,1,80,0,0
29977,-125,4,2,1,50,0,0
39164,-125,4,2,1,20,0,0
39352,-125,4,2,1,50,0,0
50977,-125,4,2,0,50,0,0
52570,-125,4,3,0,56,0,0
53227,-125,4,3,0,62,0,0
53602,-125,4,2,1,70,0,0
53977,-100,4,2,1,80,0,1
54070,-100,4,2,1,80,0,0
67477,-83.3333333333333,4,2,1,85,0,1
79477,-125,4,2,1,47,0,0
79758,-125,4,2,1,52,0,0
80227,-125,4,2,1,57,0,0
80508,-125,4,2,1,62,0,0
80602,-83.3333333333333,4,2,1,62,0,0
80977,-83.3333333333333,4,2,1,85,0,1
91477,-100,4,2,1,70,0,0
92977,-100,4,2,1,50,0,0
93539,-125,4,2,1,70,0,0
94102,-83.3333333333333,4,2,1,80,0,0
94477,-100,4,2,1,80,0,1
94570,-100,4,2,1,80,0,0
106477,-100,4,2,1,70,0,1
106570,-100,4,2,1,70,0,0
116977,-100,4,3,0,70,0,0
118477,-100,4,2,1,75,0,1
118570,-100,4,2,1,75,0,0
128227,-100,4,2,1,80,0,0
128977,-100,4,3,0,80,0,0
136102,-166.666666666667,4,2,1,80,0,0
136383,-166.666666666667,4,2,1,20,0,0
136477,-100,4,2,1,80,0,1
136570,-100,4,2,1,80,0,0
143977,-83.3333333333333,4,2,1,85,0,1
155977,-166.666666666667,4,2,1,70,0,0
156727,-166.666666666667,4,3,0,60,0,0
157102,-83.3333333333333,4,3,0,70,0,0
157477,-83.3333333333333,4,2,1,85,0,1
167883,-83.3333333333333,4,2,1,85,0,0
167977,-83.3333333333333,4,2,1,85,0,1
179227,-125,4,2,1,85,0,1
179883,-83.3333333333333,4,2,1,85,0,0
179977,-83.3333333333333,4,2,1,85,0,1
191977,-100,4,2,1,60,0,0
197602,-83.3333333333333,4,2,1,70,0,0
197977,-166.666666666667,4,2,1,75,0,1
198070,-166.666666666667,4,2,1,75,0,0
199102,-100,4,2,1,75,0,0
199477,-125,4,2,1,75,0,1
199570,-125,4,2,1,75,0,0
200977,-100,4,2,1,75,0,1
201070,-100,4,2,1,75,0,0
202477,-100,4,2,1,80,0,1
203883,-100,4,2,1,80,0,0
206602,-100,4,2,1,70,0,1
206695,-100,4,2,1,70,0,0
206977,-83.3333333333333,4,2,1,85,0,1
217477,-100,4,3,0,75,0,0
217852,-83.3333333333333,4,2,1,85,0,1
229383,-83.3333333333333,4,2,1,85,0,0
229477,-83.3333333333333,4,2,1,85,0,1
241477,-100,4,2,1,70,0,0
244383,-100,4,2,1,30,0,1
244477,-100,4,2,1,30,0,0

[Colours]
Combo1 : 156,220,198
Combo2 : 154,211,112

[HitObjects]
44,232,2977,6,0,P|51:164|63:97,2,136,6|2|2,0:0|0:0|0:0,0:0:0:0:
76,304,4852,1,2,0:0:0:0:
144,344,5227,1,2,0:0:0:0:
220,340,5602,1,2,0:0:0:0:
284,296,5977,6,0,P|351:288|416:267,1,136,6|2,0:0|0:0,0:0:0:0:
368,208,7102,1,2,0:0:0:0:
444,200,7477,2,0,P|445:183|447:166,1,34,2|0,0:0|0:0,0:0:0:0:
383,94,7852,2,0,P|382:111|380:128,1,34,2|0,0:0|0:0,0:0:0:0:
460,76,8227,1,2,0:0:0:0:
368,208,8602,1,2,0:0:0:0:
180,68,8977,6,2,P|275:67|302:158,2,203.999993774414,4|2|2,0:1|0:0|0:0,0:0:0:0:
0,4,10852,2,0,P|24:12|48:18,1,50.9999984436036,2|0,0:0|0:0,0:0:0:0:
188,156,11227,2,0,P|139:139|90:127,1,101.999996887207,2|2,0:0|0:0,0:0:0:0:
136,44,11789,1,2,0:0:0:0:
0,104,11977,6,0,L|7:154,1,50.9999984436036,4|0,0:1|0:0,0:0:0:0:
60,264,12352,2,0,L|67:213,1,50.9999984436036,2|0,0:0|0:0,0:0:0:0:
152,196,12727,2,0,L|252:180,1,101.999996887207,2|2,0:0|0:0,0:0:0:0:
400,304,13477,2,0,L|300:288,2,101.999996887207,2|2|2,0:0|0:0|0:0,0:0:0:0:
504,232,14508,1,2,0:0:0:0:
390,178,14789,1,2,0:0:0:0:
432,240,14977,1,4,0:0:0:0:
256,192,15070,12,0,16477,0:0:0:0:
80,144,17039,5,4,0:3:0:0:
80,144,17133,1,4,0:3:0:0:
80,144,17227,2,0,L|84:177,3,34,8|4|4|0,0:3|0:3|0:3|0:0,0:0:0:0:
71,131,17602,6,0,P|50:61|93:1,1,152.999995330811,6|2,0:0|0:0,0:0:0:0:
216,92,17977,6,0,P|175:79|133:75,1,85,4|0,3:2|0:0,0:0:0:0:
104,232,18352,2,0,P|145:245|187:249,1,85,8|2,0:0|0:0,0:0:0:0:
336,204,18727,1,0,3:0:0:0:
316,44,18914,1,2,0:0:0:0:
156,64,19102,1,8,3:2:0:0:
176,224,19289,1,2,0:0:0:0:
247,136,19477,6,0,P|243:93|235:51,1,85,2|0,3:0|0:0,0:0:0:0:
320,188,19852,2,0,P|312:229|308:272,1,85,8|2,0:0|0:0,0:0:0:0:
156,328,20227,1,0,3:0:0:0:
132,168,20414,1,2,0:0:0:0:
292,144,20602,1,8,3:2:0:0:
316,304,20789,1,2,0:3:0:0:
316,304,20883,1,0,0:0:0:0:
316,304,20977,6,0,L|232:316,1,85,2|0,3:0|0:0,0:0:0:0:
100,232,21352,2,0,L|184:244,1,85,8|2,0:0|0:0,0:0:0:0:
32,292,21727,1,0,3:0:0:0:
0,136,21914,1,2,0:0:0:0:
156,104,22102,1,8,3:2:0:0:
188,260,22289,1,2,0:0:0:0:
96,199,22477,6,0,P|104:241|110:283,1,85,2|0,3:0|0:0,0:0:0:0:
220,168,22852,2,0,P|208:208|199:250,1,85,8|2,0:0|0:0,0:0:0:0:
336,176,23227,1,0,3:0:0:0:
312,336,23414,1,2,0:0:0:0:
472,360,23602,1,8,0:0:0:0:
496,200,23789,1,10,0:3:0:0:
496,200,23883,1,8,0:3:0:0:
495,200,23977,6,0,P|454:208|414:222,1,85,4|0,3:2|0:0,0:0:0:0:
268,148,24352,2,0,P|309:156|349:170,1,85,8|2,0:0|0:0,0:0:0:0:
372,328,24727,1,0,3:0:0:0:
212,352,24914,1,2,0:0:0:0:
188,192,25102,1,8,3:2:0:0:
348,168,25289,1,2,0:0:0:0:
282,258,25477,6,0,P|275:215|263:175,1,85,2|0,3:0|0:0,0:0:0:0:
376,64,25852,2,0,P|364:104|359:146,1,85,8|2,0:0|0:0,0:0:0:0:
468,268,26227,1,0,3:0:0:0:
512,116,26414,1,2,0:0:0:0:
376,32,26602,1,8,3:2:0:0:
332,184,26789,1,2,0:0:0:0:
332,184,26883,1,0,0:0:0:0:
332,184,26977,6,0,L|416:168,1,85,4|0,3:2|0:0,0:0:0:0:
264,116,27352,2,0,L|180:100,1,85,8|2,0:0|0:0,0:0:0:0:
180,100,27633,1,0,0:0:0:0:
180,100,27727,1,2,1:3:0:0:
44,192,27914,2,0,L|85:184,1,42.5,2|10,0:0|0:3,0:0:0:0:
136,32,28195,2,0,L|94:39,1,42.5,0|2,1:0|1:3,0:0:0:0:
20,124,28477,6,0,L|145:102,2,127.5,10|10|6,1:0|1:0|1:0,0:0:0:0:
168,264,29320,1,12,0:3:0:0:
168,264,29414,1,4,0:3:0:0:
168,264,29508,1,8,0:3:0:0:
168,264,29602,2,0,P|177:222|167:181,1,85,8|8,1:0|0:0,0:0:0:0:
72,168,29977,6,0,L|93:302,1,136,6|0,0:0|0:0,0:0:0:0:
240,372,30727,2,0,L|255:271,2,102,2|0|0,0:0|0:0|0:0,0:0:0:0:
324,331,31477,6,0,P|390:331|435:379,1,136,2|0,0:0|0:0,0:0:0:0:
512,204,32227,2,0,L|496:103,2,102,2|2|2,0:0|0:0|0:0,0:0:0:0:
427,163,32977,6,0,P|360:162|315:210,1,136,2|0,0:0|0:0,0:0:0:0:
248,276,33539,2,0,P|181:276|136:228,1,136,2|0,0:0|0:0,0:0:0:0:
56,176,34102,1,2,0:0:0:0:
212,48,34477,6,0,L|204:116,1,68,2|2,0:0|0:0,0:0:0:0:
144,236,34852,2,0,L|136:168,1,68,0|0,0:0|0:0,0:0:0:0:
284,136,35227,1,2,0:0:0:0:
56,192,35602,1,0,0:0:0:0:
200,364,35977,6,0,P|235:308|224:242,1,136,2|0,0:0|0:0,0:0:0:0:
48,304,36727,2,0,P|97:291|148:287,2,102,2|0|0,0:0|0:0|0:0,0:0:0:0:
68,216,37477,6,0,P|32:160|43:94,1,136,2|0,0:0|0:0,0:0:0:0:
224,156,38039,1,2,0:0:0:0:
224,156,38133,1,0,0:0:0:0:
224,156,38227,2,0,P|174:143|123:139,2,102,2|2|2,0:0|0:0|0:0,0:0:0:0:
312,120,38977,6,0,L|304:188,1,68,2|0,0:0|0:0,0:0:0:0:
244,308,39352,2,0,L|236:240,1,68,0|0,0:0|0:0,0:0:0:0:
364,248,39727,1,2,0:0:0:0:
156,212,40008,1,2,0:0:0:0:
292,50,40289,1,2,0:0:0:0:
272,168,40477,6,0,L|205:153,1,68,2|0,0:0|0:0,0:0:0:0:
352,124,40852,2,0,L|418:109,1,68,0|2,0:0|0:0,0:0:0:0:
288,36,41227,1,6,0:0:0:0:
352,216,41602,1,2,0:3:0:0:
475,70,41977,6,0,L|470:104,7,34,4|0|0|0|2|0|0|0,1:0|0:0|0:0|0:0|0:0|0:0|0:0|0:0,0:0:0:0:
483,56,42727,2,0,P|418:64|368:21,1,136,0|0,1:0|0:0,0:0:0:0:
192,160,43477,6,0,L|197:194,7,34,2|0|0|0|2|0|0|0,0:0|0:0|0:0|0:0|0:0|0:0|0:0|0:0,0:0:0:0:
184,147,44227,2,0,P|249:155|299:112,1,136,0|0,1:0|0:0,0:0:0:0:
436,332,44977,6,0,L|469:325,7,34,2|0|0|0|2|0|2|0,0:0|0:0|0:0|0:0|0:0|0:0|0:0|0:0,0:0:0:0:
424,344,45727,2,0,P|439:279|402:225,1,136,0|0,1:0|0:0,0:0:0:0:
100,184,46477,6,0,L|66:177,7,34,2|0|0|0|2|0|0|0,0:0|0:0|0:0|0:0|0:0|0:0|0:0|0:0,0:0:0:0:
112,196,47227,2,0,P|96:131|133:77,1,136,2|2,1:2|0:0,0:0:0:0:
360,32,47977,6,0,L|353:65,7,34,2|0|0|0|0|0|2|0,0:0|0:0|0:0|0:0|0:0|0:0|0:0|0:0,0:0:0:0:
360,84,48727,2,0,P|343:149|333:217,1,136,0|0,1:0|0:0,0:0:0:0:
160,360,49477,6,0,L|153:326,7,34,2|0|0|0|2|0|0|0,0:0|0:0|0:0|0:0|0:0|0:0|0:0|0:0,0:0:0:0:
160,308,50227,2,0,P|143:242|133:174,1,136,0|0,1:0|0:0,0:0:0:0:
44,52,50977,6,0,L|77:44,3,34,2|0|0|0,3:2|0:0|0:0|0:0,0:0:0:0:
88,56,51352,2,0,L|121:62,3,34,2|0|0|0,3:2|0:0|0:0|0:0,0:0:0:0:
126,77,51727,2,0,L|153:96,3,34,2|0|0|2,3:2|0:0|0:0|3:2,0:0:0:0:
152,111,52102,2,0,L|169:140,3,34,0|0|2|0,0:0|0:0|3:2|0:0,0:0:0:0:
160,152,52477,5,2,1:2:0:0:
180,157,52571,1,0,0:0:0:0:
200,164,52665,1,0,0:0:0:0:
219,174,52759,1,0,0:0:0:0:
237,185,52852,1,0,0:0:0:0:
254,198,52946,1,0,0:0:0:0:
269,213,53040,1,0,0:0:0:0:
283,229,53134,1,0,0:0:0:0:
295,246,53227,5,0,1:0:0:0:
309,222,53320,1,0,0:0:0:0:
325,200,53414,1,0,0:0:0:0:
345,182,53508,1,0,0:0:0:0:
370,168,53602,1,6,1:2:0:0:
395,160,53695,1,8,0:3:0:0:
423,157,53789,1,8,0:3:0:0:
450,158,53883,1,4,0:3:0:0:
472,165,53977,6,0,L|484:81,1,85,6|0,0:0|0:0,0:0:0:0:
412,16,54352,1,8,0:0:0:0:
392,112,54539,1,0,0:0:0:0:
392,112,54633,1,0,0:0:0:0:
391,112,54727,2,0,P|330:117|288:72,1,127.5,2|2,0:0|0:0,0:0:0:0:
280,84,55102,2,0,L|196:68,1,85,8|2,0:0|0:0,0:0:0:0:
132,224,55477,6,0,L|216:208,1,85,2|0,0:0|0:0,0:0:0:0:
308,192,55852,1,10,0:0:0:0:
408,340,56039,2,0,P|357:275|276:281,1,170,2|2,0:0|0:0,0:0:0:0:
320,360,56602,1,10,0:0:0:0:
472,284,56789,1,4,0:3:0:0:
464,272,56883,1,4,0:3:0:0:
456,260,56977,6,0,L|472:176,1,85,2|0,0:0|0:0,0:0:0:0:
428,88,57352,1,8,0:0:0:0:
268,200,57539,1,0,0:0:0:0:
268,200,57633,1,0,0:0:0:0:
268,200,57727,2,0,P|316:160|377:168,1,127.5,2|0,0:0|0:0,0:0:0:0:
392,160,58102,2,0,L|380:244,1,85,10|2,0:0|0:0,0:0:0:0:
180,248,58477,6,0,P|171:206|168:164,1,85,2|0,0:0|0:0,0:0:0:0:
248,308,58852,2,0,P|216:335|181:360,1,85,10|0,0:0|0:0,0:0:0:0:
265,219,59227,2,0,P|305:232|343:250,1,85,4|2,0:3|0:3,0:0:0:0:
343,250,59508,1,0,0:0:0:0:
343,250,59602,1,8,0:0:0:0:
172,256,59789,2,0,L|165:213,1,42.5,6|4,0:3|0:3,0:0:0:0:
164,196,59977,6,0,P|202:179|242:190,1,85,6|0,0:0|0:0,0:0:0:0:
284,348,60352,2,0,P|245:364|205:353,1,85,8|0,0:0|0:0,0:0:0:0:
152,204,60727,2,0,P|144:140|132:78,2,127.5,2|2|2,0:0|0:0|0:0,0:0:0:0:
310,246,61477,2,0,P|328:166|273:105,1,170,2|8,0:0|0:0,0:0:0:0:
242,190,62039,1,2,0:0:0:0:
146,290,62227,2,0,P|187:282|229:276,1,85,2|2,0:0|0:3,0:0:0:0:
410,206,62602,2,0,P|368:195|327:183,1,85,8|2,0:0|1:3,0:0:0:0:
164,36,62977,6,0,P|172:77|181:119,1,85,4|8,1:2|0:3,0:0:0:0:
304,276,63352,2,0,P|312:234|322:192,1,85,2|8,0:0|0:3,0:0:0:0:
160,220,63727,2,0,L|118:208,3,42.5,2|4|4|4,3:2|3:0|3:3|3:0,0:0:0:0:
108,220,64102,2,0,L|66:231,3,42.5,2|0|0|0,3:2|3:0|3:0|3:0,0:0:0:0:
48,224,64477,5,14,0:1:0:0:
236,180,64758,1,14,0:1:0:0:
181,365,65039,1,10,0:1:0:0:
152,260,65227,2,0,P|146:217|136:176,1,85,14|0,0:1|0:0,0:0:0:0:
232,48,65602,2,0,P|226:68|223:89,3,42.5,4|8|4|4,0:3|0:3|0:3|0:3,0:0:0:0:
240,36,65977,5,14,0:1:0:0:
376,180,66164,1,0,0:0:0:0:
376,180,66258,1,14,0:1:0:0:
132,88,66445,1,0,0:0:0:0:
132,88,66539,1,10,0:1:0:0:
324,28,66727,2,0,L|310:111,1,85,2|4,1:0|0:3,0:0:0:0:
227,228,67102,1,4,0:3:0:0:
227,228,67195,1,4,0:3:0:0:
227,228,67289,1,4,0:3:0:0:
227,228,67383,1,0,0:0:0:0:
227,228,67477,6,0,P|155:241|101:190,1,152.999995330811,6|0,3:2|0:0,0:0:0:0:
24,196,67852,2,0,P|15:145|1:96,1,101.999996887207,8|0,0:0|0:0,0:0:0:0:
200,52,68226,2,0,P|187:101|180:151,1,101.999996887207,2|0,3:2|0:3,0:0:0:0:
152,344,68602,1,8,0:0:0:0:
8,212,68789,1,0,0:0:0:0:
112,236,68977,6,0,P|163:239|212:254,1,101.999996887207,2|0,3:2|0:0,0:0:0:0:
216,84,69352,2,0,P|246:124|266:172,1,101.999996887207,10|0,0:0|0:0,0:0:0:0:
399,65,69727,2,0,P|387:114|363:160,1,101.999996887207,2|4,3:2|0:3,0:0:0:0:
320,260,70102,1,8,1:0:0:0:
228,72,70289,1,2,0:0:0:0:
228,72,70383,1,0,0:0:0:0:
228,71,70477,6,0,P|281:20|354:31,1,152.999995330811,2|0,3:2|0:0,0:0:0:0:
432,28,70852,2,0,P|419:77|413:128,1,101.999996887207,8|0,0:0|0:0,0:0:0:0:
312,296,71227,2,0,P|303:245|288:196,1,101.999996887207,2|0,3:2|0:0,0:0:0:0:
308,104,71602,1,8,0:0:0:0:
468,212,71789,1,2,0:0:0:0:
468,212,71883,1,2,0:0:0:0:
468,212,71977,6,0,P|421:192|370:195,1,101.999996887207,6|2,3:2|0:0,0:0:0:0:
364,208,72258,2,0,P|314:216|272:245,1,101.999996887207,6|0,0:0|0:0,0:0:0:0:
273,259,72539,2,0,P|235:292|215:339,1,101.999996887207,4|2,1:2|3:0,0:0:0:0:
32,264,72914,1,4,3:0:0:0:
228,316,73102,1,2,1:3:0:0:
228,316,73195,1,4,0:3:0:0:
228,316,73289,1,4,0:3:0:0:
136,356,73477,6,0,B|140:300|120:236|120:236|132:248|144:256,1,152.999995330811,6|0,3:2|0:0,0:0:0:0:
179,187,73852,2,0,P|227:205|277:215,1,101.999996887207,8|0,0:0|0:0,0:0:0:0:
316,376,74227,2,0,P|268:358|218:348,1,101.999996887207,2|0,3:2|0:0,0:0:0:0:
76,296,74602,1,8,0:0:0:0:
288,224,74789,1,2,0:0:0:0:
164,76,74977,6,0,L|179:176,1,101.999996887207,2|0,3:2|0:0,0:0:0:0:
288,332,75352,2,0,L|192:295,1,101.999996887207,10|0,0:0|0:0,0:0:0:0:
5,312,75727,2,0,L|84:248,1,101.999996887207,2|0,3:2|0:0,0:0:0:0:
276,212,76102,1,10,1:2:0:0:
92,140,76289,1,2,0:0:0:0:
151,240,76477,6,0,L|163:341,1,101.999996887207,4|2,3:2|0:0,0:0:0:0:
264,204,76852,2,0,L|276:102,1,101.999996887207,10|0,1:2|0:0,0:0:0:0:
240,296,77227,2,0,B|289:305|289:305|334:278,1,101.999996887207,6|0,3:2|0:0,0:0:0:0:
184,148,77602,2,0,B|134:138|134:138|89:165,1,101.999996887207,10|0,1:2|0:0,0:0:0:0:
0,0,77977,6,0,L|14:49,3,50.9999984436036,6|0|0|2,1:2|0:0|0:0|1:2,0:0:0:0:
80,160,78352,2,0,L|94:110,3,50.9999984436036,8|0|2|0,0:0|0:0|1:2|0:0,0:0:0:0:
172,44,78727,1,4,1:0:0:0:
197,27,78820,1,0,1:0:0:0:
226,19,78914,1,4,0:3:0:0:
256,19,79008,1,4,0:3:0:0:
285,27,79102,1,12,0:3:0:0:
306,49,79195,1,8,0:3:0:0:
321,75,79289,1,8,0:3:0:0:
328,104,79383,1,8,0:3:0:0:
325,138,79477,6,0,L|190:120,2,136,2|2|2,0:1|0:0|0:1,0:0:0:0:
416,344,80602,2,0,L|466:337,3,50.9999984436036,2|0|2|2,0:0|0:0|0:0|0:0,0:0:0:0:
404,332,80977,6,0,P|353:335|304:350,1,101.999996887207,6|0,3:2|0:0,0:0:0:0:
300,180,81352,2,0,P|270:220|250:268,1,101.999996887207,10|0,0:0|0:0,0:0:0:0:
117,161,81727,2,0,P|129:210|153:256,1,101.999996887207,2|0,3:2|0:0,0:0:0:0:
208,356,82102,1,10,1:2:0:0:
55,268,82289,1,2,0:0:0:0:
208,180,82477,6,0,P|228:109|180:53,1,152.999995330811,2|2,3:2|0:0,0:0:0:0:
128,0,82852,2,0,P|77:8|27:15,1,101.999996887207,8|2,0:0|0:0,0:0:0:0:
8,184,83227,2,0,P|58:175|108:168,1,101.999996887207,2|0,3:2|0:0,0:0:0:0:
0,96,83602,1,10,0:2:0:0:
188,224,83977,6,0,P|235:204|286:207,1,101.999996887207,6|2,3:2|0:0,0:0:0:0:
292,220,84258,2,0,P|342:228|384:257,1,101.999996887207,6|0,0:0|0:0,0:0:0:0:
383,271,84539,2,0,P|421:304|441:351,1,101.999996887207,4|2,1:2|3:0,0:0:0:0:
512,96,84914,2,0,P|440:162|344:141,1,203.999993774414,4|4,0:3|0:3,0:0:0:0:
344,141,85477,6,0,P|355:191|363:242,1,101.999996887207,6|0,3:2|0:0,0:0:0:0:
448,380,85852,2,0,P|454:329|464:278,1,101.999996887207,8|0,0:0|0:0,0:0:0:0:
272,207,86227,2,0,P|205:278|232:372,1,203.999993774414,2|8,3:2|0:0,0:0:0:0:
304,304,86789,1,2,0:0:0:0:
364,176,86977,6,0,P|314:187|263:194,1,101.999996887207,2|0,3:2|0:0,0:0:0:0:
92,100,87352,2,0,P|126:137|158:177,1,101.999996887207,10|0,0:0|0:0,0:0:0:0:
162,373,87727,2,0,P|176:324|195:276,1,101.999996887207,2|0,3:2|0:0,0:0:0:0:
268,180,88102,1,10,1:2:0:0:
136,64,88289,1,2,0:0:0:0:
136,64,88383,1,4,0:3:0:0:
136,64,88477,6,0,L|152:164,1,101.999996887207,6|0,3:2|0:0,0:0:0:0:
215,316,88852,2,0,L|231:216,1,101.999996887207,10|0,1:2|0:0,0:0:0:0:
236,120,89227,2,0,P|282:100|333:102,1,101.999996887207,6|0,3:2|0:0,0:0:0:0:
152,256,89602,2,0,P|101:258|57:233,1,101.999996887207,10|0,1:2|0:0,0:0:0:0:
57,233,89883,1,2,0:0:0:0:
57,233,89977,5,6,1:2:0:0:
24,76,90164,1,0,0:0:0:0:
120,176,90352,1,10,1:2:0:0:
148,20,90539,1,0,0:0:0:0:
204,140,90727,2,0,B|252:124|252:124|292:156,1,101.999996887207,12|4,1:0|0:3,0:0:0:0:
424,252,91008,2,0,B|376:268|376:268|336:236,1,101.999996887207,8|0,1:0|0:3,0:0:0:0:
260,288,91289,2,0,L|248:238,1,50.9999984436036,8|0,1:0|1:0,0:0:0:0:
212,144,91477,5,6,1:2:0:0:
256,192,91570,12,0,92977,0:0:0:0:
392,172,93539,5,4,0:3:0:0:
392,172,93633,1,4,0:3:0:0:
392,172,93727,2,0,L|397:138,3,34,8|4|4|0,0:3|0:3|0:3|0:0,0:0:0:0:
468,92,94102,6,0,L|317:121,1,152.999995330811,6|2,0:0|0:0,0:0:0:0:
307,127,94477,6,0,P|299:86|286:45,1,85,4|0,3:2|0:0,0:0:0:0:
132,88,94852,2,0,P|140:129|153:170,1,85,8|2,0:0|0:0,0:0:0:0:
264,368,95227,1,0,3:0:0:0:
300,216,95414,1,2,0:0:0:0:
148,180,95602,1,8,3:2:0:0:
112,28,95789,1,2,0:0:0:0:
264,72,95977,6,0,P|305:64|348:60,1,85,2|0,3:0|0:0,0:0:0:0:
464,176,96352,2,0,P|422:168|379:164,1,85,8|2,0:0|0:0,0:0:0:0:
292,336,96727,1,2,3:0:0:0:
144,384,96914,1,2,0:0:0:0:
172,224,97102,1,8,3:2:0:0:
24,176,97289,1,2,0:3:0:0:
76,328,97477,6,0,P|80:285|88:243,1,85,2|0,3:0|0:0,0:0:0:0:
8,104,97852,2,0,P|18:145|25:187,1,85,8|2,0:0|0:0,0:0:0:0:
156,296,98227,1,0,3:0:0:0:
308,248,98414,1,2,0:0:0:0:
352,96,98602,1,8,3:2:0:0:
504,144,98789,1,2,0:0:0:0:
464,300,98977,6,0,L|456:384,1,85,2|0,3:0|0:0,0:0:0:0:
308,324,99352,2,0,L|300:240,1,85,8|2,0:0|0:0,0:0:0:0:
340,84,99727,1,0,3:0:0:0:
380,240,99914,1,2,0:0:0:0:
228,196,100102,1,8,0:0:0:0:
188,352,100289,1,10,0:3:0:0:
188,352,100383,1,10,0:3:0:0:
187,352,100477,6,0,P|229:344|272:340,1,85,4|0,3:2|0:0,0:0:0:0:
100,256,100852,2,0,P|141:263|184:267,1,85,8|2,0:0|0:0,0:0:0:0:
340,232,101227,1,0,3:0:0:0:
368,76,101414,1,2,0:0:0:0:
220,8,101602,1,8,3:2:0:0:
192,164,101789,1,2,0:0:0:0:
351,156,101977,6,0,P|394:151|435:141,1,85,2|0,3:0|0:0,0:0:0:0:
512,288,102352,2,0,P|470:277|428:273,1,85,8|2,0:0|0:0,0:0:0:0:
280,180,102727,1,2,3:0:0:0:
132,244,102914,1,2,0:0:0:0:
160,76,103102,1,8,3:2:0:0:
12,12,103289,1,2,0:0:0:0:
12,12,103383,1,0,0:0:0:0:
12,12,103477,6,0,L|96:28,1,85,4|0,3:2|0:0,0:0:0:0:
240,104,103852,2,0,L|324:88,1,85,8|2,0:0|0:0,0:0:0:0:
444,200,104227,1,2,1:3:0:0:
336,76,104414,2,0,L|328:28,1,42.5,2|10,0:0|0:3,0:0:0:0:
492,8,104695,2,0,L|484:56,1,42.5,0|2,1:0|1:3,0:0:0:0:
416,127,104977,6,0,P|409:64|400:1,2,127.5,10|10|6,1:0|1:0|1:0,0:0:0:0:
256,192,105820,1,12,0:3:0:0:
256,192,105914,1,4,0:3:0:0:
256,192,106008,1,8,0:3:0:0:
256,191,106102,2,0,P|292:169|334:170,1,85,8|8,1:0|0:0,0:0:0:0:
380,296,106477,6,0,L|212:268,1,170,4|0,0:1|1:0,0:0:0:0:
36,352,107227,2,0,P|27:288|14:226,2,127.5,2|2|2,0:0|0:0|0:0,0:0:0:0:
124,384,107977,2,0,P|150:306|102:241,1,170,2|0,0:0|1:0,0:0:0:0:
96,36,108727,6,0,P|82:98|73:161,2,127.5,2|2|2,0:0|0:0|0:0,0:0:0:0:
172,91,109477,2,0,P|234:39|314:58,1,170,2|0,0:0|1:0,0:0:0:0:
352,148,110039,2,0,P|414:200|494:181,1,170,2|2,0:0|0:0,0:0:0:0:
448,28,110602,2,0,L|432:111,1,85,0|0,1:0|0:0,0:0:0:0:
328,292,110977,5,2,0:0:0:0:
346,135,111164,1,2,0:0:0:0:
502,154,111352,1,0,1:0:0:0:
483,310,111539,1,2,0:0:0:0:
416,220,111727,2,0,L|332:208,1,85,4|2,0:3|0:3,0:0:0:0:
204,308,112102,2,0,L|288:296,1,85,2|2,1:2|0:3,0:0:0:0:
139,371,112477,6,0,P|101:298|125:218,1,170,2|0,0:0|1:0,0:0:0:0:
60,148,113039,1,0,0:0:0:0:
152,128,113227,2,0,L|280:152,1,127.5,2|0,0:0|0:0,0:0:0:0:
277,150,113602,2,0,P|292:111|296:69,1,85,0|2,1:0|0:0,0:0:0:0:
500,192,113977,6,0,P|450:126|369:131,1,170,2|0,0:0|1:0,0:0:0:0:
412,212,114539,1,0,0:0:0:0:
356,292,114727,2,0,L|228:316,1,127.5,2|2,0:0|0:0,0:0:0:0:
230,314,115102,2,0,P|214:274|210:232,1,85,0|2,1:0|0:0,0:0:0:0:
88,60,115477,6,0,L|100:144,1,85,2|0,0:0|0:0,0:0:0:0:
232,0,115852,2,0,L|220:84,1,85,0|0,1:0|0:0,0:0:0:0:
396,0,116227,2,0,L|352:119,2,127.5,2|2|0,0:0|0:0|0:0,0:0:0:0:
480,136,116977,6,0,P|488:177|488:220,1,85,2|0,0:2|0:0,0:0:0:0:
344,288,117352,2,0,P|335:246|335:203,1,85,2|0,1:2|0:0,0:0:0:0:
464,300,117727,2,0,L|505:306,3,42.5,2|2|0|4,0:2|0:2|0:0|2:3,0:0:0:0:
400,360,118102,2,0,L|358:366,3,42.5,2|8|4|4,1:2|1:3|2:3|2:3,0:0:0:0:
335,279,118477,6,0,P|254:274|204:338,1,170,4|8,0:0|0:0,0:0:0:0:
44,184,119227,2,0,P|97:216|160:210,1,127.5,2|2,0:0|0:0,0:0:0:0:
160,210,119602,2,0,L|180:128,1,85,8|2,0:0|0:0,0:0:0:0:
56,24,119977,2,0,P|14:94|43:171,1,170,2|8,0:0|0:0,0:0:0:0:
108,356,120727,2,0,L|127:230,1,127.5,2|2,0:0|0:0,0:0:0:0:
126,230,121102,2,0,P|168:219|210:220,1,85,8|2,0:0|0:0,0:0:0:0:
328,100,121477,6,0,P|286:110|244:109,1,85,2|0,0:0|0:0,0:0:0:0:
184,36,121852,1,10,0:0:0:0:
376,20,122039,2,0,P|339:95|355:177,1,170,2|2,0:0|0:0,0:0:0:0:
448,316,122602,2,0,L|458:231,1,85,10|0,0:0|0:0,0:0:0:0:
512,84,122977,5,2,0:0:0:0:
364,32,123164,1,0,0:0:0:0:
348,188,123352,1,8,0:0:0:0:
200,240,123539,1,2,0:3:0:0:
80,131,123727,2,0,P|73:89|65:48,1,85,2|2,0:0|0:3,0:0:0:0:
128,200,124102,2,0,P|120:241|115:284,1,85,10|2,0:0|0:3,0:0:0:0:
28,380,124477,6,0,P|90:326|172:335,1,170,2|8,0:0|0:0,0:0:0:0:
340,244,125227,2,0,P|276:251|213:255,1,127.5,2|2,0:0|0:0,0:0:0:0:
213,255,125602,2,0,P|203:213|204:171,1,85,8|2,0:0|0:0,0:0:0:0:
396,152,125977,6,0,L|376:320,1,170,2|8,0:0|0:0,0:0:0:0:
488,204,126727,2,0,P|491:140|465:83,2,127.5,2|2|2,0:0|0:0|0:0,0:0:0:0:
460,360,127477,2,0,B|422:338|422:338|380:337,1,85,6|0,1:2|0:0,0:0:0:0:
232,268,127852,2,0,B|269:246|269:246|311:245,1,85,10|0,1:2|0:0,0:0:0:0:
384,104,128227,2,0,L|399:20,1,85,6|0,1:2|0:0,0:0:0:0:
290,0,128508,2,0,L|304:84,1,85,2|8,1:2|0:3,0:0:0:0:
220,80,128789,1,2,1:2:0:0:
96,180,128977,6,0,P|56:164|14:163,1,85,2|0,1:2|0:0,0:0:0:0:
0,324,129352,2,0,P|39:339|81:340,1,85,0|0,0:0|0:0,0:0:0:0:
176,216,129727,2,0,L|183:174,3,42.5,0|0|0|0,1:0|0:0|0:0|0:0,0:0:0:0:
176,164,130102,2,0,L|168:122,3,42.5,2|8|4|4,1:2|2:3|2:3|2:3,0:0:0:0:
176,108,130477,1,4,0:2:0:0:
460,52,136102,6,0,P|451:89|448:127,1,76.4999976654053,4|0,1:2|0:0,0:0:0:0:
452,144,136477,6,0,L|440:228,1,85,6|0,0:0|0:0,0:0:0:0:
344,360,136852,6,0,L|332:275,1,85,8|0,0:0|0:0,0:0:0:0:
244,144,137227,2,0,P|181:136|129:170,1,127.5,2|2,0:0|0:0,0:0:0:0:
116,164,137602,6,0,L|132:248,1,85,8|2,0:0|0:0,0:0:0:0:
8,352,137977,6,0,P|-6:270|42:204,1,170,2|8,0:0|0:0,0:0:0:0:
92,292,138539,1,2,0:0:0:0:
223,196,138727,2,0,P|182:204|140:207,1,85,2|2,0:0|0:3,0:0:0:0:
32,80,139102,2,0,P|73:88|115:91,1,85,8|2,0:0|1:3,0:0:0:0:
272,120,139477,6,0,P|277:77|285:36,1,85,4|8,1:2|0:3,0:0:0:0:
184,160,139852,2,0,P|191:201|196:243,1,85,2|8,0:0|0:3,0:0:0:0:
308,360,140227,2,0,L|315:318,3,42.5,2|4|4|4,3:2|3:0|3:3|3:0,0:0:0:0:
324,308,140602,2,0,L|316:266,3,42.5,2|0|0|0,3:2|3:0|3:0|3:0,0:0:0:0:
308,256,140977,5,14,0:1:0:0:
496,300,141258,1,14,0:1:0:0:
441,115,141539,1,10,0:1:0:0:
412,223,141727,2,0,P|403:265|400:307,1,85,14|0,0:1|0:0,0:0:0:0:
220,380,142102,2,0,P|217:359|211:338,3,42.5,4|8|4|4,0:3|0:3|0:3|0:3,0:0:0:0:
204,328,142477,5,14,0:1:0:0:
328,336,142664,1,0,0:0:0:0:
328,336,142758,1,14,0:1:0:0:
148,256,142945,1,0,0:0:0:0:
148,256,143039,1,10,0:1:0:0:
280,164,143227,2,0,P|322:159|364:152,1,85,2|4,1:0|0:3,0:0:0:0:
208,40,143602,1,0,1:0:0:0:
208,40,143695,1,4,0:3:0:0:
208,40,143789,1,0,1:0:0:0:
208,40,143883,1,0,1:0:0:0:
207,40,143977,6,0,P|167:101|189:172,1,152.999995330811,6|0,3:2|0:0,0:0:0:0:
236,232,144352,2,0,P|286:223|336:216,1,101.999996887207,8|0,0:0|0:0,0:0:0:0:
384,68,144727,2,0,P|334:77|284:84,1,101.999996887207,2|0,3:2|0:3,0:0:0:0:
456,176,145102,1,8,0:0:0:0:
280,100,145289,1,0,0:0:0:0:
352,312,145477,6,0,P|399:293|450:286,1,101.999996887207,2|0,3:2|0:0,0:0:0:0:
296,244,145852,2,0,P|320:199|354:161,1,101.999996887207,10|0,0:0|0:0,0:0:0:0:
209,227,146227,2,0,P|199:176|201:126,1,101.999996887207,2|4,3:2|0:3,0:0:0:0:
244,316,146602,1,8,1:0:0:0:
56,368,146789,1,2,0:0:0:0:
56,368,146883,1,0,0:0:0:0:
55,367,146977,6,0,P|31:297|67:232,1,152.999995330811,2|0,3:2|0:0,0:0:0:0:
56,160,147352,2,0,P|106:156|156:143,1,101.999996887207,8|0,0:0|0:0,0:0:0:0:
216,328,147727,2,0,P|168:310|117:301,1,101.999996887207,2|0,3:2|0:0,0:0:0:0:
288,196,148102,1,8,0:0:0:0:
388,336,148289,2,0,L|392:280,1,50.9999984436036,2|2,0:0|0:0,0:0:0:0:
400,276,148477,6,0,P|350:285|300:273,1,101.999996887207,6|2,3:2|0:0,0:0:0:0:
288,284,148758,2,0,P|240:265|205:229,1,101.999996887207,6|0,0:0|0:0,0:0:0:0:
188,231,149039,2,0,P|157:190|146:140,1,101.999996887207,4|2,1:2|3:0,0:0:0:0:
136,12,149414,1,4,3:0:0:0:
232,148,149602,1,0,1:0:0:0:
232,148,149695,1,4,0:3:0:0:
232,148,149789,1,4,0:3:0:0:
84,80,149977,6,0,B|52:52|52:52|72:160,1,152.999995330811,6|0,3:2|0:0,0:0:0:0:
63,176,150352,2,0,P|114:179|160:201,1,101.999996887207,8|0,0:0|0:0,0:0:0:0:
172,340,150727,2,0,P|78:369|2:307,1,203.999993774414,2|8,3:2|0:0,0:0:0:0:
96,268,151289,1,2,0:0:0:0:
256,164,151477,6,0,P|246:214|239:264,1,101.999996887207,2|0,3:2|0:0,0:0:0:0:
204,84,151852,2,0,P|252:67|299:48,1,101.999996887207,10|0,0:0|0:0,0:0:0:0:
160,169,152227,2,0,P|121:135|81:104,1,101.999996887207,2|0,3:2|0:0,0:0:0:0:
12,200,152602,1,10,1:2:0:0:
0,12,152789,1,2,0:0:0:0:
71,96,152977,6,0,P|122:88|172:77,1,101.999996887207,4|2,3:2|0:0,0:0:0:0:
324,204,153352,2,0,P|273:196|223:185,1,101.999996887207,10|0,1:2|0:0,0:0:0:0:
288,0,153727,2,0,L|268:100,1,101.999996887207,6|0,3:2|0:0,0:0:0:0:
124,172,154102,2,0,L|144:272,1,101.999996887207,10|0,1:2|0:0,0:0:0:0:
316,360,154477,6,0,L|323:309,3,50.9999984436036,6|0|0|2,1:2|0:0|0:0|1:2,0:0:0:0:
228,224,154852,2,0,L|235:274,3,50.9999984436036,8|0|2|0,0:0|0:0|1:2|0:0,0:0:0:0:
168,140,155227,5,4,1:0:0:0:
196,149,155320,1,0,1:0:0:0:
226,152,155414,1,4,0:3:0:0:
256,151,155508,1,4,0:3:0:0:
285,143,155602,1,12,0:3:0:0:
313,132,155695,1,8,0:3:0:0:
337,113,155789,1,8,0:3:0:0:
355,88,155883,1,8,0:3:0:0:
364,63,155977,6,0,B|312:56|284:8|284:8|288:64|256:104,1,203.999993774414,2|2,0:1|3:1,0:1:0:0:
36,160,157102,1,0,3:2:0:0:
50,165,157196,1,2,3:2:0:0:
65,167,157290,1,2,3:2:0:0:
80,165,157383,1,0,3:2:0:0:
93,160,157477,6,0,P|112:112|119:62,1,101.999996887207,6|0,3:2|0:0,0:0:0:0:
184,160,157852,2,0,P|228:135|266:101,1,101.999996887207,10|0,0:0|0:0,0:0:0:0:
252,217,158227,2,0,P|301:227|352:225,1,101.999996887207,2|0,3:2|0:0,0:0:0:0:
267,304,158602,2,0,P|298:343|338:375,1,101.999996887207,10|2,1:2|0:0,0:0:0:0:
440,208,158977,6,0,P|447:157|458:107,1,101.999996887207,2|2,3:2|0:0,0:0:0:0:
364,144,159352,1,8,0:0:0:0:
488,296,159539,1,2,0:0:0:0:
384,292,159727,2,0,P|313:223|217:242,1,203.999993774414,2|10,3:2|0:2,0:0:0:0:
48,100,160477,6,0,P|92:123|143:127,1,101.999996887207,6|2,3:2|0:0,0:0:0:0:
151,141,160758,2,0,P|201:137|246:113,1,101.999996887207,4|0,0:0|0:0,0:0:0:0:
262,122,161039,2,0,P|303:92|329:47,1,101.999996887207,4|2,1:2|3:0,0:0:0:0:
448,216,161414,2,0,B|400:176|400:176|360:232|360:232|288:248,1,203.999993774414,4|4,0:3|0:3,0:0:0:0:
289,247,161977,6,0,L|308:348,1,101.999996887207,6|0,3:2|0:0,0:0:0:0:
148,384,162352,2,0,L|129:283,1,101.999996887207,8|0,0:0|0:0,0:0:0:0:
88,96,162727,2,0,P|181:114|191:209,1,203.999993774414,2|8,3:2|0:0,0:0:0:0:
120,292,163289,1,2,0:0:0:0:
20,168,163477,6,0,P|11:117|0:67,1,101.999996887207,2|0,3:2|0:0,0:0:0:0:
112,228,163852,2,0,P|72:260|34:294,1,101.999996887207,10|0,0:0|0:0,0:0:0:0:
117,118,164227,2,0,P|164:135|213:151,1,101.999996887207,2|0,3:2|0:0,0:0:0:0:
344,252,164602,1,10,1:2:0:0:
236,376,164789,1,2,0:0:0:0:
236,376,164883,1,4,0:3:0:0:
236,376,164977,6,0,P|232:325|224:274,1,101.999996887207,6|0,3:2|0:0,0:0:0:0:
320,144,165352,2,0,P|323:93|331:42,1,101.999996887207,10|0,1:2|0:0,0:0:0:0:
432,256,165727,2,0,P|382:244|331:237,1,101.999996887207,6|0,3:2|0:0,0:0:0:0:
116,188,166102,2,0,P|165:176|216:169,1,101.999996887207,10|0,1:2|0:0,0:0:0:0:
216,168,166383,1,2,0:0:0:0:
216,168,166477,5,6,1:2:0:0:
372,132,166664,1,0,0:0:0:0:
280,228,166852,1,10,1:2:0:0:
436,264,167039,1,0,0:0:0:0:
316,308,167227,2,0,B|368:312|368:312|399:350,1,101.999996887207,12|4,1:0|0:3,0:0:0:0:
256,376,167508,2,0,B|204:372|204:372|172:333,1,101.999996887207,8|0,1:0|0:3,0:0:0:0:
224,220,167789,2,0,L|231:270,1,50.9999984436036,8|0,1:0|1:0,0:0:0:0:
332,384,167977,6,0,P|343:282|364:183,1,203.999993774414,6|12,3:0|0:0,0:0:0:0:
288,128,168539,1,0,0:0:0:0:
512,152,168727,2,2,P|462:69|368:86,1,203.999993774414,2|8,0:1|0:0,0:1:0:0:
280,224,169289,1,2,0:1:0:0:
168,336,169477,6,0,P|110:381|39:359,1,152.999995330811,2|2,3:1|0:1,0:0:0:0:
32,372,169852,2,0,P|23:321|12:271,1,101.999996887207,8|2,0:0|0:1,0:0:0:0:
56,80,170227,2,0,P|113:34|184:56,1,152.999995330811,2|2,3:1|0:1,0:0:0:0:
192,43,170602,2,0,P|200:93|211:143,1,101.999996887207,8|2,0:0|0:1,0:0:0:0:
96,292,170977,5,6,3:1:0:0:
32,148,171164,2,0,B|68:116|68:116|160:168|160:168|200:136,1,203.999993774414,2|0,0:1|0:0,0:0:0:0:
280,192,171727,2,2,P|294:119|249:60,1,152.999995330811,2|2,3:1|0:1,0:1:0:0:
248,44,172102,2,0,P|295:62|346:64,1,101.999996887207,8|2,0:0|0:1,0:0:0:0:
346,64,172383,1,2,0:1:0:0:
346,64,172477,5,6,3:1:0:0:
368,256,172758,1,2,0:1:0:0:
472,96,173039,1,10,0:1:0:0:
512,356,173414,2,0,P|464:337|413:335,1,101.999996887207,4|0,0:3|1:0,0:0:0:0:
413,335,173695,1,4,0:3:0:0:
413,335,173789,1,4,0:3:0:0:
460,256,173977,5,4,3:1:0:0:
332,336,174164,1,2,0:1:0:0:
192,288,174352,1,10,0:1:0:0:
152,144,174539,1,2,0:1:0:0:
320,20,174727,2,0,P|307:95|300:171,1,152.999995330811,2|0,3:1|0:0,0:0:0:0:
292,184,175102,2,0,P|241:192|193:208,1,101.999996887207,10|2,0:1|0:1,0:0:0:0:
48,336,175477,6,0,P|34:260|14:186,1,152.999995330811,2|0,3:1|0:0,0:0:0:0:
20,172,175852,2,0,P|70:163|118:147,1,101.999996887207,10|2,0:1|0:1,0:0:0:0:
118,146,176133,1,0,0:0:0:0:
118,146,176227,1,0,3:0:0:0:
180,0,176414,1,2,0:1:0:0:
22,19,176602,1,8,0:0:0:0:
4,176,176789,2,0,L|13:226,1,50.9999984436036,2|0,0:1|0:1,0:0:0:0:
16,248,176977,5,4,3:1:0:0:
160,316,177164,1,2,0:1:0:0:
312,268,177352,1,10,0:1:0:0:
384,124,177539,1,2,0:1:0:0:
184,16,177727,6,2,P|200:90|211:166,2,152.999995330811,2|2|2,3:1|0:1|0:1,0:1:0:0:
304,280,178477,2,0,P|316:204|334:130,2,152.999995330811,6|2|2,1:0|1:0|1:0,0:0:0:0:
476,372,179227,6,0,L|509:365,3,34,4|4|2|4,1:0|1:3|1:0|1:3,0:0:0:0:
404,336,179602,2,0,L|370:329,3,34,12|8|8|8,1:3|1:3|1:3|1:3,0:0:0:0:
471,292,179977,6,2,P|498:197|435:121,1,203.999993774414,6|12,3:1|0:0,0:1:0:0:
396,220,180539,1,0,0:0:0:0:
316,32,180727,2,0,P|324:82|334:132,1,101.999996887207,0|2,3:0|0:1,0:0:0:0:
200,228,181102,2,0,P|191:177|181:127,1,101.999996887207,10|2,0:1|0:1,0:0:0:0:
140,284,181477,5,2,3:1:0:0:
12,260,181664,1,2,0:1:0:0:
36,132,181852,1,10,0:1:0:0:
164,156,182039,1,2,0:1:0:0:
272,320,182227,5,2,3:1:0:0:
368,302,182414,1,2,0:1:0:0:
350,206,182602,1,10,0:1:0:0:
254,224,182789,1,2,0:1:0:0:
184,368,182977,5,6,3:1:0:0:
87,376,183164,2,0,P|62:379|37:379,1,50.9999984436036,2|0,0:1|0:0,0:0:0:0:
108,296,183352,2,0,P|92:276|79:253,1,50.9999984436036,10|0,0:1|0:0,0:0:0:0:
187,273,183539,2,0,P|196:249|209:227,1,50.9999984436036,2|0,0:1|0:0,0:0:0:0:
288,176,183727,6,0,P|312:182|337:188,1,50.9999984436036,2|0,3:1|0:0,0:0:0:0:
416,188,183914,2,0,P|409:212|403:237,1,50.9999984436036,2|2,0:1|0:1,0:0:0:0:
404,315,184102,2,0,P|379:308|354:302,1,50.9999984436036,10|0,0:1|0:0,0:0:0:0:
277,303,184289,2,0,P|283:278|289:253,1,50.9999984436036,4|4,0:3|0:3,0:0:0:0:
344,140,184477,5,6,3:1:0:0:
349,125,184570,1,2,0:1:0:0:
349,109,184664,1,0,0:0:0:0:
343,94,184758,1,6,0:1:0:0:
334,80,184852,1,8,0:0:0:0:
168,140,185039,2,0,L|268:122,1,101.999996887207,6|0,0:1|3:0,0:0:0:0:
84,76,185414,2,2,P|62:171|129:244,1,203.999993774414,2|4,0:1|0:3,0:1:0:0:
220,280,185977,5,4,3:1:0:0:
200,184,186164,2,0,P|208:133|219:83,2,101.999996887207,2|8|2,0:1|0:0|0:1,0:0:0:0:
40,352,186727,2,0,P|90:343|141:340,1,101.999996887207,0|2,3:0|0:1,0:0:0:0:
332,304,187102,2,0,P|281:295|230:292,1,101.999996887207,10|0,0:1|0:0,0:0:0:0:
412,363,187477,6,2,P|456:305|434:234,1,152.999995330811,2|2,3:1|0:1,0:1:0:0:
448,228,187852,2,0,P|455:177|466:127,1,101.999996887207,8|2,0:0|0:1,0:0:0:0:
304,20,188227,2,0,P|259:78|281:149,1,152.999995330811,2|0,3:1|0:0,0:0:0:0:
272,164,188602,2,0,P|281:214|289:264,1,101.999996887207,10|2,0:1|0:1,0:0:0:0:
212,368,188977,6,2,P|115:382|52:308,1,203.999993774414,6|8,3:1|0:0,0:1:0:0:
152,284,189539,1,2,0:1:0:0:
52,108,189727,2,0,P|64:157|74:207,1,101.999996887207,0|2,3:0|0:1,0:0:0:0:
144,380,190102,2,0,P|152:329|164:280,1,101.999996887207,10|2,0:1|0:1,0:0:0:0:
140,124,190477,6,0,L|190:116,3,50.9999984436036,6|0|0|2,1:0|0:0|0:0|0:1,0:0:0:0:
272,216,190852,2,0,L|221:208,3,50.9999984436036,8|0|2|2,1:0|0:0|0:1|0:1,0:0:0:0:
312,80,191227,2,0,L|362:72,3,50.9999984436036,14|4|4|10,1:0|0:3|0:3|1:0,0:0:0:0:
472,232,191602,2,0,L|421:224,3,50.9999984436036,4|0|10|0,0:3|0:3|1:0|1:0,0:0:0:0:
512,132,191977,5,4,0:0:0:0:
472,348,197602,6,0,B|456:244|456:244|452:272|440:288,1,152.999995330811,4|2,1:2|0:0,0:0:0:0:
376,340,197977,6,0,P|325:338|285:308,1,101.999996887207,4|0,1:2|3:0,0:0:0:0:
172,240,198539,6,0,L|179:290,1,50.9999984436036,0|0,1:0|0:0,0:0:0:0:
224,360,198914,5,4,0:3:0:0:
252,236,199102,6,0,L|264:151,1,85,0|0,1:0|3:0,0:0:0:0:
192,44,199477,6,0,L|57:63,1,136,4|0,1:2|3:0,0:0:0:0:
8,144,200039,1,0,1:0:0:0:
8,144,200133,1,0,1:0:0:0:
8,144,200227,2,0,L|19:210,1,68,0|2,1:0|0:3,0:0:0:0:
108,348,200602,2,0,L|119:281,1,68,4|0,0:3|3:0,0:0:0:0:
119,281,200883,1,0,0:0:0:0:
119,281,200977,6,0,L|162:272,3,42.5,4|0|0|0,1:2|0:0|0:0|0:0,0:0:0:0:
172,264,201352,2,0,L|215:255,3,42.5,0|0|0|0,1:0|0:0|0:0|0:0,0:0:0:0:
288,320,201727,2,0,L|331:311,3,42.5,0|0|0|0,1:0|0:0|3:0|0:0,0:0:0:0:
341,303,202102,2,0,L|384:294,3,42.5,0|0|0|0,1:0|3:0|0:0|3:0,0:0:0:0:
457,359,202477,5,2,1:2:0:0:
457,343,202570,1,0,0:0:0:0:
458,327,202664,1,0,0:0:0:0:
459,311,202758,1,2,1:2:0:0:
460,295,202852,1,0,0:0:0:0:
462,279,202945,1,0,0:0:0:0:
465,263,203039,1,2,1:2:0:0:
467,248,203133,1,0,0:0:0:0:
470,232,203227,5,4,1:0:0:0:
446,227,203320,1,0,1:0:0:0:
423,215,203414,1,4,0:3:0:0:
404,197,203508,1,0,0:3:0:0:
391,174,203602,1,0,1:0:0:0:
384,149,203695,1,0,1:0:0:0:
382,123,203789,1,0,1:0:0:0:
388,98,203883,1,0,1:0:0:0:
48,336,206602,5,0,1:0:0:0:
48,336,206695,1,2,1:2:0:0:
48,336,206789,5,2,1:2:0:0:
48,336,206883,1,0,1:0:0:0:
47,336,206977,6,0,P|39:285|26:236,1,101.999996887207,6|0,3:2|0:0,0:0:0:0:
176,276,207352,6,0,P|142:237|105:202,1,101.999996887207,10|0,0:0|0:0,0:0:0:0:
252,157,207727,2,0,P|203:142|153:132,1,101.999996887207,2|0,3:2|0:0,0:0:0:0:
253,15,208102,6,0,P|203:28|156:46,1,101.999996887207,10|2,1:2|0:0,0:0:0:0:
32,148,208477,6,0,P|106:166|175:199,1,152.999995330811,2|0,3:2|0:0,0:0:0:0:
240,243,208852,2,0,P|251:195|232:148,1,101.999996887207,8|2,0:0|0:0,0:0:0:0:
104,252,209227,2,0,P|92:300|111:347,1,101.999996887207,2|0,3:2|0:0,0:0:0:0:
272,384,209602,1,10,0:2:0:0:
456,328,209977,6,0,P|464:277|474:227,1,101.999996887207,6|2,3:2|0:0,0:0:0:0:
464,216,210258,2,0,P|416:233|367:250,1,101.999996887207,4|0,0:0|0:0,0:0:0:0:
363,265,210539,2,0,P|402:297|440:331,1,101.999996887207,4|2,1:2|3:0,0:0:0:0:
472,204,210914,1,4,0:3:0:0:
412,88,211102,2,0,L|419:37,2,50.9999984436036,0|4|4,1:0|0:3|0:3,0:0:0:0:
256,200,211477,6,0,P|316:157|388:175,1,152.999995330811,6|0,3:2|0:0,0:0:0:0:
400,172,211852,2,0,P|387:221|380:271,1,101.999996887207,8|0,0:0|0:0,0:0:0:0:
224,384,212227,2,0,P|215:333|201:284,1,101.999996887207,2|0,3:2|0:0,0:0:0:0:
156,192,212602,1,8,0:0:0:0:
300,296,212789,1,2,0:0:0:0:
104,280,212977,6,0,P|53:287|5:304,1,101.999996887207,2|0,3:2|0:0,0:0:0:0:
256,200,213352,2,0,P|306:207|354:224,1,101.999996887207,10|0,0:0|0:0,0:0:0:0:
180,84,213727,2,0,L|165:184,1,101.999996887207,2|0,3:2|0:0,0:0:0:0:
192,296,214102,1,10,1:2:0:0:
56,180,214289,1,2,0:0:0:0:
56,180,214383,1,4,0:3:0:0:
55,180,214477,6,0,P|106:171|155:159,1,101.999996887207,6|0,3:2|0:0,0:0:0:0:
296,88,214852,2,0,P|245:79|196:67,1,101.999996887207,10|0,1:2|0:0,0:0:0:0:
284,208,215227,2,0,L|264:308,1,101.999996887207,6|0,3:2|0:0,0:0:0:0:
112,364,215602,2,0,L|92:264,1,101.999996887207,10|0,1:2|0:0,0:0:0:0:
91,263,215883,1,2,0:0:0:0:
91,263,215977,6,0,L|82:213,3,50.9999984436036,6|0|0|0,1:2|0:0|0:0|0:0,0:0:0:0:
164,116,216352,2,0,L|154:166,3,50.9999984436036,10|0|0|0,1:2|0:0|0:0|0:0,0:0:0:0:
224,228,216727,2,0,B|258:192|258:192|304:216,1,101.999996887207,12|4,1:0|0:3,0:0:0:0:
364,292,217008,2,0,B|398:328|398:328|444:304,1,101.999996887207,8|0,1:0|0:3,0:0:0:0:
464,208,217289,2,0,L|413:218,1,50.9999984436036,8|0,1:0|1:0,0:0:0:0:
272,292,217477,5,2,0:2:0:0:
264,294,217570,1,4,0:0:0:0:
255,296,217664,1,4,0:0:0:0:
246,298,217758,1,0,0:0:0:0:
237,300,217852,6,0,B|136:320,1,101.999996887207,12|0,1:2|0:0,0:0:0:0:
32,164,218227,2,0,P|45:213|56:263,1,101.999996887207,2|0,3:2|0:3,0:0:0:0:
212,384,218602,2,0,P|219:333|230:283,1,101.999996887207,8|0,0:0|0:0,0:0:0:0:
208,60,218977,6,0,P|232:104|251:152,1,101.999996887207,2|0,3:2|0:0,0:0:0:0:
380,60,219352,2,0,P|361:107|337:152,1,101.999996887207,10|0,0:0|0:0,0:0:0:0:
490,191,219727,2,0,P|441:207|391:217,1,101.999996887207,2|4,3:2|0:3,0:0:0:0:
296,228,220102,1,8,1:0:0:0:
152,144,220289,1,2,0:0:0:0:
296,56,220477,6,0,P|350:107|424:105,1,152.999995330811,2|0,3:2|0:0,0:0:0:0:
488,144,220852,2,0,P|497:93|511:44,1,101.999996887207,8|0,0:0|0:0,0:0:0:0:
340,136,221227,2,0,P|351:185|358:236,1,101.999996887207,2|0,3:2|0:0,0:0:0:0:
248,136,221602,1,8,0:0:0:0:
164,272,221789,2,0,L|116:256,1,50.9999984436036,2|2,0:0|0:0,0:0:0:0:
106,233,221977,6,0,P|144:201|194:205,1,101.999996887207,6|2,3:2|0:0,0:0:0:0:
100,304,222258,2,0,P|53:286|32:241,1,101.999996887207,6|0,0:0|0:0,0:0:0:0:
164,272,222539,2,0,P|172:321|143:361,1,101.999996887207,4|2,1:2|3:0,0:0:0:0:
28,252,222914,1,4,3:0:0:0:
188,196,223102,2,0,L|195:145,2,50.9999984436036,0|4|4,1:0|0:3|0:3,0:0:0:0:
16,48,223477,6,0,P|55:107|126:92,1,152.999995330811,6|0,3:2|0:0,0:0:0:0:
132,76,223852,2,0,L|232:56,1,101.999996887207,8|0,0:0|0:0,0:0:0:0:
296,208,224227,2,0,L|196:188,1,101.999996887207,2|0,3:2|0:0,0:0:0:0:
336,104,224602,1,8,0:0:0:0:
136,60,224789,1,2,0:0:0:0:
228,116,224977,6,0,P|244:67|255:17,1,101.999996887207,2|0,3:2|0:0,0:0:0:0:
184,188,225352,2,0,P|217:226|255:260,1,101.999996887207,10|0,0:0|0:0,0:0:0:0:
143,113,225727,2,0,P|93:123|44:138,1,101.999996887207,2|0,3:2|0:0,0:0:0:0:
232,104,226102,1,10,1:2:0:0:
68,256,226289,1,2,0:0:0:0:
68,256,226383,1,4,0:3:0:0:
68,255,226477,6,0,P|60:204|48:155,1,101.999996887207,4|2,3:2|0:0,0:0:0:0:
200,268,226852,2,0,P|189:317|184:368,1,101.999996887207,10|0,1:2|0:0,0:0:0:0:
92,352,227227,2,0,L|-8:332,1,101.999996887207,6|0,3:2|0:0,0:0:0:0:
140,196,227602,2,0,L|240:176,1,101.999996887207,10|0,1:2|0:0,0:0:0:0:
364,284,227977,6,0,L|312:276,3,50.9999984436036,6|0|0|2,1:2|0:0|0:0|1:2,0:0:0:0:
424,216,228352,2,0,L|476:208,3,50.9999984436036,8|0|2|0,0:0|0:0|1:2|0:0,0:0:0:0:
340,196,228727,1,4,1:0:0:0:
326,168,228820,1,0,1:0:0:0:
321,137,228914,1,4,0:3:0:0:
321,106,229008,1,4,0:3:0:0:
328,76,229102,1,12,0:3:0:0:
344,50,229195,1,8,0:3:0:0:
367,30,229289,1,8,0:3:0:0:
396,20,229383,1,8,0:3:0:0:
426,14,229477,6,0,P|514:47|500:140,1,203.999993774414,6|10,3:2|0:0,0:0:0:0:
512,240,230039,1,0,0:0:0:0:
364,176,230227,2,0,P|356:125|345:75,1,101.999996887207,2|0,3:2|0:0,0:0:0:0:
420,256,230602,2,0,P|369:263|319:274,1,101.999996887207,8|0,0:0|0:0,0:0:0:0:
152,364,230977,6,0,P|202:356|252:345,1,101.999996887207,2|0,3:2|0:0,0:0:0:0:
108,208,231352,2,0,P|58:196|7:189,1,101.999996887207,10|0,0:0|0:0,0:0:0:0:
188,272,231727,2,0,L|199:170,1,101.999996887207,2|0,3:2|0:0,0:0:0:0:
44,280,232102,2,0,L|55:381,1,101.999996887207,10|2,1:2|0:0,0:0:0:0:
132,208,232477,6,0,P|203:187|262:231,1,152.999995330811,2|0,3:2|0:0,0:0:0:0:
276,227,232852,2,0,P|264:277|256:328,1,101.999996887207,8|2,0:0|0:0,0:0:0:0:
124,200,233227,2,0,P|135:150|143:99,1,101.999996887207,2|0,3:2|0:0,0:0:0:0:
188,268,233602,1,10,0:2:0:0:
48,132,233789,1,0,0:0:0:0:
48,132,233883,1,4,0:3:0:0:
48,132,233977,6,0,L|148:146,1,101.999996887207,6|2,3:2|0:0,0:0:0:0:
160,140,234258,2,0,L|260:154,1,101.999996887207,4|0,0:0|0:0,0:0:0:0:
272,148,234539,2,0,L|372:162,1,101.999996887207,4|2,1:2|3:0,0:0:0:0:
512,304,234914,1,4,0:3:0:0:
320,276,235102,2,0,L|308:226,2,50.9999984436036,0|4|4,1:0|0:3|0:3,0:0:0:0:
448,372,235477,6,0,P|419:303|448:234,1,152.999995330811,6|0,3:2|0:0,0:0:0:0:
436,224,235852,2,0,P|431:173|419:123,1,101.999996887207,8|0,0:0|0:0,0:0:0:0:
236,192,236227,2,0,P|240:242|252:292,1,101.999996887207,2|0,3:2|0:0,0:0:0:0:
328,356,236602,1,8,0:0:0:0:
344,192,236789,1,2,0:0:0:0:
248,64,236977,6,0,P|197:55|148:41,1,101.999996887207,2|0,3:2|0:0,0:0:0:0:
60,216,237352,2,0,P|109:202|159:193,1,101.999996887207,10|0,0:0|0:0,0:0:0:0:
40,4,237727,2,0,P|52:53|63:103,1,101.999996887207,2|0,3:2|0:0,0:0:0:0:
132,292,238102,1,10,1:2:0:0:
240,160,238289,1,2,0:0:0:0:
240,160,238383,1,4,0:3:0:0:
240,160,238477,6,0,P|248:109|258:59,1,101.999996887207,6|0,3:2|0:0,0:0:0:0:
384,208,238852,2,0,P|376:259|366:309,1,101.999996887207,10|0,1:2|0:0,0:0:0:0:
332,112,239227,2,0,P|383:120|433:130,1,101.999996887207,6|0,3:2|0:0,0:0:0:0:
284,248,239602,2,0,P|233:256|183:266,1,101.999996887207,10|0,1:2|0:0,0:0:0:0:
183,265,239883,1,2,0:0:0:0:
183,265,239977,5,6,1:2:0:0:
228,112,240164,1,0,0:0:0:0:
132,196,240352,1,10,1:2:0:0:
108,40,240539,1,0,0:0:0:0:
56,156,240727,2,0,B|8:148|8:148|-24:190,1,101.999996887207,12|0,1:0|0:0,0:0:0:0:
116,272,241008,2,0,B|164:280|164:280|196:237,1,101.999996887207,8|0,1:0|0:0,0:0:0:0:
32,252,241289,2,0,L|43:301,1,50.9999984436036,8|0,1:0|1:0,0:0:0:0:
144,180,241477,1,4,3:2:0:0:
256,192,241570,12,0,244477,0:0:0:0:
