osu file format v14

[General]
AudioFilename: audio.ogg
AudioLeadIn: 0
PreviewTime: 205383
Countdown: 0
SampleSet: Soft
StackLeniency: 0.7
Mode: 0
LetterboxInBreaks: 0
WidescreenStoryboard: 1

[Editor]
DistanceSpacing: 1.1
BeatDivisor: 4
GridSize: 16
TimelineZoom: 2

[Metadata]
Title:Hatenaki Kaze no Kiseki sae ~Ha~
TitleUnicode:果てなき風の軌跡さえ~破~
Artist:Yuuhei Satellite
ArtistUnicode:幽閉サテライト
Creator:Dailycare
Version:Enon's Hard
Source:東方風神録 ~ Mountain of Faith.
Tags:Enon GimBab senya Marcia Iceon ZUN 東方Project Touhou Project MoF Fuujinroku TH10 Team Shanghai Alice 信仰は儚き人間の為に Shinkou wa hakanaki ningen no tame ni Faith Is for the Transient People Japanese Video Game
BeatmapID:3875449
BeatmapSetID:1822334

[Difficulty]
HPDrainRate:5
CircleSize:3.8
OverallDifficulty:6
ApproachRate:8
SliderMultiplier:1.4
SliderTickRate:1

[Events]
//Background and Video events
0,0,"2=).jpg",0,0
//Break Periods
2,130677,135727
//Storyboard Layer 0 (Background)
//Storyboard Layer 1 (Fail)
//Storyboard Layer 2 (Pass)
//Storyboard Layer 3 (Foreground)
//Storyboard Layer 4 (Overlay)
//Storyboard Sound Samples

[TimingPoints]
-23,375,4,2,1,40,1,0
8977,-100,4,2,1,50,0,0
16477,-100,4,2,1,5,0,0
17039,-100,4,2,1,60,0,0
17602,-100,4,2,1,80,0,0
17977,-100,4,2,1,80,0,1
18070,-100,4,2,1,80,0,0
29977,-100,4,2,1,50,0,0
50977,-100,4,2,0,50,0,0
52570,-100,4,3,0,56,0,0
53227,-100,4,3,0,62,0,0
53602,-100,4,2,1,70,0,0
53977,-100,4,2,1,80,0,1
54070,-100,4,2,1,80,0,0
66164,-100,4,2,1,20,0,0
66258,-100,4,2,1,80,0,0
66445,-100,4,2,1,20,0,0
66539,-100,4,2,1,80,0,0
66633,-100,4,2,1,20,0,0
66727,-100,4,2,1,80,0,0
67477,-90.9090909090909,4,2,1,85,0,1
79477,-100,4,2,1,47,0,0
79758,-100,4,2,1,52,0,0
80039,-100,4,2,1,52,0,0
80227,-100,4,2,1,57,0,0
80508,-100,4,2,1,62,0,0
80789,-100,4,2,1,62,0,0
80977,-90.9090909090909,4,2,1,85,0,1
91477,-100,4,2,1,70,0,0
92977,-100,4,2,1,50,0,0
93539,-100,4,2,1,70,0,0
94102,-100,4,2,1,80,0,0
94477,-100,4,2,1,80,0,1
94570,-100,4,2,1,80,0,0
106477,-100,4,2,1,70,0,1
106570,-100,4,2,1,70,0,0
116977,-100,4,3,0,70,0,0
118477,-100,4,2,1,75,0,1
118570,-100,4,2,1,75,0,0
128227,-100,4,2,1,80,0,0
128977,-100,4,3,0,80,0,0
135727,-100,4,2,1,50,0,0
136102,-100,4,2,1,80,0,0
136477,-100,4,2,1,80,0,1
136570,-100,4,2,1,80,0,0
142664,-100,4,2,1,20,0,0
142758,-100,4,2,1,80,0,0
142945,-100,4,2,1,20,0,0
143039,-100,4,2,1,80,0,0
143133,-100,4,2,1,20,0,0
143227,-100,4,2,1,80,0,0
143977,-90.9090909090909,4,2,1,85,0,1
155977,-100,4,2,1,70,0,0
156164,-100,4,3,0,52,0,0
156258,-100,4,3,0,52,0,0
156352,-100,4,3,0,54,0,0
156539,-100,4,3,0,56,0,0
156727,-100,4,3,0,58,0,0
156914,-100,4,3,0,60,0,0
157008,-100,4,3,0,60,0,0
157102,-100,4,3,0,62,0,0
157289,-100,4,3,0,64,0,0
157477,-90.9090909090909,4,2,1,85,0,1
167883,-100,4,2,1,85,0,0
167977,-100,4,2,1,85,0,1
179883,-100,4,2,1,85,0,0
179977,-100,4,2,1,85,0,1
191977,-100,4,2,1,70,0,0
192352,-100,4,2,1,50,0,0
197414,-100,4,2,1,60,0,0
197602,-100,4,2,1,70,0,0
197977,-100,4,2,1,75,0,1
198070,-100,4,2,1,75,0,0
199477,-100,4,2,1,75,0,1
199570,-100,4,2,1,75,0,0
200977,-100,4,2,1,75,0,1
201070,-100,4,2,1,75,0,0
202477,-100,4,2,1,80,0,1
203789,-100,4,2,1,80,0,0
205477,-100,4,2,1,60,0,0
206602,-100,4,2,1,70,0,1
206695,-100,4,2,1,70,0,0
206977,-90.9090909090909,4,2,1,85,0,1
217477,-90.9090909090909,4,3,0,75,0,0
217852,-90.9090909090909,4,2,1,85,0,1
229383,-90.9090909090909,4,2,1,85,0,0
229477,-90.9090909090909,4,2,1,85,0,1
241477,-100,4,2,1,70,0,0
244383,-100,4,2,1,30,0,1
244477,-100,4,2,1,30,0,0

[Colours]
Combo1 : 156,220,198
Combo2 : 154,211,112

[HitObjects]
127,307,2977,6,0,P|66:307|16:127,2,280,6|2|2,0:0|0:0|0:0,0:0:0:0:
225,358,4852,2,0,P|292:345|323:285,2,140,2|2|2,0:0|0:0|0:0,0:0:0:0:
127,307,5977,6,0,P|122:237|114:167,1,140,6|0,0:0|0:0,0:0:0:0:
37,86,6727,2,0,P|107:81|177:73,1,140,2|2,0:0|0:0,0:0:0:0:
218,110,7289,1,0,0:0:0:0:
266,82,7477,6,0,P|340:68|366:1,2,140,2|2|2,0:0|0:0|0:0,0:0:0:0:
224,186,8602,1,2,0:0:0:0:
114,167,8977,6,0,P|46:175|8:232,1,140,4|0,0:1|0:0,0:0:0:0:
37,340,9727,2,0,P|97:366|189:254,1,210,2|0,0:0|0:0,0:0:0:0:
243,259,10477,6,0,P|226:324|268:377,1,140,2|2,0:0|0:0,0:0:0:0:
377,353,11227,2,0,P|394:287|352:234,1,140,2|2,0:0|0:0,0:0:0:0:
330,182,11789,6,0,P|352:200|397:199,1,70,2|4,0:0|0:1,0:0:0:0:
492,150,12352,2,0,P|499:77|509:10,2,140,2|2|2,0:0|0:0|0:0,0:0:0:0:
392,200,13477,6,0,L|375:340,1,140,2|2,0:0|0:0,0:0:0:0:
485,359,14227,2,0,P|523:322|517:256,2,105,2|2|2,0:0|0:0|0:0,0:0:0:0:
256,192,14977,12,0,16477,0:0:0:0:
485,359,17227,6,0,L|490:301,3,35,8|4|4|0,0:3|0:3|0:3|0:0,0:0:0:0:
470,345,17602,2,0,P|420:365|358:332,1,105,6|2,0:0|0:0,0:0:0:0:
355,314,17977,6,0,P|285:318|215:328,1,140,4|8,3:2|0:0,0:0:0:0:
157,278,18539,1,2,0:0:0:0:
190,208,18727,2,0,P|185:138|175:68,1,140,0|8,3:0|3:2,0:0:0:0:
319,14,19477,6,0,P|388:9|458:0,1,140,2|8,3:0|0:0,0:0:0:0:
509,56,20039,1,2,0:0:0:0:
480,127,20227,2,0,P|445:129|410:134,1,70,0|2,3:0|0:0,0:0:0:0:
338,160,20602,2,0,P|335:125|330:90,1,70,8|2,3:2|0:3,0:0:0:0:
318,13,20977,6,0,P|253:72|189:56,1,140,2|8,3:0|0:0,0:0:0:0:
152,120,21539,1,2,0:0:0:0:
74,113,21727,2,0,P|11:90|0:24,1,140,0|8,3:0|3:2,0:0:0:0:
7,178,22477,6,0,P|51:220|45:317,1,140,2|8,3:0|0:0,0:0:0:0:
110,350,23039,1,2,0:0:0:0:
184,369,23227,2,0,P|217:362|244:330,1,70,0|2,3:0|0:0,0:0:0:0:
267,264,23602,2,0,P|260:232|224:199,1,70,8|10,0:0|0:3,0:0:0:0:
190,143,23977,6,0,P|259:147|329:146,1,140,4|8,3:2|0:0,0:0:0:0:
393,189,24539,1,2,0:0:0:0:
468,171,24727,2,0,P|463:240|464:310,1,140,0|8,3:0|3:2,0:0:0:0:
323,372,25477,6,0,P|253:367|183:368,1,140,2|8,3:0|0:0,0:0:0:0:
120,326,26039,1,2,0:0:0:0:
45,344,26227,2,0,P|47:309|46:274,1,70,0|2,3:0|0:0,0:0:0:0:
26,199,26602,2,0,P|60:201|95:200,1,70,8|2,3:2|0:0,0:0:0:0:
166,231,26977,6,0,P|151:169|203:102,1,140,4|8,3:2|0:0,0:0:0:0:
256,68,27539,1,2,0:0:0:0:
324,104,27727,2,0,P|296:52|305:-14,2,105,2|10|2,1:3|0:3|1:3,0:0:0:0:
401,101,28477,6,0,P|397:173|399:221,1,105,10|10,1:0|1:0,0:0:0:0:
455,306,29039,2,0,P|383:302|335:304,1,105,6|12,1:0|0:3,0:0:0:0:
249,360,29602,2,0,P|252:325|251:290,1,70,8|8,1:0|0:0,0:0:0:0:
306,235,29977,5,6,0:0:0:0:
306,235,30727,2,0,L|306:124,2,105,2|0|0,0:0|0:0|0:0,0:0:0:0:
274,281,31477,6,0,P|217:328|135:290,1,140,2|0,0:0|0:0,0:0:0:0:
65,251,32227,2,0,P|42:211|51:145,2,105,2|2|2,0:0|0:0|0:0,0:0:0:0:
106,288,32977,5,2,0:0:0:0:
274,281,33539,2,0,P|302:204|268:138,1,140,2|0,0:0|0:0,0:0:0:0:
240,115,34102,1,2,0:0:0:0:
320,37,34477,6,0,P|354:40|389:39,1,70,2|2,0:0|0:0,0:0:0:0:
444,24,34852,2,0,P|440:58|441:93,1,70
409,139,35227,2,0,P|414:217|411:291,1,140,2|0,0:0|0:0,0:0:0:0:
454,315,35789,1,0,0:0:0:0:
430,366,35977,6,0,P|360:364|290:369,1,140,2|0,0:0|0:0,0:0:0:0:
210,285,36727,2,0,P|155:288|101:287,2,105,2|0|0,0:0|0:0|0:0,0:0:0:0:
254,319,37477,5,2,0:0:0:0:
366,194,38039,1,2,0:0:0:0:
400,149,38227,2,0,P|396:94|397:40,2,105,2|2|2,0:0|0:0|0:0,0:0:0:0:
366,194,38977,6,0,P|296:192|226:197,1,140,2|0,0:0|0:0,0:0:0:0:
124,150,39727,2,0,P|71:153|19:152,2,105,2|2|2,0:0|0:0|0:0,0:0:0:0:
153,198,40477,6,0,P|154:253|158:270,1,70,2|0,0:0|0:0,0:0:0:0:
137,320,40852,2,0,P|82:321|65:325,1,70,0|2,0:0|0:0,0:0:0:0:
22,291,41227,2,0,P|24:221|19:151,1,140,6|2,0:0|0:3,0:0:0:0:
69,51,41977,6,0,P|139:53|209:48,1,140,4|2,1:0|0:0,0:0:0:0:
256,77,42539,1,0,0:0:0:0:
225,124,42727,2,0,P|223:177|227:231,2,105,0|0|0,1:0|0:0|0:0,0:0:0:0:
256,77,43477,6,0,P|326:79|396:74,1,140,2|2,0:0|0:0,0:0:0:0:
429,119,44039,1,0,0:0:0:0:
483,103,44227,2,0,P|479:50|481:-1,2,105,0|2|2,1:0|0:0|0:0,0:0:0:0:
429,119,44977,6,0,P|433:188|431:258,1,140,2|2,0:0|0:0,0:0:0:0:
439,315,45539,2,0,P|369:312|299:317,1,140,2|2,0:0|0:0,0:0:0:0:
256,281,46102,1,0,0:0:0:0:
188,191,46477,6,0,P|153:193|118:192,1,70,2|0,0:0|0:0,0:0:0:0:
63,178,46852,2,0,P|65:212|64:247,1,70,2|0,0:0|0:0,0:0:0:0:
64,304,47227,2,0,P|133:299|203:302,1,140,2|2,1:2|0:0,0:0:0:0:
256,281,47789,1,0,0:0:0:0:
299,316,47977,6,0,P|294:246|297:176,1,140,2|0,0:0|0:0,0:0:0:0:
256,137,48539,1,2,0:0:0:0:
213,173,48727,2,0,P|157:170|101:174,2,105,0|0|0,1:0|0:0|0:0,0:0:0:0:
256,137,49477,6,0,P|325:140|395:135,1,140,2|2,0:0|0:0,0:0:0:0:
470,219,50227,2,0,P|416:216|363:220,2,105,0|2|2,1:0|0:0|0:0,0:0:0:0:
502,173,50977,6,0,P|497:103|500:33,1,140,2|2,3:2|3:2,0:0:0:0:
448,14,51539,1,0,0:0:0:0:
394,30,51727,2,0,P|397:82|394:134,2,105,2|2|2,3:2|3:2|3:2,0:0:0:0:
448,14,52477,6,0,P|378:19|308:16,1,140,2|0,1:2|0:0,0:0:0:0:
256,37,53039,1,0,0:0:0:0:
203,57,53227,2,0,P|168:56|133:58,1,70,0|0,1:0|0:0,0:0:0:0:
79,45,53602,2,0,P|82:97|79:149,1,105,6|4,1:2|0:3,0:0:0:0:
65,185,53977,6,0,P|100:182|134:184,1,70,6|0,0:0|0:0,0:0:0:0:
209,205,54352,2,0,P|206:170|208:135,1,70,8|0,0:0|0:0,0:0:0:0:
203,57,54727,2,0,P|255:59|307:56,2,105,2|2|2,0:0|0:0|0:0,0:0:0:0:
128,36,55477,6,0,P|132:105|130:175,1,140,2|10,0:0|0:0,0:0:0:0:
116,251,56039,2,0,P|185:246|255:248,1,140,2|2,0:0|0:0,0:0:0:0:
317,202,56602,1,10,0:0:0:0:
272,139,56789,1,4,0:3:0:0:
327,85,56977,6,0,P|396:87|466:82,1,140,2|8,0:0|0:0,0:0:0:0:
507,148,57539,1,0,0:0:0:0:
463,212,57727,2,0,P|460:274|464:337,2,105,2|2|2,0:0|0:0|0:0,0:0:0:0:
386,200,58477,6,0,P|351:202|316:201,1,70,2|0,0:0|0:0,0:0:0:0:
255,248,58852,2,0,P|257:282|256:317,1,70,10|0,0:0|0:0,0:0:0:0:
209,379,59227,2,0,P|261:376|313:379,2,105,4|2|6,0:3|0:0|0:3,0:0:0:0:
170,312,59977,6,0,P|100:316|30:314,1,140,6|8,0:0|0:0,0:0:0:0:
102,178,60727,2,0,P|154:175|206:178,2,105,2|2|2,0:0|0:0|0:0,0:0:0:0:
36,136,61477,6,0,P|37:101|34:66,1,70,2|0,0:0|0:0,0:0:0:0:
96,19,61852,2,0,P|130:20|165:17,1,70,8|2,0:0|0:0,0:0:0:0:
213,79,62227,2,0,P|211:113|214:148,1,70,2|2,0:0|0:3,0:0:0:0:
173,214,62602,1,8,0:0:0:0:
223,271,62789,1,2,1:3:0:0:
191,341,62977,6,0,P|173:340|156:341,3,35,4|2|8|8,1:2|0:3|0:3|0:3,0:0:0:0:
192,328,63352,2,0,P|226:329|261:326,1,70,2|8,0:0|0:3,0:0:0:0:
334,351,63727,2,0,P|335:316|332:281,1,70,2|4,3:2|3:3,0:0:0:0:
357,209,64102,2,0,P|322:207|287:210,1,70,2|0,3:2|3:0,0:0:0:0:
249,143,64477,6,0,P|245:90|246:38,2,105,14|14|10,0:1|0:1|0:1,0:0:0:0:
187,188,65227,2,0,P|192:263|190:338,1,140,14|4,0:1|0:3,0:0:0:0:
256,367,65789,1,4,0:3:0:0:
319,322,65977,6,0,P|371:318|423:319,2,105,14|14|10,0:1|0:1|0:1,0:0:0:0:
256,367,66727,2,0,P|237:368|218:367,3,35,2|8|4|0,1:0|0:3|0:3|0:0,0:0:0:0:
187,348,67102,2,0,P|169:347|152:349,3,35,4|4|4|0,0:3|0:3|0:3|0:0,0:0:0:0:
118,321,67477,6,0,P|48:300|33:228,1,154.000004699707,6|8,3:2|0:0,0:0:0:0:
87,162,68039,1,0,0:0:0:0:
165,194,68227,2,0,P|217:183|246:179,1,77.0000023498536,2|0,3:2|0:3,0:0:0:0:
282,106,68602,1,8,0:0:0:0:
237,34,68789,1,0,0:0:0:0:
225,28,68883,1,0,0:0:0:0:
213,22,68977,6,0,P|175:30|137:36,1,77.0000023498536,2|0,3:2|0:0,0:0:0:0:
58,3,69352,2,0,P|66:41|72:79,1,77.0000023498536,10|0,0:0|0:0,0:0:0:0:
87,162,69727,1,2,3:2:0:0:
165,194,69914,1,4,0:3:0:0:
114,262,70102,1,8,1:0:0:0:
192,292,70289,1,2,0:0:0:0:
198,304,70383,1,0,0:0:0:0:
204,316,70477,6,0,P|292:303|360:300,1,154.000004699707,2|8,3:2|0:0,0:0:0:0:
411,235,71039,1,0,0:0:0:0:
333,201,71227,2,0,P|326:134|318:112,1,77.0000023498536,2|0,3:2|0:0,0:0:0:0:
279,52,71602,1,8,0:0:0:0:
363,57,71789,1,2,0:0:0:0:
375,63,71883,1,2,0:0:0:0:
387,69,71977,6,0,P|437:65|509:51,2,115.50000352478,6|6|4,3:2|0:0|1:2,0:0:0:0:
323,125,72727,1,2,3:0:0:0:
403,151,72914,1,4,3:0:0:0:
333,201,73102,1,2,1:3:0:0:
321,207,73196,1,6,0:3:0:0:
309,213,73289,1,4,0:3:0:0:
245,154,73477,6,0,P|182:144|82:136,1,154.000004699707,6|8,3:2|0:0,0:0:0:0:
37,73,74039,1,0,0:0:0:0:
112,33,74227,2,0,P|157:40|227:46,1,115.50000352478,2|0,3:2|0:0,0:0:0:0:
254,78,74602,2,0,P|248:108|245:155,1,77.0000023498536,8|2,0:0|0:0,0:0:0:0:
193,222,74977,5,2,3:2:0:0:
246,287,75164,1,0,0:0:0:0:
189,350,75352,2,0,P|158:344|111:341,1,77.0000023498536,10|0,0:0|0:0,0:0:0:0:
29,359,75727,2,0,P|34:328|37:281,1,77.0000023498536,2|0,3:2|0:0,0:0:0:0:
10,202,76102,1,10,1:2:0:0:
82,158,76289,1,2,0:0:0:0:
85,147,76383,1,4,0:3:0:0:
88,136,76477,6,0,P|49:133|11:127,1,77.0000023498536,4|2,3:2|0:0,0:0:0:0:
56,55,76852,2,0,P|95:58|133:64,1,77.0000023498536,10|0,1:2|0:0,0:0:0:0:
212,34,77227,1,6,3:2:0:0:
256,105,77414,1,0,0:0:0:0:
300,34,77602,2,0,P|338:39|376:42,1,77.0000023498536,10|0,1:2|0:0,0:0:0:0:
436,103,77977,5,6,1:2:0:0:
367,152,78164,1,0,0:0:0:0:
359,162,78258,1,2,1:2:0:0:
369,171,78352,1,8,0:0:0:0:
427,231,78539,1,2,1:2:0:0:
499,187,78727,2,0,L|506:145,3,38.5000011749268,4|0|4|4,1:0|1:0|0:3|0:3,0:0:0:0:
508,191,79102,2,0,L|501:228,3,38.5000011749268,12|8|8|8,0:3|0:3|0:3|0:3,0:0:0:0:
505,267,79477,6,0,L|485:370,2,105,2|2|0,0:1|0:0|0:0,0:0:0:0:
461,204,80227,2,0,L|480:100,2,105,2|2|2,0:1|0:0|0:0,0:0:0:0:
406,258,80977,6,0,P|351:311|268:279,1,154.000004699707,6|10,3:2|0:0,0:0:0:0:
224,231,81539,1,0,0:0:0:0:
286,173,81727,2,0,P|284:138|285:91,1,77.0000023498536,2|0,3:2|0:0,0:0:0:0:
227,33,82102,1,10,1:2:0:0:
165,91,82289,1,2,0:0:0:0:
153,97,82383,1,0,0:0:0:0:
157,109,82477,6,0,P|159:149|158:191,1,77.0000023498536,2|2,3:2|0:0,0:0:0:0:
228,225,82852,2,0,P|227:263|229:301,1,77.0000023498536,8|2,0:0|0:0,0:0:0:0:
174,366,83227,1,2,3:2:0:0:
109,311,83414,1,0,0:0:0:0:
164,246,83601,1,10,0:2:0:0:
229,301,83789,1,0,0:0:0:0:
241,307,83883,1,4,0:3:0:0:
254,313,83977,6,0,L|342:303,1,77.0000023498536,6|0,3:2|0:0,0:0:0:0:
338,312,84258,1,0,0:0:0:0:
346,319,84352,2,0,L|434:309,1,77.0000023498536,12|6,0:0|0:0,0:0:0:0:
480,372,84727,1,2,3:0:0:0:
509,292,84914,1,4,0:3:0:0:
441,240,85101,1,0,1:0:0:0:
434,229,85195,1,4,0:3:0:0:
440,218,85289,1,4,0:3:0:0:
503,161,85477,6,0,P|496:61|500:1,1,154.000004699707,6|8,3:2|0:0,0:0:0:0:
421,39,86039,1,0,0:0:0:0:
338,16,86227,2,0,P|341:65|340:92,1,77.0000023498536,2|0,3:2|0:0,0:0:0:0:
274,146,86602,1,8,0:0:0:0:
325,213,86789,1,2,0:0:0:0:
332,223,86883,1,0,0:0:0:0:
326,235,86977,6,0,L|450:220,1,115.50000352478,2|0,3:2|0:0,0:0:0:0:
476,243,87352,2,0,L|484:318,1,77.0000023498536,10|0,0:0|0:0,0:0:0:0:
420,374,87727,2,0,L|344:382,1,77.0000023498536,2|0,3:2|0:0,0:0:0:0:
261,359,88102,1,10,1:2:0:0:
332,313,88289,1,2,0:0:0:0:
337,303,88383,1,4,0:3:0:0:
327,294,88477,6,0,P|325:255|320:217,1,77.0000023498536,6|0,3:2|0:0,0:0:0:0:
276,145,88852,2,0,P|314:143|353:138,1,77.0000023498536,10|0,1:2|0:0,0:0:0:0:
425,94,89227,2,0,P|426:132|431:171,1,77.0000023498536,6|0,3:2|0:0,0:0:0:0:
476,243,89602,2,0,P|437:244|399:249,1,77.0000023498536,10|0,1:2|0:0,0:0:0:0:
320,217,89977,6,0,P|300:219|281:219,3,38.5000011749268,6|0|0|0,1:2|0:0|0:0|0:0,0:0:0:0:
250,248,90352,2,0,P|248:209|243:171,1,77.0000023498536,10|0,1:2|0:0,0:0:0:0:
167,132,90727,2,0,P|109:139|51:140,2,115.50000352478,12|8|8,1:0|1:0|1:0,0:0:0:0:
222,77,91477,5,6,1:2:0:0:
256,192,91570,12,0,92977,0:0:0:0:
229,83,93539,5,4,0:3:0:0:
229,83,93633,1,4,0:3:0:0:
229,83,93727,2,0,L|223:34,3,35,8|4|4|0,0:3|0:3|0:3|0:0,0:0:0:0:
243,27,94102,2,0,P|184:39|129:28,1,105,6|2,0:0|0:0,0:0:0:0:
113,40,94477,6,0,P|112:106|109:188,1,140,4|8,3:2|0:0,0:0:0:0:
60,239,95039,1,2,0:0:0:0:
99,305,95227,2,0,P|165:306|247:309,1,140,0|8,3:0|3:2,0:0:0:0:
379,372,95977,6,0,P|380:306|383:224,1,140,2|8,3:0|0:0,0:0:0:0:
432,173,96539,1,2,0:0:0:0:
393,107,96727,2,0,P|360:106|319:105,1,70,2|2,3:0|0:0,0:0:0:0:
253,70,97102,2,0,P|252:103|251:143,1,70,8|2,3:2|0:3,0:0:0:0:
228,213,97477,6,0,P|150:230|102:171,1,140,2|8,3:0|0:0,0:0:0:0:
97,118,98039,1,2,0:0:0:0:
134,50,98227,2,0,P|212:33|260:92,1,140,0|8,3:0|3:2,0:0:0:0:
308,213,98977,6,0,P|362:252|426:232,1,140,2|8,3:0|0:0,0:0:0:0:
483,178,99539,1,2,0:0:0:0:
489,101,99727,2,0,P|478:61|438:30,1,70,0|2,3:0|0:0,0:0:0:0:
385,17,100102,2,0,P|338:24|310:46,1,70,8|10,0:0|0:3,0:0:0:0:
259,83,100477,6,0,P|118:90|109:90,1,140,4|8,3:2|0:0,0:0:0:0:
47,60,101039,1,2,0:0:0:0:
5,125,101227,2,0,P|12:266|12:275,1,140,0|8,3:0|3:2,0:0:0:0:
134,358,101977,6,0,P|275:351|284:351,1,140,2|8,3:0|0:0,0:0:0:0:
346,381,102539,1,2,0:0:0:0:
388,316,102727,2,0,P|384:245|384:241,1,70,2|2,3:0|0:0,0:0:0:0:
406,172,103102,2,0,P|335:175|331:175,1,70,8|2,3:2|0:0,0:0:0:0:
264,145,103477,6,0,P|229:207|255:279,1,140,4|8,3:2|0:0,0:0:0:0:
311,312,104039,1,2,0:0:0:0:
388,316,104227,2,0,P|456:332|484:372,2,105,2|10|2,1:3|0:3|1:3,0:0:0:0:
383,305,104883,1,0,1:0:0:0:
379,294,104977,6,0,P|382:241|387:189,1,105,10|10,1:0|1:0,0:0:0:0:
440,86,105539,2,0,P|387:82|335:77,1,105,6|12,1:0|0:3,0:0:0:0:
232,25,106102,2,0,P|229:59|226:94,1,70,8|8,1:0|0:0,0:0:0:0:
280,149,106477,5,4,0:1:0:0:
222,199,106664,1,0,0:0:0:0:
274,255,106852,2,0,P|271:289|268:324,1,70,0|0,1:0|0:0,0:0:0:0:
198,359,107227,2,0,P|140:353|80:348,2,105,2|2|2,0:0|0:0|0:0,0:0:0:0:
267,324,107977,6,0,P|301:327|336:330,1,70,2|0,0:0|0:0,0:0:0:0:
408,357,108352,2,0,P|411:322|414:287,1,70,0|0,1:0|0:0,0:0:0:0:
441,216,108727,2,0,P|387:211|334:206,2,105,2|2|2,0:0|0:0|0:0,0:0:0:0:
492,158,109477,6,0,P|496:88|503:18,1,140,2|0,0:0|1:0,0:0:0:0:
427,32,110039,2,0,P|357:27|287:20,1,140,2|2,0:0|0:0,0:0:0:0:
301,97,110602,2,0,P|298:131|295:166,1,70,0|0,1:0|0:0,0:0:0:0:
347,223,110977,6,0,P|343:257|341:292,2,70,2|2|0,0:0|0:0|1:0,0:0:0:0:
295,166,111539,2,0,P|229:158|173:223,1,140,2|2,0:0|0:3,0:0:0:0:
155,278,112102,2,0,P|164:332|187:351,1,70,2|2,1:2|0:3,0:0:0:0:
241,376,112477,6,0,P|311:365|380:356,1,140,2|0,0:0|1:0,0:0:0:0:
416,288,113039,1,0,0:0:0:0:
367,228,113227,2,0,P|314:236|261:242,2,105,2|2|2,0:0|0:0|0:0,0:0:0:0:
423,174,113977,6,0,P|412:104|403:35,1,140,2|0,0:0|1:0,0:0:0:0:
332,4,114539,1,0,0:0:0:0:
275,56,114727,2,0,P|283:108|289:161,2,105,2|2|2,0:0|0:0|0:0,0:0:0:0:
205,21,115477,6,0,P|138:16|80:88,1,140,2|0,0:0|1:0,0:0:0:0:
96,216,116227,2,0,P|140:219|178:171,2,105,2|2|0,0:0|0:0|0:0,0:0:0:0:
42,271,116977,6,0,P|51:322|52:348,1,70,2|0,0:2|0:0,0:0:0:0:
120,374,117352,2,0,P|171:365|197:364,1,70,2|0,1:2|0:0,0:0:0:0:
244,310,117727,2,0,P|239:284|239:271,3,35,2|2|0|4,0:2|0:2|0:0|2:3,0:0:0:0:
218,242,118102,2,0,P|216:224|213:207,3,35,2|8|4|4,1:2|1:3|2:3|2:3,0:0:0:0:
236,176,118477,6,0,P|305:170|374:156,1,140,4|8,0:0|0:0,0:0:0:0:
440,193,119039,1,0,0:0:0:0:
395,256,119227,2,0,P|405:307|409:359,2,105,2|2|2,0:0|0:0|0:0,0:0:0:0:
440,193,119977,6,0,P|426:124|419:54,1,140,2|8,0:0|0:0,0:0:0:0:
353,15,120539,1,0,0:0:0:0:
294,65,120727,2,0,P|304:116|308:168,2,105,2|2|2,0:0|0:0|0:0,0:0:0:0:
353,15,121477,6,0,P|293:60|214:35,1,140,2|10,0:0|0:0,0:0:0:0:
186,110,122039,2,0,P|118:101|65:144,1,140,2|2,0:0|0:0,0:0:0:0:
41,217,122602,2,0,P|42:251|61:281,1,70,10|0,0:0|0:0,0:0:0:0:
122,327,122977,6,0,L|212:327,1,70,2|0,0:0|0:0,0:0:0:0:
265,350,123352,2,0,L|265:260,1,70,8|2,0:0|0:3,0:0:0:0:
220,216,123727,2,0,L|220:99,2,105,2|2|2,0:0|0:0|0:3,0:0:0:0:
265,280,124477,6,0,P|334:274|404:276,1,140,2|8,0:0|0:0,0:0:0:0:
460,223,125039,1,0,0:0:0:0:
416,159,125227,2,0,P|412:106|413:53,2,105,2|2|2,0:0|0:0|0:0,0:0:0:0:
460,223,125977,6,0,P|465:292|463:362,1,140,2|8,0:0|0:0,0:0:0:0:
387,379,126539,1,0,0:0:0:0:
346,313,126727,2,0,P|342:260|343:207,2,105,2|2|4,0:0|0:0|0:3,0:0:0:0:
287,363,127477,6,0,P|217:360|147:366,1,140,6|10,1:2|1:2,0:0:0:0:
91,312,128039,1,0,0:0:0:0:
153,266,128227,2,0,P|149:213|150:160,2,105,6|2|2,1:2|1:2|1:2,0:0:0:0:
91,312,128977,6,0,P|56:310|21:313,1,70,2|0,1:2|0:0,0:0:0:0:
15,236,129352,2,0,P|49:237|84:234,1,70
153,266,129727,2,0,P|170:264|187:265,3,35,0|0|0|0,1:0|0:0|0:0|0:0,0:0:0:0:
211,234,130102,2,0,P|228:234|245:233,3,35,2|8|4|4,1:2|2:3|2:3|2:3,0:0:0:0:
277,255,130477,5,4,0:2:0:0:
277,255,136477,6,0,P|246:175|277:104,1,140,6|8,0:0|0:0,0:0:0:0:
313,70,137039,1,0,0:0:0:0:
384,41,137227,2,0,P|439:51|477:93,2,105,2|2|2,0:0|0:0|0:0,0:0:0:0:
313,70,137977,6,0,P|236:92|182:66,1,140,2|8,0:0|0:0,0:0:0:0:
135,9,138539,1,2,0:0:0:0:
72,53,138727,2,0,P|74:123|74:193,1,140,2|8,0:0|0:0,0:0:0:0:
132,244,139289,1,2,1:3:0:0:
194,199,139477,6,0,P|211:199|228:198,3,35,4|0|8|8,1:2|0:0|0:3|0:3,0:0:0:0:
265,187,139852,2,0,P|264:204|265:221,3,35,2|8|8|8,0:0|0:3|0:3|0:3,0:0:0:0:
277,258,140227,2,0,P|259:257|242:258,3,35,2|4|4|4,3:2|3:0|3:3|3:0,0:0:0:0:
206,270,140602,2,0,P|206:252|205:235,3,35,2|0|0|0,3:2|3:0|3:0|3:0,0:0:0:0:
194,199,140977,6,0,P|141:197|89:197,2,105,14|14|10,0:1|0:1|0:1,0:0:0:0:
260,159,141727,2,0,P|277:159|294:158,3,35,14|0|0|0,0:1|0:0|0:0|0:0,0:0:0:0:
322,184,142102,2,0,P|339:182|356:182,3,35,4|8|4|4,0:3|0:3|0:3|0:3,0:0:0:0:
389,162,142477,6,0,P|388:109|390:57,2,105,14|14|10,0:1|0:1|0:1,0:0:0:0:
339,221,143227,2,0,P|339:238|338:255,3,35,2|8|4|4,1:0|0:3|0:3|0:3,0:0:0:0:
361,286,143602,2,0,P|359:303|359:320,3,35,0|4|0|0,1:0|0:3|1:0|1:0,0:0:0:0:
335,356,143977,6,0,P|275:369|220:276,1,154.000004699707,6|8,3:2|0:0,0:0:0:0:
158,245,144539,1,0,0:0:0:0:
199,171,144727,2,0,P|237:168|275:164,1,77.0000023498536,2|0,3:2|0:3,0:0:0:0:
339,221,145102,1,8,0:0:0:0:
397,159,145289,1,0,0:0:0:0:
405,151,145383,1,0,0:0:0:0:
413,142,145477,6,0,P|409:103|406:65,1,77.0000023498536,2|0,3:2|0:0,0:0:0:0:
335,19,145852,2,0,P|296:22|258:25,1,77.0000023498536,10|0,0:0|0:0,0:0:0:0:
203,90,146227,1,2,3:2:0:0:
272,137,146414,1,4,0:3:0:0:
207,192,146602,1,8,1:0:0:0:
276,239,146789,1,2,0:0:0:0:
284,247,146883,1,0,0:0:0:0:
292,256,146977,6,0,L|454:239,1,154.000004699707,2|8,3:2|0:0,0:0:0:0:
509,295,147539,1,0,0:0:0:0:
464,367,147727,2,0,L|383:375,1,77.0000023498536,2|0,3:2|0:0,0:0:0:0:
316,329,148102,1,8,0:0:0:0:
240,367,148289,1,2,0:0:0:0:
232,359,148383,1,2,0:0:0:0:
223,351,148477,6,0,L|212:217,2,115.50000352478,6|6|4,3:2|0:0|1:2,0:0:0:0:
147,311,149227,1,2,3:0:0:0:
72,349,149414,1,4,3:0:0:0:
25,277,149602,1,0,1:0:0:0:
17,269,149696,1,4,0:3:0:0:
22,258,149789,1,4,0:3:0:0:
104,236,149977,6,0,P|114:169|86:73,1,154.000004699707,6|8,3:2|0:0,0:0:0:0:
16,51,150539,1,0,0:0:0:0:
90,9,150727,2,0,P|140:11|222:9,1,115.50000352478,2|0,3:2|0:0,0:0:0:0:
239,35,151102,2,0,P|236:73|237:111,1,77.0000023498536,8|2,0:0|0:0,0:0:0:0:
291,177,151477,5,2,3:2:0:0:
238,243,151664,1,0,0:0:0:0:
274,319,151852,2,0,P|311:317|353:319,1,77.0000023498536,10|0,0:0|0:0,0:0:0:0:
430,347,152227,2,0,P|428:310|430:268,1,77.0000023498536,2|0,3:2|0:0,0:0:0:0:
381,200,152602,1,10,1:2:0:0:
457,163,152789,1,2,0:0:0:0:
460,152,152883,1,4,0:3:0:0:
463,141,152977,6,0,P|456:102|470:59,1,77.0000023498536,4|2,3:2|0:0,0:0:0:0:
406,5,153352,2,0,P|367:12|324:-2,1,77.0000023498536,10|0,1:2|0:0,0:0:0:0:
251,30,153727,1,6,3:2:0:0:
301,97,153914,1,0,0:0:0:0:
234,150,154102,2,0,P|239:188|242:226,1,77.0000023498536,10|0,1:2|0:0,0:0:0:0:
316,267,154477,5,6,1:2:0:0:
278,342,154664,1,0,0:0:0:0:
268,334,154758,1,2,1:2:0:0:
259,344,154852,1,8,0:0:0:0:
189,295,155039,1,2,1:2:0:0:
107,318,155227,2,0,L|113:276,3,38.5000011749268,4|0|4|4,1:0|1:0|0:3|0:3,0:0:0:0:
89,244,155602,2,0,L|95:202,3,38.5000011749268,12|8|8|8,0:3|0:3|0:3|0:3,0:0:0:0:
60,187,155977,6,0,P|25:140|43:75,2,105,2|0|0,0:1|3:2|3:2,0:0:0:0:
137,185,156727,2,0,P|172:232|154:297,2,105,2|2|2,3:1|3:2|3:2,0:0:0:0:
108,104,157477,6,0,P|178:106|270:102,1,154.000004699707,6|10,3:2|0:0,0:0:0:0:
329,153,158039,1,0,0:0:0:0:
412,138,158227,2,0,P|409:176|409:214,1,77.0000023498536,2|0,3:2|0:0,0:0:0:0:
357,281,158602,1,10,1:2:0:0:
276,254,158789,1,2,0:0:0:0:
265,250,158883,1,0,0:0:0:0:
256,258,158977,6,0,L|93:274,1,154.000004699707,2|8,3:2|0:0,0:0:0:0:
42,213,159539,1,2,0:0:0:0:
91,144,159727,2,0,L|167:136,1,77.0000023498536,2|0,3:2|0:0,0:0:0:0:
249,157,160102,1,10,0:2:0:0:
270,75,160289,1,0,0:0:0:0:
187,54,160477,6,0,L|68:65,2,115.50000352478,6|6|4,3:2|0:0|1:2,0:0:0:0:
270,75,161227,1,2,3:0:0:0:
249,157,161414,1,4,0:3:0:0:
167,135,161602,1,0,1:0:0:0:
164,146,161695,1,4,0:3:0:0:
161,157,161789,1,4,0:3:0:0:
137,238,161977,6,0,P|83:278|117:358,1,154.000004699707,6|8,3:2|0:0,0:0:0:0:
185,384,162539,1,0,0:0:0:0:
240,319,162727,2,0,P|289:316|316:317,1,77.0000023498536,2|0,3:2|0:0,0:0:0:0:
370,383,163102,1,8,0:0:0:0:
432,326,163289,1,2,0:0:0:0:
386,254,163477,5,2,3:2:0:0:
444,193,163664,1,0,0:0:0:0:
454,186,163758,1,0,0:0:0:0:
466,192,163852,2,0,L|458:66,1,115.50000352478,10|0,0:0|0:0,0:0:0:0:
430,44,164227,2,0,L|353:48,1,77.0000023498536,2|0,3:2|0:0,0:0:0:0:
276,11,164602,1,10,1:2:0:0:
225,78,164789,1,2,0:0:0:0:
228,90,164883,1,4,0:3:0:0:
231,102,164977,6,0,L|235:179,1,77.0000023498536,6|0,3:2|0:0,0:0:0:0:
278,251,165352,2,0,L|201:255,1,77.0000023498536,10|0,1:2|0:0,0:0:0:0:
125,294,165727,2,0,L|121:217,1,77.0000023498536,6|0,3:2|0:0,0:0:0:0:
78,145,166102,2,0,L|155:141,1,77.0000023498536,10|0,1:2|0:0,0:0:0:0:
209,75,166477,6,0,L|247:72,3,38.5000011749268,6|0|0|0,1:2|0:0|0:0|0:0,0:0:0:0:
275,40,166852,2,0,L|352:36,1,77.0000023498536,10|0,1:2|0:0,0:0:0:0:
423,81,167227,2,0,P|424:138|431:196,2,115.50000352478,12|8|8,1:0|1:0|1:0,0:0:0:0:
351,36,167977,6,0,P|296:82|317:161,1,140,6|12,3:0|0:0,0:0:0:0:
353,205,168539,1,0,0:0:0:0:
431,196,168727,2,0,P|428:278|431:353,1,140,2|8,0:1|0:0,0:0:0:0:
362,372,169289,1,2,0:1:0:0:
300,325,169477,6,2,P|234:322|174:325,2,105,2|2|2,3:1|0:1|0:1,0:1:0:0:
365,283,170227,2,2,P|430:285|490:283,2,105,2|2|2,3:1|0:1|0:1,0:1:0:0:
302,238,170977,6,2,P|303:203|303:168,1,70,6|2,3:1|0:1,0:1:0:0:
279,94,171352,2,0,P|313:95|348:95,1,70,8|0,0:0|0:0,0:0:0:0:
423,77,171727,2,0,P|421:111|421:146,1,70,2|2,3:1|0:1,0:0:0:0:
446,221,172102,2,0,P|411:219|376:219,1,70,8|2,0:0|0:1,0:0:0:0:
302,238,172477,6,0,P|299:307|300:377,1,140,6|10,3:1|0:1,0:0:0:0:
224,364,173039,2,0,P|154:361|84:362,1,140,10|4,0:1|0:3,0:0:0:0:
103,287,173602,2,0,P|104:252|103:217,1,70,0|4,1:0|0:3,0:0:0:0:
154,158,173977,5,4,3:1:0:0:
224,188,174164,2,0,P|222:222|223:257,2,70,2|10|2,0:1|0:1|0:1,0:0:0:0:
154,158,174727,2,2,P|156:88|155:18,1,140,2|10,3:1|0:1,0:1:0:0:
230,35,175289,1,2,0:1:0:0:
299,0,175477,5,2,3:1:0:0:
355,53,175664,2,0,P|353:87|354:122,2,70,0|10|2,0:0|0:1|0:1,0:0:0:0:
299,0,176227,2,2,P|368:2|438:1,1,140,0|10,3:1|0:1,0:1:0:0:
495,54,176789,1,2,0:1:0:0:
444,112,176977,6,0,P|442:146|443:181,1,70,4|2,3:1|0:1,0:0:0:0:
460,257,177352,2,0,P|425:255|390:256,1,70,10|2,0:1|0:1,0:0:0:0:
316,278,177727,2,2,P|318:225|317:173,2,105,2|0|2,3:1|0:0|0:1,0:1:0:0:
337,352,178477,6,0,P|263:349|190:350,1,140,6|8,1:0|0:0,0:0:0:0:
148,290,179039,1,2,1:0:0:0:
175,217,179227,2,0,P|192:218|209:217,3,35,4|4|2|4,1:0|1:3|1:0|1:3,0:0:0:0:
239,241,179602,2,0,P|256:240|273:241,3,35,12|8|8|8,1:3|1:3|1:3|1:3,0:0:0:0:
305,217,179977,6,2,P|340:165|311:94,1,140,6|12,3:1|0:0,0:1:0:0:
256,46,180539,1,0,0:0:0:0:
197,97,180727,1,0,3:0:0:0:
126,69,180914,2,0,P|127:29|126:-10,2,70,2|10|2,0:1|0:1|0:1,0:0:0:0:
197,97,181477,6,0,P|195:136|196:176,1,70,2|2,3:1|0:1,0:0:0:0:
217,241,181852,2,0,P|177:239|137:240,1,70,10|2,0:1|0:1,0:0:0:0:
71,255,182227,2,0,P|72:215|71:175,1,70,2|2,3:1|0:1,0:0:0:0:
51,111,182602,2,0,P|90:112|130:111,1,70,10|2,0:1|0:1,0:0:0:0:
197,97,182977,6,0,P|236:98|276:97,1,70,6|2,3:1|0:1,0:0:0:0:
341,77,183352,2,0,P|339:116|340:156,1,70,10|2,0:1|0:1,0:0:0:0:
355,223,183727,2,0,P|315:221|275:222,1,70,2|2,3:1|0:1,0:0:0:0:
211,243,184102,2,0,P|212:203|211:163,1,70,10|4,0:1|0:3,0:0:0:0:
197,97,184477,6,0,P|252:99|307:98,2,105,6|6|6,3:1|0:1|0:1,0:0:0:0:
141,150,185227,1,0,3:0:0:0:
65,135,185414,2,0,P|66:204|63:274,1,140,2|4,0:1|0:3,0:0:0:0:
113,334,185977,6,0,P|147:333|182:334,1,70,4|2,3:1|0:1,0:0:0:0:
241,283,186352,2,0,P|240:248|241:213,1,70,8|2,0:0|0:1,0:0:0:0:
192,153,186727,2,0,P|157:154|122:153,1,70,0|2,3:0|0:1,0:0:0:0:
63,204,187102,2,2,P|64:239|63:274,1,70,10|0,0:1|0:0,0:1:0:0:
113,334,187477,6,0,P|189:326|249:377,1,140,2|8,3:1|0:0,0:0:0:0:
287,301,188039,1,2,0:1:0:0:
348,254,188227,2,2,P|354:202|327:159,2,105,2|2|2,3:1|0:1|0:1,0:1:0:0:
358,330,188977,6,0,P|405:380|477:360,1,140,6|8,3:1|0:0,0:0:0:0:
506,300,189539,1,2,0:1:0:0:
464,234,189727,2,0,L|462:158,1,70,0|2,3:0|0:1,0:0:0:0:
482,89,190102,2,0,L|406:91,1,70,10|2,0:1|0:1,0:0:0:0:
336,73,190477,6,0,L|337:111,3,35,6|0|0|2,1:0|0:0|0:0|0:1,0:0:0:0:
312,137,190852,2,0,L|313:175,3,35,8|0|2|2,1:0|0:0|0:1|0:1,0:0:0:0:
287,200,191227,2,0,P|252:238|201:243,2,105,14|10|10,1:0|1:0|1:0,0:0:0:0:
362,216,191977,6,0,P|440:206|483:374,2,280,6|0|2,3:1|1:2|0:0,0:0:0:0:
261,166,193852,2,0,P|221:170|200:86,1,140,2|0,0:0|1:0,0:0:0:0:
308,78,194602,2,0,L|316:168,1,70,2|0,0:0|0:0,0:0:0:0:
261,166,194977,6,0,L|273:310,1,140,2|0,0:0|0:0,0:0:0:0:
236,348,195539,1,2,0:0:0:0:
186,322,195727,2,0,L|114:328,1,70,0|2,1:0|0:0,0:0:0:0:
73,291,196102,2,0,L|66:219,1,70,2|0,0:0|0:0,0:0:0:0:
27,180,196477,6,0,L|18:75,2,105,2|2|2,0:0|0:0|0:0,0:0:0:0:
66,221,197227,2,0,L|150:213,1,70,0|4,1:0|3:0,0:0:0:0:
157,162,197602,1,4,1:2:0:0:
210,177,197789,1,0,0:0:0:0:
250,137,197977,6,0,P|286:90|258:8,1,140,4|0,1:2|3:0,0:0:0:0:
215,37,198539,1,0,1:0:0:0:
163,13,198727,2,0,P|129:16|94:18,1,70,0|4,0:0|0:3,0:0:0:0:
49,51,199102,2,0,P|52:85|54:120,1,70,0|0,1:0|3:0,0:0:0:0:
27,170,199477,6,0,P|102:196|125:256,1,140,4|0,1:2|3:0,0:0:0:0:
130,303,200039,1,0,1:0:0:0:
182,322,200227,2,0,P|222:253|302:259,1,140,0|4,1:0|0:3,0:0:0:0:
328,263,200789,6,0,P|349:291|356:325,1,70,0|4,3:0|1:2,0:0:0:0:
400,222,201352,2,0,L|413:66,2,140,0|0|0,1:0|1:0|1:0,0:0:0:0:
444,256,202289,1,0,0:0:0:0:
499,245,202477,6,0,L|502:206,3,35,2|0|0|2,1:2|0:0|0:0|1:2,0:0:0:0:
482,189,202852,2,0,L|485:150,3,35,0|0|2|0,0:0|0:0|1:2|0:0,0:0:0:0:
465,133,203227,2,0,L|468:94,3,35,4|0|4|0,1:0|1:0|0:3|0:3,0:0:0:0:
448,77,203602,2,0,L|451:38,3,35,0|0|0|0,1:0|1:0|1:0|1:0,0:0:0:0:
30,265,205477,6,0,L|21:373,2,105,2|2|2,0:0|0:0|0:0,0:0:0:0:
74,231,206227,2,0,L|82:122,2,105,2|2|2,0:0|0:0|1:2,0:0:0:0:
82,240,206883,1,0,1:0:0:0:
90,247,206977,6,0,P|129:251|166:257,1,77.0000023498536,6|0,3:2|0:0,0:0:0:0:
234,307,207352,2,0,P|237:268|244:230,1,77.0000023498536,10|0,0:0|0:0,0:0:0:0:
189,165,207727,1,2,3:2:0:0:
260,119,207914,1,0,0:0:0:0:
197,61,208102,1,10,1:2:0:0:
268,15,208289,1,2,0:0:0:0:
277,22,208383,1,0,0:0:0:0:
286,29,208477,6,0,L|446:18,1,154.000004699707,2|8,3:2|0:0,0:0:0:0:
508,68,209039,1,2,0:0:0:0:
467,142,209227,2,0,L|390:147,1,77.0000023498536,2|0,3:2|0:0,0:0:0:0:
336,213,209602,1,10,0:2:0:0:
381,284,209789,1,0,0:0:0:0:
389,292,209883,1,4,0:3:0:0:
397,299,209977,6,0,L|512:291,2,115.50000352478,6|4|4,3:2|0:0|1:2,0:0:0:0:
336,359,210727,1,2,3:0:0:0:
269,315,210914,1,4,0:3:0:0:
189,345,211102,1,0,1:0:0:0:
181,337,211196,1,4,0:3:0:0:
186,326,211289,1,4,0:3:0:0:
211,244,211477,6,0,L|49:255,1,154.000004699707,6|8,3:2|0:0,0:0:0:0:
16,180,212039,1,0,0:0:0:0:
83,122,212227,2,0,L|198:113,1,115.50000352478,2|0,3:2|0:0,0:0:0:0:
232,87,212602,2,0,L|237:171,1,77.0000023498536,8|2,0:0|0:0,0:0:0:0:
211,244,212977,5,2,3:2:0:0:
162,313,213164,1,0,0:0:0:0:
230,363,213352,2,0,L|313:353,1,77.0000023498536,10|0,0:0|0:0,0:0:0:0:
390,366,213727,2,0,L|380:283,1,77.0000023498536,2|0,3:2|0:0,0:0:0:0:
339,215,214102,1,10,1:2:0:0:
423,219,214289,1,2,0:0:0:0:
426,208,214383,1,4,0:3:0:0:
429,197,214477,6,0,P|422:158|436:115,1,77.0000023498536,6|0,3:2|0:0,0:0:0:0:
462,43,214852,2,0,P|423:50|380:36,1,77.0000023498536,10|0,1:2|0:0,0:0:0:0:
304,57,215227,1,6,3:2:0:0:
338,134,215414,1,0,0:0:0:0:
265,178,215602,2,0,L|265:258,1,77.0000023498536,10|0,1:2|0:0,0:0:0:0:
335,301,215977,5,6,1:2:0:0:
267,351,216164,1,0,0:0:0:0:
257,343,216258,1,0,0:0:0:0:
248,353,216352,1,10,1:2:0:0:
187,294,216539,1,0,0:0:0:0:
114,338,216727,2,0,L|72:344,3,38.5000011749268,12|4|4|8,1:0|0:3|0:3|1:0,0:0:0:0:
104,312,217102,2,0,L|62:318,3,38.5000011749268,4|0|8|0,0:3|0:3|1:0|1:0,0:0:0:0:
94,285,217477,6,0,P|47:241|51:151,1,154.000004699707,2|12,0:2|1:2,0:0:0:0:
88,90,218039,1,0,0:0:0:0:
159,119,218227,2,0,L|241:109,1,77.0000023498536,2|0,3:2|0:3,0:0:0:0:
297,51,218602,1,8,0:0:0:0:
351,115,218789,1,0,0:0:0:0:
361,120,218883,1,0,0:0:0:0:
358,130,218977,6,0,L|374:282,1,154.000004699707,2|10,3:2|0:0,0:0:0:0:
329,354,219539,1,0,0:0:0:0:
250,322,219727,2,0,L|241:245,1,77.0000023498536,2|4,3:2|0:3,0:0:0:0:
185,181,220102,1,8,1:0:0:0:
107,215,220289,1,2,0:0:0:0:
111,204,220383,1,0,0:0:0:0:
103,195,220477,6,0,L|85:15,1,154.000004699707,2|8,3:2|0:0,0:0:0:0:
170,61,221039,1,0,0:0:0:0:
246,24,221227,2,0,L|254:113,1,77.0000023498536,2|0,3:2|0:0,0:0:0:0:
215,176,221602,1,8,0:0:0:0:
291,211,221789,1,2,0:0:0:0:
292,222,221883,1,2,0:0:0:0:
293,234,221977,6,0,P|356:239|390:294,2,115.50000352478,6|6|4,3:2|0:0|1:2,0:0:0:0:
236,297,222727,1,2,3:0:0:0:
168,247,222914,1,4,3:0:0:0:
215,176,223102,1,2,1:3:0:0:
214,165,223196,1,6,0:3:0:0:
213,153,223289,1,4,0:3:0:0:
254,78,223477,6,0,P|194:124|119:121,1,154.000004699707,6|8,3:2|0:0,0:0:0:0:
44,81,224039,1,0,0:0:0:0:
7,157,224227,2,0,L|14:233,1,77.0000023498536,2|0,3:2|0:0,0:0:0:0:
88,276,224602,1,8,0:0:0:0:
168,247,224789,1,2,0:0:0:0:
178,242,224883,1,0,0:0:0:0:
187,236,224977,6,0,L|195:313,1,77.0000023498536,2|0,3:2|0:0,0:0:0:0:
258,368,225352,2,0,L|335:360,1,77.0000023498536,10|0,0:0|0:0,0:0:0:0:
392,297,225727,2,0,L|379:173,1,115.50000352478,2|0,3:2|0:0,0:0:0:0:
406,149,226102,2,0,L|483:141,1,77.0000023498536,10|2,1:2|0:0,0:0:0:0:
436,69,226477,6,0,L|359:77,1,77.0000023498536,4|2,3:2|0:0,0:0:0:0:
278,51,226852,2,0,L|286:128,1,77.0000023498536,10|0,1:2|0:0,0:0:0:0:
258,207,227227,1,6,3:2:0:0:
327,255,227414,1,0,0:0:0:0:
263,311,227602,1,10,1:2:0:0:
332,359,227789,1,0,0:0:0:0:
342,353,227883,1,0,0:0:0:0:
352,347,227977,6,0,P|431:346|462:256,1,154.000004699707,6|8,1:2|0:0,0:0:0:0:
422,214,228539,1,2,1:2:0:0:
472,146,228727,2,0,L|475:102,3,38.5000011749268,4|0|4|4,1:0|1:0|0:3|0:3,0:0:0:0:
436,91,229102,2,0,L|439:47,3,38.5000011749268,12|8|8|8,0:3|0:3|0:3|0:3,0:0:0:0:
406,24,229477,6,0,P|342:11|279:73,1,154.000004699707,6|10,3:2|0:0,0:0:0:0:
255,147,230039,1,0,0:0:0:0:
328,188,230227,2,0,P|326:227|327:265,1,77.0000023498536,2|0,3:2|0:0,0:0:0:0:
256,311,230602,1,8,0:0:0:0:
184,265,230789,1,0,0:0:0:0:
181,254,230883,1,0,0:0:0:0:
176,242,230977,6,0,P|104:260|42:218,1,154.000004699707,2|10,3:2|0:0,0:0:0:0:
82,144,231539,1,0,0:0:0:0:
41,69,231727,2,0,P|98:66|121:64,1,77.0000023498536,2|0,3:2|0:0,0:0:0:0:
195,98,232102,1,10,1:2:0:0:
265,51,232289,1,2,0:0:0:0:
269,61,232383,1,0,0:0:0:0:
273,71,232477,6,0,P|276:128|278:151,1,77.0000023498536,2|0,3:2|0:0,0:0:0:0:
313,224,232852,2,0,P|256:227|233:229,1,77.0000023498536,8|2,0:0|0:0,0:0:0:0:
161,188,233227,1,2,3:2:0:0:
109,254,233414,1,0,0:0:0:0:
183,294,233602,1,10,0:2:0:0:
131,360,233789,1,0,0:0:0:0:
119,357,233883,1,4,0:3:0:0:
107,354,233977,6,0,P|51:338|41:265,2,115.50000352478,6|4|4,3:2|0:0|1:2,0:0:0:0:
183,294,234727,1,2,3:0:0:0:
256,336,234914,1,4,0:3:0:0:
329,294,235102,1,0,1:0:0:0:
337,302,235195,1,4,0:3:0:0:
329,310,235289,1,4,0:3:0:0:
262,256,235477,6,0,P|260:195|351:157,1,154.000004699707,6|8,3:2|0:0,0:0:0:0:
409,190,236039,1,0,0:0:0:0:
479,142,236227,2,0,P|480:103|483:65,1,77.0000023498536,2|0,3:2|0:0,0:0:0:0:
423,5,236602,1,8,0:0:0:0:
348,45,236789,1,2,0:0:0:0:
338,51,236883,1,0,0:0:0:0:
328,56,236977,6,0,P|324:95|324:133,1,77.0000023498536,2|0,3:2|0:0,0:0:0:0:
288,211,237352,2,0,P|249:207|211:207,1,77.0000023498536,10|0,0:0|0:0,0:0:0:0:
153,145,237727,2,0,P|159:83|159:22,2,115.50000352478,2|2|2,3:2|0:0|3:2,0:0:0:0:
211,207,238477,6,0,P|201:258|201:288,1,77.0000023498536,6|0,3:2|0:0,0:0:0:0:
221,365,238852,2,0,P|170:355|140:355,1,77.0000023498536,10|0,1:2|0:0,0:0:0:0:
60,362,239227,2,0,P|70:311|70:281,1,77.0000023498536,6|0,3:2|0:0,0:0:0:0:
50,204,239602,2,0,P|101:214|131:214,1,77.0000023498536,10|0,1:2|0:0,0:0:0:0:
211,207,239977,6,0,P|213:130|230:55,1,154.000004699707,6|10,1:2|1:2,0:0:0:0:
160,7,240539,1,0,0:0:0:0:
75,12,240727,2,0,P|73:69|60:126,2,115.50000352478,12|8|8,1:0|1:0|1:0,0:0:0:0:
160,7,241477,5,4,3:2:0:0:
256,192,241570,12,0,244477,0:0:0:0:
